<svg xmlns="http://www.w3.org/2000/svg"><defs><font id="1.000;Hanyi;HanyiHei-vivo-65" horiz-adv-x="1112"><font-face font-family="HanyiHei-vivo 65" font-weight="400" panose-1="0 0 5 0 0 0 0 0 0 0" ascent="928" descent="-244" x-height="0" bbox="-40 -255 1105 829" underline-thickness="50" underline-position="-75" unicode-range="U+0021-9f9f"/><glyph glyph-name="A" unicode="A" d="M307 712h127L730-41H608l-73 190H201L127-41H6l301 753zm62-134L241 251h255L371 578h-2z"/><glyph glyph-name="B" unicode="B" d="M354 712q145 0 208.5-50T626 515q0-61-34.5-106T501 345q73-16 112-61.5T652 172q0-109-68-161T379-41H82v753h272zm182-534q0 62-47 87t-135 25H198V61h156q92 0 137 29t45 88zm-25 324q0 56-41.5 81.5T342 609H198V393h146q73 0 120 29.5t47 79.5z"/><glyph glyph-name="C" unicode="C" d="M49 335q0 109 38 198.5T202.5 676Q280 729 393 729q125 0 205-61t109-170H589q-28 66-76.5 97T393 626q-71 0-122.5-37T192 486q-27-66-27-151 0-86 27-152t78.5-102.5Q322 44 393 44t121 32.5q50 32.5 74 97.5h119Q675 63 596.5 2.5T393-58Q278-58 200.5-5T86 137q-37 89-37 198z"/><glyph glyph-name="D" unicode="D" d="M358 712q118 0 196-51t114.5-136Q705 440 705 336q0-109-37.5-194T550 8q-80-49-201-49H82v753h276zm231-376q0 79-27.5 140.5t-83 97Q423 609 342 609H198V61h146q120 0 182.5 74.5T589 336z"/><glyph glyph-name="E" unicode="E" d="M609 712V609H197V393h370V290H197V61h418V-41H82v753h527z"/><glyph glyph-name="F" unicode="F" d="M602 712V609H197V375h363V273H197V-41H82v753h520z"/><glyph glyph-name="G" unicode="G" d="M52 336q0 111 41.5 200.5t120.5 141Q293 729 401 729q127 0 204-59.5T710 507H589q-23 61-71 90.5T401 627q-70 0-122.5-37.5T197 486q-29-66-29-150 0-83 28.5-149.5t81-104Q330 45 399 45q63 0 109.5 26t70.5 70q24 44 25 95v32H397v103h323v-84q0-107-38-184.5t-110.5-119Q499-58 398-58 296-58 217.5-8t-122 139.5Q52 221 52 336z"/><glyph glyph-name="H" unicode="H" d="M197 712V397h393v315h115V-41H590v336H197V-41H82v753h115z"/><glyph glyph-name="I" unicode="I" d="M198 712V-41H82v753h116z"/><glyph glyph-name="J" unicode="J" d="M32 172v24h116v-16q1-67 34.5-101.5T271 44q57 0 91.5 36.5T397 186v526h116V177q0-117-67.5-176T271-58Q163-58 97.5 1T32 172z"/><glyph glyph-name="K" unicode="K" d="M82 712h115V368l322 344h140L384 411 697-41H555L304 321 197 207V-41H82v753z"/><glyph glyph-name="L" unicode="L" d="M197 712V61h383V-41H82v753h115z"/><glyph glyph-name="M" unicode="M" d="m243 712 252-601h2l247 601h161V-41H791l-1 568h-1L552-41H439L199 527h-2V-41H82v753h161z"/><glyph glyph-name="N" unicode="N" d="m204 712 393-570h2v570h116V-41H594L199 529h-1V-41H82v753h122z"/><glyph glyph-name="O" unicode="O" d="M49 335q0 108 38.5 197.5t117 143Q283 729 397 729t192.5-54q78.5-54 117-143.5T745 335q0-109-38-198T590.5-5Q512-58 397-58 283-58 204.5-4t-117 143.5Q49 229 49 335zm581 0q0 81-27.5 147.5t-80 105.5Q470 627 397 627t-125.5-39Q219 549 192 482.5T165 335q0-80 27-146t79.5-105Q324 45 397 45q75 0 127.5 38t79 104Q630 253 630 335z"/><glyph glyph-name="P" unicode="P" d="M639 480q0-109-67-172.5T364 244H197V-41H82v753h282q143 0 209-62.5T639 480zm-116 0q0 63-43.5 96T351 609H197V347h152q174 1 174 133z"/><glyph glyph-name="Q" unicode="Q" d="M49 335q0 109 40 198.5T207.5 676Q286 729 397 729t189.5-53Q665 623 705 533.5T745 335q0-107-39-197-29-67-81-114l109-132H597l-59 76q-62-26-141-26-112 0-190.5 53t-118 142.5Q49 227 49 335zm581 0q0 83-28.5 149.5T520 589q-53 38-123 38-71 0-123.5-38T193 484.5Q165 418 165 335q0-82 28-148t80.5-104Q326 45 397 45q39 0 72 11l-89 115h126l48-60q29 31 48 75 28 66 28 149z"/><glyph glyph-name="R" unicode="R" d="M374 712q118 0 187-59t69-159q0-68-31-119.5T510 295q-15-7-31-12L659-41H527L363 268H197V-41H82v753h292zm140-218q0 54-39.5 84.5T361 609H197V372h164q74 0 113.5 32.5T514 494z"/><glyph glyph-name="S" unicode="S" d="M26 174h130Q201 45 342 45q63 0 102.5 30t39.5 74q0 38-23.5 63t-57 40Q370 267 316 285q-135 47-196 98T59 513q0 69 36 118t97.5 73.5Q254 729 329 729q107 0 180.5-52.5T605 524H478q-18 50-57 76.5T326 627q-57 0-97-29t-40-72q0-33 18.5-55t51.5-38q33-16 91-36 91-31 147-62t86-72.5Q613 221 613 162q0-62-32.5-112t-95-79Q423-58 338-58 220-58 138.5.5T26 174z"/><glyph glyph-name="T" unicode="T" d="M6 609v103h589V609H358V-41H243v650H6z"/><glyph glyph-name="U" unicode="U" d="M79 256v456h116V259q0-99 47-156.5T384 45q94 0 141 55.5T572 259v453h115V256q0-153-81-233.5T384-58q-142 0-223.5 79.5T79 256z"/><glyph glyph-name="V" unicode="V" d="M6 712h124l217-610h2l215 610h124L412-41H284L6 712z"/><glyph glyph-name="W" unicode="W" d="M7 712h126l173-599h2l179 599h134l185-599h2l170 599h127L874-41H741L557 566h-2L373-41H242L7 712z"/><glyph glyph-name="X" unicode="X" d="M269 341 16 712h134l186-274 186 274h135L404 341 664-41H531L336 244 142-41H8l261 382z"/><glyph glyph-name="Y" unicode="Y" d="M6 712h135l204-335h2l196 335h136L403 257V-41H287v298L6 712z"/><glyph glyph-name="Z" unicode="Z" d="M482 609H62v103h576v-85L194 64h447V-41H39v89l443 561z"/><glyph glyph-name="a" unicode="a" d="M45 85q0 63 33 106t102 71q79 32 242 52v24q0 43-30 69.5T301 434q-101 0-134-78L62 368q26 75 89 117t156 42q110 0 169-51t59-141V-41H433l-6 65q-37-37-90-59.5T224-58q-75 0-127 37T45 85zm377 18v119q-130-15-189-37-75-30-75-87 0-32 23.5-48T249 34q88 0 173 69z"/><glyph glyph-name="amacron" unicode="ā" d="M45 85q0 63 33 106t102 71q79 32 242 52v24q0 43-30 69.5T301 434q-101 0-134-78L62 368q26 75 89 117t156 42q110 0 169-51t59-141V-41H433l-6 65q-37-37-90-59.5T224-58q-75 0-127 37T45 85zm377 18v119q-130-15-189-37-75-30-75-87 0-32 23.5-48T249 34q88 0 173 69zM123 689h363v-82H123v82z"/><glyph glyph-name="b" unicode="b" d="M178 41v-82H65v753h113V425q26 51 74 76.5T353 527q72 0 126-35t84-101.5Q593 324 593 234q0-87-29-153T480.5-21.5Q426-58 352-58q-56 0-102 25.5T178 41zm302 193q0 87-41.5 141T329 429q-44 0-79-25t-54-69.5Q177 290 177 233q0-86 42-140t110-54q68 0 109.5 54T480 234z"/><glyph glyph-name="c" unicode="c" d="M44 237q0 81 32 147t93 104.5Q230 527 314 527q104 0 165-51.5T560 344H447q-21 45-53.5 65T314 429q-71 0-114-52.5T157 237q0-90 42-144t115-54q47 0 80.5 21.5T446 122h114Q535 39 475-9.5T314-58q-83 0-144 39T76.5 87Q44 154 44 237z"/><glyph glyph-name="d" unicode="d" d="M44 234q0 90 30 156.5T158 492q54 35 126 35 54 0 101.5-25.5T459 425v287h114V-41H459v82q-25-48-71-73.5T285-58q-74 0-128.5 36.5T73 81q-29 66-29 153zm417-1q0 57-19.5 101.5t-54 69.5Q353 429 308 429q-68 0-109.5-54T157 234q0-87 41.5-141T308 39q69 0 111 54t42 140z"/><glyph glyph-name="e" unicode="e" d="M44 240q0 81 30.5 146t91 103Q226 527 312 527t145-37.5q59-37.5 87.5-101T573 247v-50H158q0-71 43-116.5T318 35q53 0 88 19.5t51 55.5h106Q509-58 318-58q-89 0-150.5 39T75 87.5Q44 155 44 240zm268 194q-49 0-83.5-22t-52-57Q159 320 159 284h301q0 37-16.5 71.5t-50 56.5Q360 434 312 434z"/><glyph glyph-name="f" unicode="f" d="M11 512h112v93q0 64 44 93.5T279 728q27 0 54.5-4t44.5-11v-95q-11 7-29.5 11t-35.5 4q-32 0-54-14.5T237 573v-61h145v-93H237V-40H123v459H11v93z"/><glyph glyph-name="g" unicode="g" d="M56-89h108q21-39 56-56.5t89-17.5q66 0 108 39t42 105v61q-26-50-73.5-75T284-58q-72 0-126 35T74 77.5Q44 143 44 233q0 88 29 154.5t83.5 103Q211 527 285 527q55 0 101.5-26.5T459 426v86h114V-13q0-115-65.5-178.5T311-255q-97 0-161 39.5T56-89zm405 322q0 87-42 141.5T308 429q-68 0-109.5-54.5T157 233q0-86 41.5-140T308 39q45 0 79.5 25t54 69Q461 177 461 233z"/><glyph glyph-name="h" unicode="h" d="M178 712V445q40 40 85.5 61t92.5 21q95 0 145-51t50-149V-41H438v346q0 61-31 95t-86 34q-38 0-75-17t-68-48V-41H65v753h113z"/><glyph glyph-name="i" unicode="i" d="M183 506V-41H69v547h114zM61 657q0 29 18 46t48 17q27 0 45.5-17.5T191 657q0-26-19-45t-45-19q-29 0-47.5 18.5T61 657z"/><glyph glyph-name="j" unicode="j" d="M-40-211v95q17-3 46-3 31 0 45.5 19.5T66-39v545h113V-74q0-68-37.5-105.5T37-217q-50 0-77 6zm97 868q0 29 18 46t48 17q28 0 46-17t18-46q0-26-18.5-45T123 593q-29 0-47.5 18.5T57 657z"/><glyph glyph-name="k" unicode="k" d="M50 712h112V278l239 234h138L306 281 557-42H424L230 206l-68-67V-42H50v754z"/><glyph glyph-name="l" unicode="l" d="M178 712V-41H65v753h113z"/><glyph glyph-name="m" unicode="m" d="M177 512v-68q36 37 82 60t92 23q61 0 100.5-22.5T518 431h1q38 44 87.5 70t98.5 26q90 0 139.5-50T894 329V-41H780v354q0 57-31 89t-81 32q-33 0-69-22t-63-54V-41H422v350q0 58-29.5 91.5T317 434q-36 0-73.5-21T177 360V-41H65v553h112z"/><glyph glyph-name="n" unicode="n" d="M177 512v-67q41 40 86.5 61t92.5 21q97 0 146-51t49-149V-41H437v346q0 61-31 95t-86 34q-77 0-143-66V-41H65v553h112z"/><glyph glyph-name="o" unicode="o" d="M44 236q0 86 33.5 152T171 490.5Q231 527 309 527t138-36.5Q507 454 540.5 388T574 236q0-86-33.5-153T447-21q-60-37-138-37T171-21Q111 16 77.5 83T44 236zm417 0q0 56-19 100t-54 68.5Q353 429 309 429t-78.5-24.5Q196 380 176.5 336T157 236q0-58 19.5-102.5t54-69.5Q265 39 309 39q45 0 79.5 25t53.5 69.5Q461 178 461 236z"/><glyph glyph-name="p" unicode="p" d="M178 512v-86q27 49 73 75t101 26q74 0 128.5-36.5t83.5-103Q593 321 593 233q0-90-30-156T479-23.5Q425-58 353-58q-54 0-101.5 25T178 42v-280H65v750h113zm302-279q0 87-41 141.5T329 429q-69 0-110.5-54.5T177 233q0-56 19-100t54-69q35-25 79-25 68 0 109.5 54T480 233z"/><glyph glyph-name="q" unicode="q" d="M284-58q-72 0-126 35T74 77.5Q44 143 44 233q0 88 29 154.5t83.5 103Q211 527 285 527q55 0 101.5-26.5T459 426v86h114v-750H459V42q-26-50-73.5-75T284-58zm177 291q0 87-42 141.5T308 429q-68 0-109.5-54.5T157 233q0-86 41.5-140T308 39q45 0 79.5 25t54 69Q461 177 461 233z"/><glyph glyph-name="r" unicode="r" d="M177 407q31 52 86 82.5T380 520v-94q-57 0-112.5-26T177 320V-42H65v554h112V407z"/><glyph glyph-name="s" unicode="s" d="M25 110h109q32-81 136-81 50 0 81 19.5t31 51.5q0 25-16 41.5T324.5 169Q299 180 252 194q-104 29-153 69T50 370q0 44 27.5 80t77.5 56.5Q205 527 269 527q88 0 146.5-40T491 372H382q-11 31-41 48.5T269 438q-47 0-76-19.5T164 369q0-34 30.5-53t84.5-34q117-30 169-68.5T500 103q0-74-64-117.5T269-58q-86 0-152.5 40T25 110z"/><glyph glyph-name="t" unicode="t" d="M105 60v359H9v93h96v143h113V512h127v-93H218V93q0-56 72-56 27 0 54 10v-91q-46-14-106-14-61 0-97 28.5T105 60z"/><glyph glyph-name="u" unicode="u" d="M65 142v370h112V163q0-60 33.5-94T300 35q38 0 73.5 16.5T438 99v413h113V-41H438v65q-38-39-85-60.5T260-58q-95 0-145 51T65 142z"/><glyph glyph-name="v" unicode="v" d="M5 512h123L284 67h2l154 445h125L355-41H215L5 512z"/><glyph glyph-name="w" unicode="w" d="M6 512h124L255 74h2l111 438h149L634 74h1l122 438h123L705-41H562L444 387h-1L328-41H185L6 512z"/><glyph glyph-name="x" unicode="x" d="M211 238 9 512h126l139-190 140 190h126L337 237 544-41H417L274 153 133-41H6l205 279z"/><glyph glyph-name="y" unicode="y" d="M87-248v98q18-6 47-6 23 0 42 9.5t27 30.5l32 85L5 512h122l163-402 156 402h121L292-172q-35-83-129-83-43 0-76 7z"/><glyph glyph-name="z" unicode="z" d="M363 419H52v93h461v-75L187 52h339v-93H36v74l327 386z"/><glyph glyph-name="uni4E00" unicode="一" d="M954 432V327H45v105h909z"/><glyph glyph-name="uni4E01" unicode="丁" d="M462 88v550H62v97h876v-97H570V56q0-54-15-83.5T506-69q-34-12-97-12H259l-20 99h142q36 0 52.5 5.5T456 43q6 14 6 45z"/><glyph glyph-name="uni4E03" unicode="七" d="M451 102q0-32 5.5-47.5t22-22Q495 26 530 26h181q39 0 56.5 5.5t24 21Q798 68 801 104l7 127 97-23-8-154q-2-47-19.5-73T826-55.5Q792-66 735-66H515q-62 0-97 13.5T367.5-7Q352 25 352 83v293L60 330l-15 95 307 48v316h99V489l493 78 13-95-506-81V102z"/><glyph glyph-name="uni4E07" unicode="万" d="M807 108q-6-70-24.5-106T726-48.5Q688-63 617-63H463l-20 94h142q49 0 73 8t35 30.5Q704 92 708 140l3 39 16 221H394q-9-84-25-146-24-98-82.5-183T118-101L38-29q105 82 159 153.5t76 156Q295 365 304 502q5 87 7 144H62v95h881v-95H412q-3-77-8-145 0-4-1-7h431q-5-74-13-193.5T807 108z"/><glyph glyph-name="uni4E08" unicode="丈" d="m954 4-48-96Q690-27 563 42q-44 24-83 52-19-15-40-30Q323-17 98-103L47-10q206 68 311 136 25 16 46 32-26 26-49 54-81 101-154 271l91 37q65-160 139-252 18-22 39-42 21 27 35 57 41 90 44 234v16H70v91h480v172h98q0-88 1-129v-43h277v-91H648v-13q1-164-45-269-21-47-55-89 36-24 77-45Q744 58 954 4z"/><glyph glyph-name="uni4E09" unicode="三" d="M944 61v-94H56v94h888zm-58 658v-96H113v96h773zm-45-312v-92H160v92h681z"/><glyph glyph-name="uni4E0A" unicode="上" d="M525 795V519h372v-91H525V37h428v-91H50v91h379v758h96z"/><glyph glyph-name="uni4E0B" unicode="下" d="m895 282-62-82q-58 48-152 119-89 69-156 116V-92h-99v731H59v93h883v-93H525V448l50 68q72-49 173-122.5T895 282z"/><glyph glyph-name="uni4E0D" unicode="不" d="M917 738v-96H609q-48-84-107-163h46V-90h-95v507q-19-23-39-45-127-142-300-272l-65 84q159 106 278 232 103 110 170 226H86v96h831zm33-547-71-80q-59 59-154 146T560 404l60 71q70-56 170.5-142.5T950 191z"/><glyph glyph-name="uni4E0E" unicode="与" d="M301 437h567l-2-24Q844 73 845 79q-5-67-22-101.5T770-71q-36-14-105-14H485L466 6h170q46 0 68 7t31.5 27q9.5 20 12.5 65l17 238H195l33 440h99l-9-118h593v-91H311l-10-137zm401-215v-91H49v91h653z"/><glyph glyph-name="uni4E10" unicode="丐" d="M889 538v-85H538V337h335q-3-48-11-144.5T850 67q-8-79-50-111.5T665-77H465l-18 88h204q39 0 59.5 8.5t30 27.5q9.5 19 13.5 55 4 28 9 79t6 70H127l31 347 96-3-21-258h212v320H64v87h872v-87H538V538h351z"/><glyph glyph-name="uni4E11" unicode="丑" d="M946 41v-90H51v90h205l33 277H107v91h192l29 241H116v93h726L805 41h141zm-594 0h353l15 277H385L352 41zm386 609H425l-29-241h329l13 241z"/><glyph glyph-name="uni4E13" unicode="专" d="M942 497v-89H384q-21-53-43-99h498v-93q-76-73-201-180 98-34 169-59l-35-93Q654-71 479-10.5T174 92l29 88q122-39 306-101 14-5 28-9 97 78 172 151H226v77q26 49 52 110H57v89h257q6 17 13 36 12 33 23 65H111v88h267q17 57 30 112l98-11q-12-50-27-101h409v-88H453q-10-30-21-61l-14-40h524z"/><glyph glyph-name="uni4E14" unicode="且" d="M811 757V26h142v-87H47v87h143v731h621zM285 26h430v163H285V26zm0 252h430v152H285V278zm430 389H285V518h430v149z"/><glyph glyph-name="uni4E16" unicode="世" d="M265 769V572h153v221h94V572h200v222h94V572h148v-92H806V170H418v310H265V36h663v-88H169v532H45v92h124v197h96zm447-509v220H512V260h200z"/><glyph glyph-name="uni4E18" unicode="丘" d="M949 42v-86H52v86h149v667q342 17 625 78l27-91q-127-27-276-45.5T301 623V447h607v-86H717V42h232zm-648 0h317v319H301V42z"/><glyph glyph-name="uni4E19" unicode="丙" d="M878 43q0-52-13-80t-43.5-39.5Q791-88 736-88H612L593 6h114q34 0 50 5t22 19.5q6 14.5 6 45.5v371H542q-4-34-11-64 82-65 241-201l-59-76q-104 94-215 188-24-47-64-89-58-62-159-129l-57 66V-93h-93v630h327q1 34 1 115H59v90h880v-90H547q-1-44-2-112v-3h333V43zM356 263q51 52 72 110 12 33 18 74H218V158q89 56 138 105z"/><glyph glyph-name="uni4E1A" unicode="业" d="M665 786V240q41 79 89 185 52 113 85 197l93-40q-32-78-88-199t-96-200l-83 43V41h280v-94H56v94h281v186l-89-41q-36 89-88 209.5T75 586l89 40q40-85 94-205 49-108 79-177v542h100V41h129v745h99z"/><glyph glyph-name="uni4E1B" unicode="丛" d="m960 137-75-75Q753 181 687 324q-18 38-31 80-27-87-75-160-60-92-163-186l-75 61q103 93 157 174t77 178q23 97 28 247l1 71h95l-3-70q-1-53-4-100 14-133 62-233 64-134 204-249zM259 687q1 19 2 49.5t1 52.5h94l-4-102q-3-60-8-113 74-84 175-204l-69-63q-66 80-123 147l-4-18q-22-103-69-190T123 61l-75 65q81 90 123.5 165T233 456q19 90 26 231zM908 34v-90H87v90h821z"/><glyph glyph-name="uni4E1C" unicode="东" d="M477 57v226H132v90q55 73 131 211l1 2H70v89h241q40 78 64 133l99-30q-17-39-50-103h497v-89H376l-9-16q-78-141-118-198h228v171h90V372h313v-89H567V34q0-48-13-73.5t-41.5-36Q484-86 433-86H323L307 3h102q41 0 54.5 11T477 57zM270 246l76-62q-46-64-114-136T101-74L36 4q61 46 126 112.5T270 246zM954 7l-71-73Q831-10 757.5 62.5T635 178l68 68q90-80 251-239z"/><glyph glyph-name="uni4E1D" unicode="丝" d="M553 256q25 23 80 92 27 34 55 70-63-1-104-2-57-2-90-8l-25 82q20 7 29 12.5t15 14.5q26 29 84.5 121.5T689 797l80-41q-31-58-82.5-138.5T603 495l146 6q55 79 88 138l75-44q-47-80-131.5-194.5T653 244l250 18-2-89q-159-9-250-15.5T513 144l-16 87q22 4 32 9t24 16zm-390 6q20 19 71 85 26 34 54 71-65-1-107-2-53-2-86-7l-22 85q18 5 27 10.5t16 13.5q29 30 87.5 121.5T293 798l82-40q-27-54-79.5-135.5T208 496l138 5q55 80 92 144l75-41q-45-83-124.5-197.5T265 245l195 14-2-90q-126-6-202-11t-127-14l-20 89q22 6 32 11.5t22 17.5zM949 21v-87H50v87h899z"/><glyph glyph-name="uni4E22" unicode="丢" d="M945 306v-88H476q-74-83-192-192l408 21-30 31q-51 51-69 70l67 60L908-38l-67-68-67 69h-7Q474-48 332-54.5T132-70l-27 95q28 5 41.5 10.5T176 52q45 31 119 103 35 34 62 63H57v88h400v123H132v85h325v121q-187-13-337-19l-13 88q174 6 395.5 23.5T863 764l19-89q-134-17-335-33V514h323v-85H547V306h398z"/><glyph glyph-name="uni4E24" unicode="两" d="M878 47q0-48-12-73.5t-39.5-36Q799-73 749-73H633l-16 86h106q38 0 50.5 11.5T786 68v93l-53-46q-32 40-85 102-20 24-37 43-3-10-7-20-44-114-139-223l-76 46q93 106 133 206 33 84 39 199H411q-2-47-10-90 54-58 109-120l-66-60q-39 46-68 79-3-7-5-14-39-100-129-206l-52 36V-77h-89v630h223q1 30 1 67v51H51v85h874v-85H655v-37q-1-49-2-81h225V47zM257 233q32 56 46 121 11 48 17 114H190V135q42 54 67 98zm391 113q98-110 138-156v278H651q-3-58-14-111l11-11zM415 609q-1-30-1-56h149l1 118H416q-1-28-1-62z"/><glyph glyph-name="uni4E25" unicode="严" d="M142 272v151h222v242H74v81h874v-81H669V423h274v-82H232v-91q0-79-10.5-135.5T185.5 6Q160-46 112-110L29-67Q76-9 99.5 37t33 99.5Q142 190 142 272zm318 151h112v242H460V423zM237 608l99-117-72-62q-24 32-70.5 89.5T127 598l70 57 40-47zm590 47 74-51q-29-41-70.5-93T764 433l-71 55q33 37 73 86.5t61 80.5z"/><glyph glyph-name="uni4E27" unicode="丧" d="m812 309 50-74q-76-56-196-118 29-18 62-34 92-43 230-73l-37-91Q774-44 672.5 8.5T499 141q-63 71-113 174h-97V21l239 74 6-95Q408-33 331-56t-128-46l-38 85q19 13 25.5 23.5T197 32v283H52v87h252q-79 89-145 157l61 51H87v83h366v103h95V693h364v-83H778l61-51q-26-31-73-80-42-45-76-77h261v-87H487q39-71 87-122l16-16q124 64 222 132zm-49 301H548V402h129l-60 57q102 97 146 151zM382 459l-67-57h138v208H236q75-74 146-151z"/><glyph glyph-name="uni4E2A" unicode="个" d="M459 803h81q160-231 432-396l-60-91q-125 79-233 177T500 689q-77-102-184-198.5T85 316l-56 92q137 81 248 183.5T459 803zm90-322V-93H449v574h100z"/><glyph glyph-name="uni4E2D" unicode="中" d="M547 796V613h346V149h-98v52H547V-97h-97v298H204v-54h-98v466h344v183h97zm248-276H547V294h248v226zM204 294h246v226H204V294z"/><glyph glyph-name="uni4E30" unicode="丰" d="M860 436v-89H547V205h395v-91H547V-96h-95v210H55v91h397v142H138v89h314v134H91v90h361v134h95V660h359v-90H547V436h313z"/><glyph glyph-name="uni4E32" unicode="串" d="M856 697V422H546v-81h351V15h-91v42H546V-97h-91V57H196V14h-91v327h350v81H145v275h310v99h91v-99h310zm-50-434H546V136h260v127zM196 136h259v127H196V136zm570 364v119H546V500h220zm-529 0h218v119H237V500z"/><glyph glyph-name="uni4E34" unicode="临" d="m805 453-67-58h166V-83h-87v55H520v-55h-87v478h303q-26 31-136 151l52 45h-96l-2-4q-53-100-115-185l-82 61q59 75 109 169t77 179l95-27q-16-50-38-100h352v-93H676q25-25 60-62 42-44 69-76zM352 789V-92h-94v881h94zm-168-85V3H93v701h91zm633-390H709V53h108v261zM520 53h107v261H520V53z"/><glyph glyph-name="uni4E38" unicode="丸" d="M710 55q0-24 8.5-33.5T751 12h44q31 0 41 9t12 36q3 29 5 137l1 31 89-18q-1-15-3-67.5T935 24q-3-56-31-78.5T809-77h-79q-59 0-84.5 25T620 41v490H404q-3-130-15-218 112-58 189-98l-47-89q-69 39-162 90-24-78-73-141-59-77-190-179L41-33q117 87 170 152 50 60 72 143-132 70-199 102l45 80q58-27 171-85 9 72 12 172H64v89h250q0 27 1 56 1 77 1 117h94q0-62-3-173h303V55z"/><glyph glyph-name="uni4E39" unicode="丹" d="M212 362v391h597V359h138v-89H809V48q0-52-14.5-81t-48-41Q713-86 655-86H534L515 3h116q36 0 53.5 5.5t24.5 20q7 14.5 7 44.5v197H302q-2-61-9-105-10-68-41-130.5T157-109L76-56q63 76 91 129t36 114q5 34 7 83H53v89h159v3zm504 303H304V359h412v306zm-89-210-71-64q-19 24-76 87t-85 92l67 60q25-24 165-175z"/><glyph glyph-name="uni4E3A" unicode="为" d="M862 59q-4-51-22.5-79.5t-56-41Q746-74 683-74H529l-22 94h144q47 0 70 6t33.5 23.5Q765 67 768 103q5 51 11.5 179t9.5 202H508q-15-105-45-187-40-111-119-204.5T131-100L57-26q127 89 200.5 172T369 328q26 69 40 156H88v94h333l17 213h97q0-31-6-105-5-64-10-108h370q-4-97-13-274T862 59zM720 235l-70-66q-23 27-74 83t-85 91l69 62 160-170zM365 644l-70-63q-30 35-70.5 78.5T154 735l68 58q32-32 72-73.5t71-75.5z"/><glyph glyph-name="uni4E3B" unicode="主" d="m582 667-66-36h396v-92H548V347h322v-93H548V32h397v-90H54v90h397v222H129v93h322v192H87v92h403q-45 81-85 141l82 44 95-149z"/><glyph glyph-name="uni4E3D" unicode="丽" d="M891 9q0-39-10-59.5t-34-29Q823-88 777-88h-83L677-3h77q24 0 34.5 4t14 13q3.5 9 3.5 30v158l-65-44q-49 83-121 195V-90h-84v660h355V9zM454 9q0-40-9.5-60T412-79.5Q389-88 344-88h-81L247-3h73q23 0 33 3.5t13 13q3 9.5 3 30.5v155l-62-39-13 22q-62 109-99 170V-90h-84v660h343V9zm494 741v-87H54v87h894zM806 481H620V353l63 43q85-127 123-189v274zm-437 0H195V359l60 36q47-73 114-186v272z"/><glyph glyph-name="uni4E3E" unicode="举" d="m967 285-45-79q-92 49-164 108v-58H544V148h366V62H544v-162h-91V62H88v86h365v108H240v51q-70-57-160-105l-47 78q114 56 190 126 52 48 90 105H64v87h198q-14 23-48.5 75T154 759l77 40q24-33 61-85t51-74l-81-42h383q26 39 58 94 39 66 60 107l87-34q-24-44-66-110-20-32-37-57h189v-87H689q39-58 89-103 72-65 189-123zM544 465V341h183q-85 77-139 170H415q-52-92-136-170h174v124h91zm37 174-83-35q-18 36-44 86t-46 86l83 33q4-8 40-72.5t50-97.5z"/><glyph glyph-name="uni4E43" unicode="乃" d="M281 503q3 57 4 140H80v93h704v-95l-86-186h196q0-18-11.5-170T865 64q-4-55-22-84.5t-54.5-41Q752-73 687-73H522l-21 91h158q44 0 66.5 7t32 24q9.5 17 12.5 51 4 29 11.5 119T793 363H594v85l86 195H385q-2-61-8-141-8-142-37.5-248T256 61.5Q202-25 115-112L34-41q83 77 133.5 151.5T245 278q27 93 36 225z"/><glyph glyph-name="uni4E45" unicode="久" d="M100-103 39-12q223 122 355.5 261.5T595 570H341q-84-143-204-264l-71 72q90 92 159.5 201T341 804l99-26q-22-59-49-114h320v-91q-50-128-113-230Q715 129 961-3l-65-91Q760-9 662 95q-71 75-124 163-64-82-151-158Q273 1 100-103z"/><glyph glyph-name="uni4E48" unicode="么" d="M222 105q60 49 146 141t170.5 199Q623 552 679 644l91-52q-91-140-225.5-294.5T315 67l428 22-2 4q-73 118-122 192l81 54q154-237 155-239l87-133-90-57q-20 35-50 84-246-8-404-16-171-9-241-19L131 60q31 8 49.5 17.5T222 105zm216 686 91-54q-75-122-186-250.5T125 269l-74 77q107 84 213 206.5T438 791zm415-687 2-4q1-1-2 4z"/><glyph glyph-name="uni4E49" unicode="义" d="m959-2-48-106Q689-11 550 91q-20 14-39 29-19-15-40-30Q334-8 97-108L41-10q220 85 350 174 21 14 40 29-63 64-113 139-93 139-169 351l93 37q72-204 160-334 47-69 105-126 55 57 97 126 83 134 135 349l99-35q-61-230-146-371-45-75-105-138 17-13 35-25Q753 76 959-2zM605 572l-87-52q-82 143-139 233l84 48q69-107 142-229z"/><glyph glyph-name="uni4E4B" unicode="之" d="M136 148q22 23 37 31t34 8q12 0 24-5 135 73 270 165 149 103 236 186H133v92h356q-14 28-40 76-32 60-39 72l90 32q61-109 88-161l-55-19h341v-92Q772 426 597 299 446 189 305 113q24-25 46-39 31-19 73-26t116-7h415l-20-92H548q-86 0-137.5 7T323-18.5Q287 0 255 36q-29 33-42 41-11-6-38-38l-20-26q-33-41-52-68L34 24q31 43 102 124z"/><glyph glyph-name="uni4E4C" unicode="乌" d="M795 526q-4-64-38-90.5T645 409H480l-17 80h157q44 0 60.5 11.5T700 544q3 23 6 79H275V349h628L887 70q-4-56-22.5-87.5t-56-45Q771-76 708-76H555l-18 86h143q43 0 65.5 7t32 24Q787 58 790 91t7 85.5q4 52.5 6 86.5H180v444h187q28 62 42 103l99-19q-19-52-32-84h330q-2-37-5-90.5t-6-90.5zm-66-362V76H65v88h664z"/><glyph glyph-name="uni4E4D" unicode="乍" d="M944 662v-89H467V433h405v-89H467V201h440v-89H467v-212h-91v673h-86q-11-21-23-41-65-111-151-206l-75 66q162 168 253 412l92-25q-24-61-51-117h609z"/><glyph glyph-name="uni4E4E" unicode="乎" d="M461 63v192H47v90h414v296q-208-16-365-20l-11 91q186 5 413.5 21.5T867 770l15-90q-138-17-329-32V345h400v-90H553V42q0-70-35-100T396-88H269L250 1h141q31 0 45.5 5.5t19.5 18q5 12.5 5 38.5zm324 557 74-55-19-24-140-172-76 55q33 37 81 95.5T785 620zM372 427l-73-60q-33 48-77.5 104.5T148 562l71 55q29-34 83-102t70-88z"/><glyph glyph-name="uni4E4F" unicode="乏" d="M144 123q20 21 34 28t34 7q18-1 36-12 5-3 10-8 112 50 225 109 136 72 224 133H132v92h352q-31 68-58 115l89 34q43-80 69-139l-29-10h300v-93q-101-78-270-173-135-75-263-132 15-13 29-22 29-17 69.5-23.5T535 22h430l-18-91H543q-81 0-130.5 6.5T328-39q-35 17-67 49-32 33-42 41-17-11-41-39-13-14-36-42t-36-46L38 6q22 26 106 117zm715 650 21-93q-159-26-382.5-49.5T108 599l-14 92q160 7 386.5 31T859 773z"/><glyph glyph-name="uni4E50" unicode="乐" d="M466 58v262H113l43 400q173 5 361 21t323 37l21-94q-126-18-294.5-33T248 629l-26-217h244v196h101V412h344v-92H567V31q0-48-12.5-73T514-77q-28-10-80-10H317L298 5h104q28 0 41 4t18 15q5 11 5 34zM958 4l-81-61Q831 0 765 79.5T646 220l75 58q52-58 120.5-137T958 4zM260 279l84-51q-44-67-108-146T111-58L34 3q63 59 123.5 134T260 279z"/><glyph glyph-name="uni4E52" unicode="乒" d="M948 252v-89H51v89h161v463q412 21 625 66l19-88q-100-21-247-37.5T309 630V514h610v-88H733V252h215zm-639 0h326v174H309V252zm84-93 59-68Q383 38 294.5-19.5T134-113L77-30q70 30 163.5 87T393 159z"/><glyph glyph-name="uni4E53" unicode="乓" d="M948 252v-89H51v89h160v464q409 19 625 65l19-88q-99-21-246-37.5T308 630V514h611v-88H733V252h215zm-640 0h327v174H308V252zM914-28l-54-81Q788-61 682 1T563 71q-7 5-21 13l51 76q73-41 160-92t161-96z"/><glyph glyph-name="uni4E54" unicode="乔" d="M313 231v46q-91-68-229-130l-50 82q135 54 217 115 59 44 101 101H64v91h340q24 53 41 120-168-10-314-14l-9 87q180 3 375 17.5T847 783l22-90q-137-16-316-30-17-69-41-127h420v-91H647q45-57 98-96 81-59 222-106l-48-89q-117 42-207 109V-94h-99v394h53q-71 63-123 145h-76q-50-81-126-145h68v-76q0-80-19.5-138t-69-107.5Q271-71 181-118l-57 76q85 48 125 85.5t52 78Q313 162 313 231z"/><glyph glyph-name="uni4E56" unicode="乖" d="m851 783 11-88q-122-11-314-22v-90h395v-89H548V-96h-95v590H57v89h396v85q-172-9-313-14l-7 88q149 3 360 15t358 26zM728 176q0-25 9-34.5t31-9.5h35q30 0 40 10t13 42l4 71 82-21q0-13-1-21 0-15-3-66-4-60-31-82t-94-22h-68q-54 0-79.5 25.5T640 155v303h88V336q28 14 59 29 64 33 104 59l42-71q-41-26-117-64-49-25-88-42v-71zM360 458V44h-90v66q-28-9-77-26Q92 50 76 42l-26 95q16 3 120 36 70 22 100 32v77H79v89h191v87h90z"/><glyph glyph-name="uni4E58" unicode="乘" d="m956 11-37-90Q760-11 653 72q-61 47-110 104V-98h-87v275q-51-58-108-104Q250-5 91-78L45 8q121 52 199 97t135 100q40 38 77 87v219H65v80h391v79q-177-6-307-8l-4 76q144 2 349 11.5T843 771l9-78q-124-10-309-19v-83h396v-80H543V294q64-88 149-150Q796 68 956 11zM725 289q0-20 8.5-28t30.5-8h43q29 0 40 9t13 35q2 17 2 61l71-15-1-25-2-46q-3-51-28.5-70T813 183h-70q-52 0-75 22t-23 73v206h80v-86q29 11 59 25 60 26 99 48l33-63q-38-19-106-47-46-18-85-34v-38zM354 484V196h-82v40q-30-8-79-22-103-30-114-33l-16 71q14 3 106 27 63 16 103 27v52H87v67h185v59h82z"/><glyph glyph-name="uni4E59" unicode="乙" d="M656 636H128v93h688v-92Q188 163 188 85q0-26 19.5-35.5T283 40h435q41 0 61.5 6.5t29.5 23q9 16.5 12 49.5 4 63 7 155l99-26-4-57q-4-73-7-106-3-52-22-81.5t-59-42Q795-51 728-51H255Q81-51 81 72q0 46 36 98t158 158q122 106 381 308z"/><glyph glyph-name="uni4E5D" unicode="九" d="M710 67q0-24 9-34t34-10h49q31 0 42.5 10T858 69q4 46 6 140 1 10 1 24l89-18q-1-9-1-21.5t-1-24.5l-5-138q-2-55-30-77t-96-22h-96q-59 0-86 26t-27 92v455H404q-5-155-28-250-25-102-85.5-181.5T108-105L37-30q114 88 168 155t76 157q20 82 24 223H67v97h241l5 192h98l-5-192h304V67z"/><glyph glyph-name="uni4E5E" unicode="乞" d="M573 401H214v90h552v-84Q533 267 424 195T286.5 95Q258 67 257 47q0-18 15-23.5t55-5.5h371q41 0 61.5 6.5T789 47q9 16 11 47 2 26 3.5 61.5T805 217l103-23q-2-28-5-69t-6-68q-5-52-21.5-78.5t-53-37.5Q786-70 717-70H283q-73 0-108 26.5T140 27q0 43 37.5 87.5t127 109Q394 288 573 401zM307 813l93-36q-20-42-45-83h547v-92H295q-9-12-19-25-74-96-148-167l-62 78q161 145 241 325z"/><glyph glyph-name="uni4E5F" unicode="也" d="M275 115q0-42 9.5-62.5T316 24q22-8 66-8h361q46 0 66.5 5.5t28 21.5q7.5 16 8.5 51 2 22 3.5 51t1.5 51l97-22q-1-5-1-10.5t-1-10.5q-4-78-9-113-3-46-17.5-69.5t-45-32.5Q844-71 787-71H346q-90 0-127.5 34.5T181 85v308L63 364l-17 91 135 32v196h94V510l184 44v239h93V576l311 75q-3-65-10-196t-9-152q-4-65-34-89.5T708 189H606l-19 90h84q33 0 49 4.5t22.5 18Q749 315 751 344q2 38 5 95.5t5 96.5l-209-52V96h-93v365l-184-45V115z"/><glyph glyph-name="uni4E60" unicode="习" d="M870 573q-15-437-18-486-4-63-22.5-97.5t-58.5-49Q731-74 661-74H486l-20 95h159q49 0 74.5 9T736 60.5Q747 82 749 125q3 37 11 231.5T771 639H94v97h782l-6-163zM699 396l14-51 13-45q-121-50-335.5-139.5T110 42l-38 95q84 33 321.5 130.5T699 396zm-167 17-61-84q-56 41-147 105t-143 98l61 77q138-92 290-196z"/><glyph glyph-name="uni4E61" unicode="乡" d="M233 320q102 58 237 160-89-4-151-7-104-6-158-17l-26 90q27 6 43.5 15.5T198 572q51 30 126 99t139 139l75-54q-54-58-116.5-115.5T308 543l264 18q101 83 178 160l71-62Q719 555 596.5 457.5T367 295l344 25q20 46 33 101 10 40 13 72l100-16q-9-45-18-81-34-148-109.5-238T508 8Q362-52 104-103L64-12Q315 36 448.5 88T647 216q8 9 16 20-202-12-310-20-118-8-172-18l-27 92q23 5 37.5 10.5T233 320z"/><glyph glyph-name="uni4E66" unicode="书" d="m957 635-61-75q-54 41-96 73l-24-262h142q-1-27-9.5-117.5T894 111q-7-67-45.5-95.5T727-13H571l-20 91h155q48 0 67.5 14.5T798 147q4 26 8.5 65.5T814 279H437v-379h-91v379H44v92h302v188H109v91h237v148h91V650h342q-86 66-112 85l58 73q74-54 232-173zm-258-76H437V371h245l17 188z"/><glyph glyph-name="uni4E70" unicode="买" d="m932-21-50-82Q791-55 672 5q-87 45-142 72-41-44-102-77-110-61-325-111L69-21q206 43 305 96 81 43 118 104H62v85h311Q188 377 116 419l45 73q79-45 255-150l-43-78h153q16 67 18 164 4 160 4 195h95q0-44-1.5-104T638 415q-4-85-19-151h322v-85H594l-10-24-3-6Q859 13 932-21zm-26 763v-88l-91-178-84 36 77 143H103v87h803zM485 511l-46-80q-50 31-124.5 73.5T199 567l43 74q80-40 243-130z"/><glyph glyph-name="uni4E71" unicode="乱" d="M487 300V-50H186v-46H96v396h150v129H44v88h202v123q-89-9-175-15l-8 87q113 8 229.5 22T488 764l17-88q-69-14-167-26V517h197v-88H338V300h149zM679 74q0-37 13.5-49T740 13h39q29 0 43 5t19.5 17.5Q847 48 848 75t2 69.5q1 42.5 1 73.5l93-20q-4-63-7-155-2-47-15.5-73T879-67q-29-11-79-11h-82q-50 0-78 12.5T599.5-24Q587 5 587 57v726h92V74zM395 37v175H186V37h209z"/><glyph glyph-name="uni4E73" unicode="乳" d="M530 380 359 246v-2q110 14 187 25l1-40 2-42q-80-11-190-26V27q0-58-27.5-82.5T235-80h-95L123 0h85q36 0 48.5 9.5T269 48v102q-100-12-219-27l-4 84q77 7 223 25v50l130 95H86v80h444v-77zM695 69q0-30 11.5-41T749 17h48q27 0 39.5 5t17 16q4.5 11 4.5 34 5 110 5 140l89-18q0-31-2-76.5T946 41q-2-44-15-68t-40.5-34Q863-71 815-71h-84q-71 0-98.5 27.5T605 55v728h90V69zM543 779l14-84q-98-17-237.5-30T69 647l-6 84q116 5 249 17.5T543 779zm-67-118 70-31q-40-88-84-172l-70 33q54 104 84 170zM216 500l-70-33q-3 4-18 35-9 20-52 109l71 33q12-25 32-66t37-78zm160 13-73-28q-11 29-27.5 69.5T244 630l71 29q36-82 61-146z"/><glyph glyph-name="uni4E7E" unicode="乾" d="M457 555V211H317v-75h173V53H317V-96h-88V53H50v83h179v75H88v344h141v68H63v80h166v93h88v-93h167v-80H317v-68h140zm288-168H541v56l-2-3-75 51q49 71 85 148t63 168l88-22q-19-58-40-110h284v-88H621q-28-58-63-116h303v-84Q595 96 595 41q0-14 10.5-20t36.5-6h149q37 0 48.5 9.5T852 63q2 25 3 58.5t1 57.5l87-19q-1-15-2-50.5T938 33q-4-57-32-79t-95-22H613q-52 0-86 22.5T493 20q0 59 58.5 144T745 387zM174 285h197v61H174v-61zm197 195H174v-61h197v61z"/><glyph glyph-name="uni4E86" unicode="了" d="M897 639 556 415V44q0-50-12.5-76T500-69q-31-11-90-11H269l-19 94h127q34 0 50 5t22 18.5q6 13.5 6 41.5v385l277 175H91v96h806v-96z"/><glyph glyph-name="uni4E88" unicode="予" d="m588 458-23-26h365v-89q-27-39-73-104t-75-104l-83 52q16 17 101 126l23 30H550V36q0-49-12-74.5T497-75q-29-11-83-11H287L269 3h111q32 0 48 5t22.5 19.5Q457 42 457 71v272H59v89h414q-39 29-85 62-80 59-122 87l54 69q57-40 133-95 22-16 42-31 39 26 87 57 82 54 125 86H142v88h720v-88q-69-49-166-116-68-46-123-83 7-5 15-10z"/><glyph glyph-name="uni4E89" unicode="争" d="m329 814 96-24q-17-27-36-53h352v-83l-102-97h200V383h107v-80H839V78h-88v50H530V38q0-65-30-91T394-79H269L252 4h117q43 0 57 11.5T440 63v65H121v77h319v98H46v80h394v96H161v26q-25-18-50-37l-61 71q81 54 156 128.5T329 814zm287-161H320q-44-49-98-96h292l102 96zm-86-448h221v98H530v-98zm221 274H530v-96h221v96z"/><glyph glyph-name="uni4E8B" unicode="事" d="M845 609V429H542v-52h322V256h83v-67h-83V28h-84v38H542V30q0-45-12-70.5T490.5-77Q463-88 413-88H288L271-9h120q38 0 51.5 11.5T456 47v19H99v69h357v54H43v67h413v55H107v66h349v52H147v180h309v52H60v70h396v68h86v-68h388v-70H542v-52h303zm-65-298H542v-55h238v55zM542 135h238v54H542v-54zM234 491h222v55H234v-55zm522 0v55H542v-55h214z"/><glyph glyph-name="uni4E8C" unicode="二" d="M945 81v-97H54v97h891zm-83 605v-99H138v99h724z"/><glyph glyph-name="uni4E8E" unicode="于" d="M944 432v-90H565V50q0-50-14.5-78t-47-40Q471-80 413-80H275l-20 93h131q32 0 48.5 5.5t22.5 19q6 13.5 6 39.5v265H53v90h410v215H125v91h748v-91H565V432h379z"/><glyph glyph-name="uni4E8F" unicode="亏" d="M941 520v-91H349l-29-113h492q-4-43-11-115T788 82q-7-65-26.5-98.5T702-64q-40-14-113-14H399l-19 91h181q47 0 71 7t35 26.5Q678 66 682 105q10 76 14 122H194l49 202H56v91h885zm-89 215v-90H145v90h707z"/><glyph glyph-name="uni4E91" unicode="云" d="m914-10-79-61-57 72Q237-21 123-37L95 57q26 9 39.5 17.5T171 103q55 51 127 149 53 72 89 134H63v92h873v-92H505q-39-67-100-153-79-111-133-168l436 25-139 177 77 53q50-60 268-330zm-57 753v-92H143v92h714z"/><glyph glyph-name="uni4E92" unicode="互" d="M952 38v-90H47v90h623l11 132H187l80 475H88v91h826v-91H364l-21-125h461L769 38h183zM703 428H327l-29-167h391l14 167z"/><glyph glyph-name="uni4E94" unicode="五" d="M947 52v-88H53v88h202l54 301H116v90h210l36 200H96v91h815v-91H462l-37-200h377L787 52h160zM701 353H409L354 52h334l13 301z"/><glyph glyph-name="uni4E95" unicode="井" d="M917 615v-92H740V310h208v-93H740v-321h-98v321H372q-4-32-9-57-17-81-62-143.5T163-121L90-48q86 68 124.5 117.5T267 183q3 16 5 34H52v93h228q1 27 1 58v155H84v92h197v169h99V615h262v171h98V615h177zM379 310h263v213H380V378q0-36-1-68z"/><glyph glyph-name="uni4E9A" unicode="亚" d="m832 558 85-46q-33-72-86-178t-91-175l-79 45V34h283v-88H57v88h282v172l-87-47q-32 73-90.5 196.5T84 513l83 45q35-66 93-183 55-112 79-164v449H86v90h829v-90H661V211q45 84 94 180 50 100 77 167zM434 34h132v626H434V34z"/><glyph glyph-name="uni4E9B" unicode="些" d="M219 709V371q29 5 64 11 15 2 29 4v404h92V629h126v-83H404V402q88 15 122 22l4-48 4-45q-40-7-346-56-45-7-74-12t-45-7l-15 90q19 2 71 10v353h94zm432-288q0-32 12.5-44t43.5-12h81q36 0 49 11.5t16 45.5l3 61 1 31 89-20q0-21-7-112-4-55-32.5-78T816 281H661q-53 0-79 25.5T556 390v405h95V600q46 21 100 48 84 43 129 73l40-89q-49-29-140-72-74-35-129-58v-81zM932 32v-88H70v88h862zM823 209v-86H179v86h644z"/><glyph glyph-name="uni4EA1" unicode="亡" d="m588 639-51-13h405v-92H279V38h605v-90H176v586H59v92h422q-28 69-65 156l95 25 77-168z"/><glyph glyph-name="uni4EA4" unicode="交" d="m961-11-38-99Q737-59 622-4q-67 32-123 72-50-37-112-68Q269-61 82-118L39-24Q217 24 327 76q54 25 98 55-79 78-152 204l82 47q66-116 141-188l3-3q5 4 9 9 72 72 127 182l88-42q-63-120-141-200-3-4-7-8 48-32 105-57 109-47 281-86zM575 677l-24-5h379v-92H69v92h399q-32 69-53 108l100 27q35-72 60-130zM347 565l71-62q-60-65-135-129.5T130 255l-55 82q75 47 145.5 106.5T347 565zm576-217-58-80q-51 43-143.5 115T571 498l56 69q89-62 296-219z"/><glyph glyph-name="uni4EA5" unicode="亥" d="m668 573 78-53Q636 364 487.5 256T102 50l-46 82q158 59 264 119 77 44 140 95-11-1-23-1-109-3-179-6.5T156 331l-24 80q31 8 43.5 12t21.5 10q37 28 93 86 34 34 58 65H64v88h401q-28 62-55 113l99 29q32-60 64-131l-35-11h396v-88H469q-28-36-65-76-53-57-95-93l236 10q60 63 123 148zM919-26l-55-87Q793-70 676-4q-81 46-130 72Q389-35 163-120l-52 87q238 83 394.5 186T778 405l72-55q-99-127-220-222 95-48 289-154z"/><glyph glyph-name="uni4EA6" unicode="亦" d="M580 59v508H440q-1-102-5-185-6-136-29-219.5T334.5 16Q286-47 193-122l-74 70q90 66 134.5 121t63 126.5Q335 267 341 391q4 80 5 176H64v89h403q-31 76-54 122l99 33q28-58 67-146l-34-9h387v-89H675V27q0-66-31.5-94.5T534-96H423L403-4h107q41 0 55.5 13T580 59zm372 60-89-45q-29 64-83 172t-96 188l82 39q38-68 95.5-177T952 119zM189 477l88-25q-28-92-69.5-187T116 89l-80 44q97 152 153 344z"/><glyph glyph-name="uni4EA7" unicode="产" d="m574 699-43-10h417v-90H721l55-26q-38-72-87-151h236v-90H234v-69q0-127-25.5-209.5T115-116L29-63Q77-8 101 39t32.5 102q8.5 55 8.5 141v140h194q-18 31-41 71-28 48-46 76l53 30H73v90h397q-14 34-33 73-5 9-10 22l93 28q19-37 54-113zM430 460l-66-38h216q25 40 53 88 29 49 49 89H344q51-80 86-139z"/><glyph glyph-name="uni4EA9" unicode="亩" d="M860 502V-88h-91v53H234v-53h-93v590h719zm80 182v-88H62v88h414q-4 7-8 16-16 29-25 46l-22 39 97 24 68-125h354zM769 414H546V276h223v138zM546 52h223v138H546V52zM234 276h222v138H234V276zm0-224h222v138H234V52z"/><glyph glyph-name="uni4EAB" unicode="享" d="m848 262-259-92h360V93H555V18q0-42-11.5-64.5T504-79q-28-10-82-10H288L271-5h126q39 0 53 10.5T464 47v46H50v77h414v21l207 71H129v73h719v-73zm-23 318V389H175v191h650zm105 128v-75H68v75h394q-14 29-38 75l98 23q19-35 36-70l14-28h358zM263 456h473v59H263v-59z"/><glyph glyph-name="uni4EAC" unicode="京" d="M464 51v174H168v299h663V225H562V12q0-39-11.5-60t-40-30.5Q482-88 429-88H315L297 4h102q40 0 52.5 9.5T464 51zm101 647-22-6h396v-85H61v85h403q-14 37-40 89l93 31q29-60 48-114zM264 310h470v129H264V310zM967-3l-68-72q-56 48-252 209l57 72Q905 47 967-3zM276 206l70-61Q303 95 234.5 34T99-77L38 2q61 39 128.5 96.5T276 206z"/><glyph glyph-name="uni4EAD" unicode="亭" d="M816 584V405H186v179h630zM475 50v85H192v79h618v-79H567V24q0-43-11.5-67.5t-40-35Q487-89 436-89H313L295 0h117q38 0 50.5 10T475 50zm437 302V178h-87v99H177v-97H90v172h822zm20 359v-76H68v76h397q-16 30-41 74l97 25q32-57 53-99h358zM274 468h454v52H274v-52z"/><glyph glyph-name="uni4EAE" unicode="亮" d="M812 584V391H191v193h621zM282 153v56h412V44q0-25 9.5-33T740 3h40q34 0 46 10t14 38l5 85 87-18q-1-53-6-102-4-39-17-60.5t-40-30Q842-83 795-83h-85q-63 0-86.5 21T600 16v116H376v-31q0-72-63-122T92-109L50-24Q152-2 201 20t65 51.5q16 29.5 16 81.5zm632 184V169h-93v98H181v-97H90v167h824zM539 781l34-65-18-4h377v-75H69v75h396q-13 26-38 75l94 30q2-5 7-13.5t11-22.5zM283 457h437v60H283v-60z"/><glyph glyph-name="uni4EB2" unicode="亲" d="M941 469v-86H560V281h351v-85H560V27q0-45-11-69t-37.5-33.5Q485-85 435-85H334L315 7h86q38 0 51 11.5T465 63v133H89v85h376v102H56v86h262q-13 19-31 45-31 44-54 75l40 24H108v86h358l-28 56-18 36 97 21q11-21 33-66 14-29 23-47h318v-86H729l37-17q-23-38-65-99-11-15-20-28h260zm-528 28-44-28h201q24 31 54 74 29 40 47 70H329q35-47 84-116zM292 191l64-64Q311 80 240.5 24T104-76L52 3q60 37 125.5 88.5T292 191zM940 11l-56-77Q802-4 630 111l53 73q59-38 129-85.5T940 11z"/><glyph glyph-name="uni4EBA" unicode="人" d="m949-18-68-85Q668 64 565 245q-39 68-65 142-24-75-61-144Q340 63 123-94L52-14Q197 86 282 188.5t123 223Q443 532 445 692q1 18 1.5 45.5T448 783h96v-24q-1-26-1-54t-1-50l-1-32q18-183 102-326Q747 121 949-18z"/><glyph glyph-name="uni4EBF" unicode="亿" d="M744 639H405v91h467v-92Q687 427 596 312.5t-118-164Q451 99 451 68q0-42 60-42h246q36 0 54 6.5T837 56q8 17 10 50t3 75.5q1 42.5 1 74.5l97-20q-5-111-9-165-3-54-19-83t-49-40.5Q838-64 781-64H488q-71 0-107.5 30.5T344 51q0 48 27 106t113 170.5Q570 440 744 639zM258 801l88-32q-38-111-82-207V-91h-90v483q-40-68-86-135L32 359q67 80 125.5 196.5T258 801z"/><glyph glyph-name="uni4EC0" unicode="什" d="M699 794V470h256v-96H699V-96h-95v470H340v96h264v324h95zm-424 14 90-34q-37-103-82-197V-93h-95v501q-48-75-102-142l-58 91q72 83 138 205.5T275 808z"/><glyph glyph-name="uni4EC1" unicode="仁" d="m260 805 94-28q-33-115-85-228V-94h-93v468q-42-69-89-130L33 353q63 83 125 206.5T260 805zM954 71v-94H324v94h630zm-40 603v-96H373v96h541z"/><glyph glyph-name="uni4EC5" unicode="仅" d="m342-106-63 88Q447 83 549 180l15 15q-49 66-84 135-59 118-93 278l91 26q36-152 89-259 27-54 64-105 45 57 76 116 56 109 86 254H363v95h531v-93q-37-171-100-298-39-79-97-152l17-17q94-92 250-194l-59-88Q741 5 640 109q-4 4-9 8l-8-8Q515 1 342-106zm-89 900 93-27q-37-108-81-202v-666h-94v493q-45-71-96-132L30 361q63 79 124.5 198T253 794z"/><glyph glyph-name="uni4EC6" unicode="仆" d="m964 319-59-90q-53 42-149 113-49 36-90 67V-98h-97v891h97V530q96-66 298-211zM301 799l89-33q-41-106-90-200V-93h-97v497q-57-82-121-153l-48 91q170 193 267 457z"/><glyph glyph-name="uni4EC7" unicode="仇" d="M783 51q0-20 6.5-27t25.5-7h21q20 0 27.5 8.5T873 55q2 29 4 77.5t2 82.5l79-17q-4-151-6-176-3-38-12.5-57.5t-31-27.5Q887-71 847-71h-58q-51 0-74.5 21.5T691 23v489H550v-7q-3-167-21.5-268t-63-177Q421-16 334-101l-74 64q85 81 125 147t56 153.5Q457 351 461 508v4H322v89h141q1 32 1 67 2 92 1 124h89q0-93-2-191h231V51zM237 797l92-25q-34-109-76-206V-97h-91v485q-37-62-80-118l-54 90q61 80 118 199.5T237 797z"/><glyph glyph-name="uni4ECA" unicode="今" d="M460 810h83q72-113 175.5-202.5T968 447l-52-86q-128 64-240 158T501 707q-66-93-175-184.5T84 361l-53 86q284 142 429 363zm87-916-91 53Q518 4 582 79.5T695 223H137v93h683v-91q-50-72-128.5-167.5T547-106zm21 526 29-35-73-58q-24 33-66 85.5T383 503l68 55q33-36 117-138z"/><glyph glyph-name="uni4ECB" unicode="介" d="M458 802h82q73-130 176-224t249-163l-54-93q-132 64-236 158T500 689q-78-115-178.5-205T85 320l-56 90q154 79 259 174.5T458 802zM288 302v137h98V310q0-109-19-179.5t-68-128Q250-55 155-115L90-38q84 58 125 102t57 97q16 53 16 141zm424 139V-93h-98v534h98z"/><glyph glyph-name="uni4ECD" unicode="仍" d="m848 650-61-206h130l-10-181q-6-123-11-209-4-52-18-79.5T831.5-64Q799-75 739-75H612l-19 90h116q38 0 57.5 6t28 22.5Q803 60 805 93q0 11 1 26.5t2 34.5q10 176 11 203H691v86l59 203H544q-2-228-15-350-13-128-53.5-215T347-103l-75 62q86 96 122 170.5T442 318q11 108 12 328h-88v89h482v-85zM254 789l92-31q-40-119-89-222V-99h-91v474q-40-60-85-114L33 363q63 76 123 191t98 235z"/><glyph glyph-name="uni4ECE" unicode="从" d="m971-36-74-72Q804-7 744 98q-57 100-88 225-28-99-80-194-65-116-185-238l-75 71Q432 78 493 177.5t85.5 211Q603 500 607 665q2 40 2 123h99q0-26-1.5-62t-3.5-61q-2-35-5-69 7-102 26-188 29-134 89.5-241T971-36zM248 649q4 100 4 138h99q0-30-2-73t-3-69q-3-70-7-130 33-46 85-118 61-86 93-136l-76-62q-37 58-90 135-15 22-29 42-2-13-4-25-22-118-69-217T115-84L29-27q86 118 130 208.5T223 378q20 106 25 271z"/><glyph glyph-name="uni4ED1" unicode="仑" d="M460 797h81q70-102 180-189t252-154l-57-91q-126 64-235.5 152.5T503 694q-73-92-183-180-36-28-73-54h73V284q77 26 173 64 139 56 230 103l42-95q-89-42-251-105-125-49-194-73V82q0-40 14.5-54T392 14h265q55 0 75 15.5T754 89q1 21 2.5 54.5T758 199l100-24q-2-18-5-56t-7-81q-4-62-42-89T685-78H377q-57 0-90.5 13.5t-49.5 47Q221 16 221 77v365q-66-44-136-80l-53 87q139 68 249.5 158.5T460 797z"/><glyph glyph-name="uni4ED3" unicode="仓" d="M752 269q-1-51-15.5-80T690 148q-32-12-88-12H445l-18 89h145q50 0 67.5 14t19.5 54q3 48 3 88H301V94q0-34 6-52.5t24-27Q349 6 385 6h304q39 0 58.5 6.5t28 23.5Q784 53 786 87q2 20 3.5 48.5T791 185l97-27q-1-25-3.5-57.5T879 42q-6-51-21.5-77.5T809-73q-33-11-94-11H365q-59 0-92.5 13T224-25.5Q209 7 209 68v364q-62-43-128-80l-50 93q138 71 248 165.5T455 808h88q139-211 424-352l-48-96q-85 44-163 98l-4-189zm-75 250q-112 92-177 182-74-96-183-187-27-22-56-44h479q-32 23-63 49z"/><glyph glyph-name="uni4ED4" unicode="仔" d="M955 392v-92H699V30q0-45-12.5-69.5T645-74q-29-10-83-10H433l-18 94h115q30 0 45 4.5T595.5 31q5.5 12 5.5 35v234H314v92h287v107l174 146H394v93h521v-92L699 463v-71h256zM258-98h-94v474q-39-59-82-112l-53 89q67 85 131.5 206.5T260 794l92-22q-41-119-94-229V-98z"/><glyph glyph-name="uni4ED6" unicode="他" d="M457 87q0-32 6.5-47.5T488 18q18-6 55-6h215q42 0 61.5 5.5t27 19Q854 50 855 79q2 34 2 100l92-17q0-27-1.5-62.5T944 37q-3-44-17-67t-44-33q-30-10-86-10H511q-78 0-110 29T369 60v328l-78-24-21 86 99 30v212h88V507l121 37v247h87V571l223 68-5-120q-7-228-8-237-3-58-30.5-79.5T750 181h-53l-19 88h45q27 0 40 4t18.5 14.5Q787 298 788 321q2 27 5 107.5t3 91.5l-131-41V95h-87v357l-121-37V87zM255-97h-88v495q-41-65-88-127l-48 87q59 72 119 190.5T247 785l88-20q-35-108-80-204V-97z"/><glyph glyph-name="uni4ED7" unicode="仗" d="m963-5-43-89Q750-31 643 44q-19 13-35 26-3-3-7-6-90-82-272-168l-50 79q166 78 246 146 7 6 14 13-38 41-67 87-63 103-97 253l84 23q29-136 86-228 22-36 51-68 24 36 37 77 29 88 31 239v17H319v91h345v170h94V625h183v-91H757v-9q-2-172-34-275-18-60-56-113 16-13 34-24Q801 48 963-5zM267-98h-90v486q-48-76-99-136l-46 89q68 88 131 212t95 239l90-22q-30-110-81-218V-98z"/><glyph glyph-name="uni4ED8" unicode="付" d="M702 69v437H323v94h379v186h97V600h151v-94H799V40q0-49-14-76t-45.5-39Q708-87 652-87H523L502 9h124q46 0 61 12.5T702 69zM271-93h-96v481q-40-63-88-122l-62 85q64 78 125.5 197T253 792l96-24q-38-108-78-199V-93zm337 309-80-55q-61 94-160 236l78 52q77-107 162-233z"/><glyph glyph-name="uni4ED9" unicode="仙" d="M440 628V52h139v741h93V52h139v577h92V-84h-92v46H350v666h90zM232 795l89-25q-32-105-76-203V-96h-92v490q-36-59-76-112l-47 92q61 82 115.5 194.5T232 795z"/><glyph glyph-name="uni4EE3" unicode="代" d="m937 532 8-91-330-30q12-86 29-155 34-137 76-196 20-27 35-37t31-9q17 0 27 14t22 56q15 53 26 115l80-36q-12-73-32-139-19-63-49.5-89.5T786-92q-38 0-72 22T642 5q-55 78-89 223-17 76-30 175l-206-18-8 90 205 18q-5 52-8 109l-11 191h95l4-99q1-15 4-96 3-50 7-96l332 30zM280-95h-93v485q-49-78-106-148l-45 96q68 80 133 204.5T274 792l92-27q-38-108-86-207V-95zm599 716-58-68q-26 25-77 70.5T656 701l53 61q38-30 85.5-69.5T879 621z"/><glyph glyph-name="uni4EE4" unicode="令" d="m726-21-49-90Q587-65 442 4.5T209 113l46 86q87-39 225-104 10-4 20-9 37 30 81 68 71 60 119 105H134v95h702v-99Q698 122 598 40q68-33 128-61zM459 802h83q142-213 426-348l-53-96q-128 65-240 157.5T500 699q-65-89-173-177.5T85 362l-55 93q137 64 245 152.5T459 802zm30-254q68-77 110-130l-74-57q-27 34-68 81.5T389 518l76 60 24-30z"/><glyph glyph-name="uni4EE5" unicode="以" d="m963-1-75-71Q842-18 773 60q-37 41-64 71-25-34-57-66-85-82-248-169l-58 83q145 74 223.5 149T682 295.5Q716 388 728 530q6 68 6 237h92q1-35 1-109 0-77-4-136-13-166-50-270-5-15-11-30Q899 72 963-1zM116 96v648h96V134l247 202 57-78Q373 145 283.5 73T146-44L84 32q18 19 25 32.5t7 31.5zm455 427-81-48q-95 167-159 266l76 47q58-89 164-265z"/><glyph glyph-name="uni4EEA" unicode="仪" d="m964-18-50-89Q750-10 639 98l-7 7-3-3Q525 3 336-102l-53 83Q469 85 567 176q-63 78-110 168-71 139-113 325l89 30q35-169 98-297 42-84 101-157 53 66 87 146 53 123 87 329l93-21q-45-227-105-363-39-88-98-162 2-2 4-3Q805 68 964-18zM252 794l95-26q-37-124-85-229V-96h-93v467q-41-62-91-122L23 352q76 83 133.5 197T252 794zm453-220-87-46q-20 45-54 113t-56 109l83 43q63-117 114-219z"/><glyph glyph-name="uni4EEC" unicode="们" d="M907 51q0-57-12.5-86T853-74.5Q824-85 768-85H654L637 2h104q34 0 50 6t22 21q6 15 6 47v574H580v87h327V51zM244-94h-87v492q-38-66-79-122l-48 87q56 78 113.5 200.5T233 798l87-23q-31-102-76-203V-94zm199 707V-88h-90v701h90zm127 40-67-60q-96 117-129 154l62 56q58-63 134-150z"/><glyph glyph-name="uni4EF0" unicode="仰" d="M904 173q0-64-26.5-89.5T785 58h-64l-19 94h48q38 0 51 11t13 45v432H681V-98h-90v828h313V173zM232 805l87-29q-29-107-71-208V-93h-90v482q-42-70-90-130L32 364q57 82 111.5 200T232 805zm117-646v549q48 13 107 35.5T556 787l35-86q-70-39-151-66V169l125 59 6-102q-19-9-98-45T357 24l-32 95q14 13 19 21t5 19z"/><glyph glyph-name="uni4EF2" unicode="仲" d="M673 797V625h236V147h-94v47H673V-98h-92v292H433v-49h-93v480h241v172h92zM252-93h-90v492q-41-66-90-127l-46 92q62 80 119.5 196T241 801l89-30q-36-108-78-202V-93zm181 381h148v244H433V288zm382 244H673V288h142v244z"/><glyph glyph-name="uni4EF6" unicode="件" d="m430 747 92-24q-15-66-32-127h118v200h94V596h218v-89H702V291h254v-88H702V-98h-94v301H309v88h299v216H464q-27-86-59-162l-97 34q37 79 69 177.5T430 747zm-196 48 96-26q-29-101-69-196V-96h-94v485q-45-75-97-139l-43 99q58 82 117 207.5T234 795z"/><glyph glyph-name="uni4EF7" unicode="价" d="m251 795 89-27q-38-114-89-219V-96h-89v486q-41-64-88-125l-50 90q68 86 128.5 204.5T251 795zm326 3h81q49-115 129-206t184-148l-52-84q-104 65-177 145T619 689q-47-96-115.5-175.5T326 351l-54 82q221 156 305 365zM440 300v138h90V302q0-104-13-168T470 16.5Q436-37 366-108l-79 57q65 60 97 106.5T428 157q12 55 12 143zm352 136V-92h-89v528h89z"/><glyph glyph-name="uni4EFB" unicode="任" d="M925 44v-92H338v92h247v268H312v94h273v218q-117-12-226-18l-10 93q136 7 283.5 24.5T891 765l20-93q-101-20-229-37V406h271v-94H682V44h243zM254 793l91-26q-37-108-81-202V-91h-95v485q-43-66-93-126l-46 93q63 79 123.5 195T254 793z"/><glyph glyph-name="uni4EFD" unicode="份" d="m965 408-68-66q-28 25-54 52l-5-92-13-240q-5-77-42-106.5T672-74H559l-18 90h102q47 0 65 19t23 71q4 44 8.5 112t6.5 109H554q-1-7-1-13-8-98-29-166.5t-65-127Q415-38 337-102l-73 67q72 53 111.5 99t59 104.5Q454 227 460 316q0 4 1 11h-97v55l-34-36-65 61q77 74 135.5 167.5T497 774l90-31q-40-109-108-211-39-60-83-113h425q-46 53-83 113-64 106-105 246l90 22q38-129 94.5-220.5T965 408zM253-95h-90v479q-41-64-91-124l-45 92q64 85 121 202t94 238l87-28q-35-113-76-208V-95z"/><glyph glyph-name="uni4EFF" unicode="仿" d="M951 659v-92H558q0-13-1-28-1-48-3-88-1-10-1-19h320q-3-62-9-177.5T853 65q-3-56-18-85t-48-40q-33-11-95-11H574l-19 91h101q39 0 59.5 6.5T746 49q10 16 13 46 3 25 9 123.5t5 120.5H546q-6-73-17-127-18-92-60-166T347-107l-77 68q79 75 115.5 136.5T436 237q14 78 22 227 1 28 3 75v28H324v92h283q-8 20-17 44-20 53-34 86l95 19q15-36 36-91 12-33 21-58h243zM243 793l99-25q-40-112-86-209V-93h-93v483q-42-65-90-124l-47 92q64 88 120.5 200.5T243 793z"/><glyph glyph-name="uni4F01" unicode="企" d="M281 379V31h190v498h93V327h279v-93H564V31h372v-91H50v91h138v348h93zm179 420h82q73-100 181-189t247-162l-53-89q-122 67-237 160.5T502 696q-63-80-179-173.5T82 359l-53 89q139 72 251 164t180 187z"/><glyph glyph-name="uni4F0A" unicode="伊" d="M955 513v-91h-81V140h-91v55H566q-1-4-1-8-18-95-65.5-159.5T352-114l-71 74q95 66 137 118 38 47 55 117H311v92h175q6 57 7 135H289v91h204v136H344v91h530V513h81zM245-100h-91v473q-37-59-80-110l-51 89q61 77 119.5 199.5T237 795l91-21q-37-123-83-228v-646zm332 387h206v135H583q-1-76-6-135zm206 362H583V513h200v136z"/><glyph glyph-name="uni4F0D" unicode="伍" d="M957 38v-87H294v87h125l42 311H342v89h132l27 202H342v89h588v-89H600l-29-202h297L858 38h99zM246 802l90-21q-34-116-79-216V-97h-92v490q-42-64-91-124l-45 90q61 82 121.5 204.5T246 802zm522-453H559L515 38h246l7 311z"/><glyph glyph-name="uni4F0F" unicode="伏" d="m254 801 95-32q-38-115-85-214V-32q111 88 174 169.5T528 307q19 63 24 140H320v92h235v255h96V539h289v-92H647q1-2 0-3 47-290 317-467l-72-78Q750-5 663 145q-32 55-54 111-31-86-88-165-68-94-185-194l-72 71v-63h-93v483q-40-62-87-123l-56 95q62 77 125 199t101 242zm652-180-67-63q-26 30-149 156l63 58q27-24 72.5-69t80.5-82z"/><glyph glyph-name="uni4F10" unicode="伐" d="m578 590 4-44 352 42 12-90-354-42q15-117 37-199l2-8q114 91 191 206l73-57Q794 260 662 156q24-58 54-101 40-55 76-53 18 2 29.5 17T844 75q11 38 26 118l79-35q-6-30-15.5-70.5T916 19q-17-60-49-88t-73-28q-40 0-83 27t-83 88q-24 37-44 82Q476 29 343-28l-46 88q144 59 254 131-7 25-14 52-20 84-35 202l-186-22-10 91 186 22q-3 31-6 64-9 92-14 192l93 2q5-109 13-204zM271-96h-93v481q-46-69-98-129l-48 91q65 77 131 200.5T268 791l92-28q-39-115-89-215V-96zm580 742-58-67q-111 95-172 139l51 68q103-74 179-140z"/><glyph glyph-name="uni4F11" unicode="休" d="m247 788 90-23q-38-113-84-212V90q114 109 191 229 60 93 104 203H326v98h238v176h93V620h270v-98H671q42-104 103-198 83-126 197-229l-64-81Q796 126 720 248q-34 56-63 116V-98h-93v462q-31-64-66-121Q426 125 314 8l-61 66V-99h-90v487q-43-68-92-127l-50 89q63 78 126 199.5T247 788z"/><glyph glyph-name="uni4F17" unicode="众" d="m262 397 5 72q-77-52-169-100l-52 91q147 69 249 151t166 181h82q67-102 168.5-183.5T955 460l-50-91Q649 498 503 686q-85-110-218-204h79q-5-81-7-91-2-19-4-37 31-33 162-172l-70-68q-38 45-87 100-13 15-25 29-16-59-40-109Q240 24 122-97L41-32q77 73 123 136.5T233 237q23 69 29 160zM960-22l-65-76Q770-5 698 109q-26 41-44 85-31-80-87-151-57-73-150-153l-77 72q91 70 145 134.5t81 135Q593 302 600 391q5 68 5 91h97q-3-59-7-95l-2-20q19-108 73-195Q833 67 960-22z"/><glyph glyph-name="uni4F18" unicode="优" d="M502 575q2 52 3 116t1 101h95l-4-218h339v-91H593q-6-104-24-183-24-109-79.5-202.5T332-100l-74 59v-56h-91v488q-42-67-90-126l-45 97q61 73 121 193t98 243l92-26q-38-115-85-216V-32q93 90 143 172 51 84 73 183 15 67 22 160H312v91h190v1zM715 69q0-33 10.5-44T766 14h38q29 0 38.5 10T853 67q1 29 2 76t1 77l89-20q0-33-1.5-82.5T941 39q-2-48-15-72t-40-33q-27-9-78-9h-74q-56 0-84 27t-28 92v407h93V69zm161 570-59-64q-33 33-79.5 77.5T670 715l57 60q60-51 149-136z"/><glyph glyph-name="uni4F19" unicode="伙" d="m968-16-69-85Q789-16 720 75q-59 78-92 171-19-50-47-97Q496 8 340-106l-70 75q117 80 182.5 160t93 179.5Q573 408 572 549v241h98V475q0-10-1-21 9-75 29-137 33-103 98.5-182T968-16zM240 783l93-24q-35-112-79-210v-650h-93v475q-40-64-86-120l-57 95q63 75 126.5 198T240 783zm304-417-82-49q-72 137-156 280l81 46q42-70 157-277zm310 278 85-44q-65-124-155-277l-83 45q35 57 79.5 137.5T854 644z"/><glyph glyph-name="uni4F1A" unicode="会" d="M461 802h83q67-93 173-176t244-148l-43-88q-75 36-145 82v-62H231v60q-69-44-146-82l-43 86q138 65 244 149t175 179zM877-39l-72-64q-13 15-54 63-250-8-391-14-151-7-205-16l-20 85q18 6 28.5 12t20 13q9.5 7 14.5 10 46 36 106 102 28 32 51 60H79v86h844v-86H476q-31-40-68-82-55-62-102-106l371 19q-13 15-28 32l-57 65 73 57q67-76 212-236zM681 536q-112 86-178 168-66-83-176-167-30-23-61-44h475q-30 21-60 43z"/><glyph glyph-name="uni4F1E" unicode="伞" d="M945 187V95H549V-98h-97V95H58v92h394v386h97V187h396zM460 805h81q150-180 436-317l-50-89q-130 64-243 147T502 708Q333 526 75 396l-45 92q127 58 245.5 144.5T460 805zm289-333 78-59q-30-41-75-96.5T674 224l-73 65q85 99 148 183zM402 289l-76-64q-39 52-149 189l75 58q130-158 150-183z"/><glyph glyph-name="uni4F1F" unicode="伟" d="M888 487v-85H624V302h292q-2-39-5.5-97.5T904 106q-5-62-38.5-88.5T770-9h-95l-18 89h77q35 0 53.5 13t21.5 41q6 40 8 80H624V-96h-94v310H299v88h231v100H352v85h178v101H328v88h202v120h94V676h298v-88H624V487h264zM263-93h-91v485q-48-76-102-141l-40 99q64 82 126 203t102 244l93-22q-40-116-88-217V-93z"/><glyph glyph-name="uni4F20" unicode="传" d="M954 481v-85H553q-15-50-30-88h355v-83q-20-29-75-103-39-51-68-90 64-29 141-62l-39-83Q741-67 603.5-4T378 97l34 76q44-19 240-105 20 25 48 62 45 60 67 94H422v77q17 42 33 95H304v85h176q8 28 16 58 5 22 10 43H358v85h167q16 71 25 135l94-10q-10-61-23-125h296v-85H602q-6-25-12-51l-13-50h377zM252 796l91-21q-38-112-83-209V-98h-90v501q-44-69-96-132l-45 93q62 81 121.5 195.5T252 796z"/><glyph glyph-name="uni4F24" unicode="伤" d="M878 49q-3-50-18.5-76.5t-49-38Q777-77 714-77H583l-19 88h130q37 0 55 6t26 22q8 16 10 50 3 24 7 106.5t6 128.5H599q-8-89-23-146-20-75-72.5-141T343-109l-69 69q98 67 145.5 120.5T486 198q14 49 21 126H334v90h180q2 44 4 128h94q-2-60-6-128h291q-3-63-9.5-197.5T878 49zM254 798l95-26q-40-110-88-211V-97h-91v491q-43-69-88-126l-50 93q63 78 124.5 199T254 798zm245 4 93-26q-21-51-45-99h400v-90H496q-54-87-117-157l-77 53q60 65 110.5 147.5T499 802z"/><glyph glyph-name="uni4F26" unicode="伦" d="M584 791h84q45-94 126-180t179-147l-57-80q-95 61-169.5 139T627 683q-70-115-185-215h56V286q49 22 112 54 111 56 178 100l48-88q-67-39-184-96-89-43-154-71V80q0-41 16.5-54.5T576 12h117q38 0 56.5 6T776 39.5Q784 55 786 86q0 19 2 53l2 54 99-22q-3-57-11-135-4-62-40-87.5T722-77H560q-60 0-93 12.5T418.5-19Q403 14 403 75v360q-34-27-72-53l-55 79q92 62 176 150.5T584 791zm-337 9 93-32q-35-108-80-205V-99h-94v492q-42-66-91-126l-50 86q64 85 124.5 206.5T247 800z"/><glyph glyph-name="uni4F2A" unicode="伪" d="m241 788 88-21q-31-104-71-197V-27Q366 74 420 148q56 76 81 166 18 67 28 167H308v93h227q2 27 5 75 4 73 7 142l91-1q-7-138-12-216h284q-3-91-11-273.5T886 54q-4-50-20.5-78t-49-39.5Q784-75 728-75H608l-20 90h110q38 0 58 6.5T785.5 45Q795 62 798 96q5 51 10.5 180.5T817 481H618q-8-75-20-136l43 42q86-93 148-166l-65-57q-30 36-71 83-34 39-62 70-4-16-8-31-29-106-88-192T327-96l-69 62v-61h-90v490q-42-67-89-128l-48 88q61 79 118.5 197T241 788zm271-145-62-54q-24 29-56 66t-57 66l59 52q27-29 59-65t57-65z"/><glyph glyph-name="uni4F2F" unicode="伯" d="M898 663V-94h-90v58H473v-60h-91v759h171q18 53 42 141l103-17q-11-36-25-80-8-23-15-44h240zM254-92h-90v491q-39-61-85-118l-55 80q62 77 121.5 195.5T244 798l88-23q-36-113-78-207V-92zM473 51h335v223H473V51zm335 524H473V359h335v216z"/><glyph glyph-name="uni4F30" unicode="估" d="M940 623v-90H675V353h205V-99h-95v55H467v-55h-94v452h209v180H323v90h259v167h93V623h265zM240 791l95-23q-36-112-80-207V-96h-94v484q-40-62-85-117l-47 95q61 81 117 192.5T240 791zm545-528H467V43h318v220z"/><glyph glyph-name="uni4F34" unicode="伴" d="M913 432v-86H683V224h270v-89H683V-98h-94v233H312v89h277v122H368v86h221v365h94V432h230zM264-92h-93v486q-43-64-94-126l-54 87q71 86 130 197t100 234l93-25q-38-110-82-203V-92zm581 832 81-39q-19-42-56.5-113T807 473l-82 40q28 48 64 116t56 111zM547 515l-81-39q-90 171-118 220l79 40q22-37 57.5-102T547 515z"/><glyph glyph-name="uni4F36" unicode="伶" d="M568 800h84q96-191 318-327l-58-79q-98 60-175 138.5T611 698q-44-75-117-151.5T323 397l-64 73V-94h-90v499q-47-75-100-140l-41 91q63 84 123.5 206T250 804l92-26q-36-109-83-209v-99q108 74 183.5 155T568 800zM789-25l-53-81Q526 30 367 127l55 74q91-57 170-106 30 29 69 68 70 70 92 97H330v84h545v-87q-12-12-94-100-59-62-109-112 63-38 117-70zm-92 437-69-58q-27 35-63 78.5T507 499l68 57q81-91 122-144z"/><glyph glyph-name="uni4F38" unicode="伸" d="M908 662V70h-86v55H671V-96h-86v221H434V70h-85v592h236v134h86V662h237zM245-93h-87v488q-36-56-81-116l-57 81q70 89 125.5 201.5T238 800l93-25q-41-126-86-224V-93zm577 669H671V436h151v140zM434 436h151v140H434V436zm0-226h151v140H434V210zm237 0h151v140H671V210z"/><glyph glyph-name="uni4F3A" unicode="伺" d="M901 36q0-50-12-76t-40.5-37Q820-88 767-88H641L624-5h114q43 0 59 15t16 52v590H362v87h539V36zM708 367V43H359v324h349zM241 797l92-20q-38-121-77-213V-97h-90v488q-38-59-87-117l-55 81q68 87 123 200.5T241 797zm527-248v-84H314v84h454zM445 129h176v154H445V129z"/><glyph glyph-name="uni4F3C" unicode="似" d="m970-16-73-59Q847-1 755 123q-18-28-41-54-72-82-212-177l-61 74q134 87 199.5 158T733 288.5Q760 382 767 544q2 59 3.5 120.5T771 765h89q1-24-1-93.5T855 542q-6-175-37-283-8-26-18-50Q907 73 970-16zM240 795l89-27q-31-102-73-200V-96h-88v488q-41-70-85-127l-60 93q62 80 122 199.5T240 795zm131-625v539h88V218l159 135 44-87q-73-60-144-120T410 49l-65 68q15 18 20.5 29.5T371 170zm331 396-72-51q-68 121-131 224l72 43q83-132 131-216z"/><glyph glyph-name="uni4F43" unicode="佃" d="M905 729V-84h-90v58H444v-58h-91v813h552zM250-95h-93v488q-36-60-79-119l-56 80q127 171 207 435l87-24q-32-101-66-185V-95zM444 63h142v241H444V63zm0 333h142v240H444V396zM674 63h141v241H674V63zm141 573H674V396h141v240z"/><glyph glyph-name="uni4F46" unicode="但" d="M891 738V163H378v575h513zM254-101h-91v485q-42-68-92-129L30 357q60 80 115 193.5T239 790l94-17q-37-114-79-212v-662zM954 33v-90H301v90h653zM469 253h329v154H469V253zm329 395H469V495h329v153z"/><glyph glyph-name="uni4F4D" unicode="位" d="M255-88h-91v490q-43-66-93-127l-54 81q66 86 125.5 204T239 800l96-22q-36-112-80-209V-88zM949 33v-87H298v87h328q25 73 66 209 49 163 78 273l92-28q-33-113-84-273-35-110-60-181h231zm-19 608v-89H327v89h261q-24 74-57 146l97 22q31-72 62-157l-47-11h287zM585 118l-89-25-115 392 89 24q32-99 115-391z"/><glyph glyph-name="uni4F4E" unicode="低" d="M939 440v-89H742q2-16 4-31 19-156 53-240 10-26 22.5-44.5T840 17q5 0 12.5 16.5T866 75q10 42 17 94l75-29q-5-26-14-67.5T929 11q-12-51-34-74t-54-23q-34 0-67 36T713 61q-37 100-56 255-2 17-4 35H462V105l164 108 27-86Q437-9 390-45l-50 72q17 16 24 28.5t7 28.5v624q123 7 258.5 24T884 773l21-90q-79-17-181-33 3-113 10-210h205zM250-97h-90v495q-43-67-92-126l-43 92q62 79 122 201t96 238l92-24q-37-116-85-219V-97zm212 718V440h183q-7 91-11 198-101-12-172-17zM683-58l-64-49-25 31q-58 71-78 93l66 44Q632 5 683-58z"/><glyph glyph-name="uni4F4F" unicode="住" d="m652 752 48-85-68-32h291v-89H666V348h225v-90H666V30h280v-88H300v88h270v228H346v90h224v198H322v89h284q-21 43-73 139l83 41 36-63zm-412 41 93-31q-40-114-83-209V-92h-90v475q-38-61-82-115l-55 87q61 80 120 198.5T240 793z"/><glyph glyph-name="uni4F51" unicode="佑" d="m253 795 94-21q-36-112-85-214V191q167 171 245 377H337v91h201q18 64 28 131l99-12q-11-60-27-119h319v-91H609q-25-69-59-136-10-22-22-43h362V-92h-95v59H515v-59h-95v322q-51-65-114-128l-44 53V-95h-93v492q-48-72-102-134l-39 99q63 76 126 197t99 236zm542-498H515V56h280v241z"/><glyph glyph-name="uni4F53" unicode="体" d="M650 794V634h280v-92H689q41-93 99-179 82-120 191-215l-63-88q-105 97-185 224-47 75-81 154V148h160V62H650V-98h-92V62H396v86h162v297q-35-83-79-156-70-114-187-231l-44 62V-92h-91v472q-42-68-88-126L26 355q59 80 116 199t92 238l96-16q-35-116-82-222V157q100 94 170 200 57 85 99 185H304v92h254v160h92z"/><glyph glyph-name="uni4F55" unicode="何" d="M781 78v567H335v88h618v-88h-80V52q0-55-13-84t-45-41q-32-12-94-12H592L573 5h123q36 0 54 5.5t24.5 21Q781 47 781 78zM676 527V130H352v397h324zM248-98h-92v486q-39-62-84-119l-53 82q57 76 117 203t94 243l90-24q-32-111-72-207V-98zm187 312h158v228H435V214z"/><glyph glyph-name="uni4F59" unicode="余" d="M916 320v-91H556V32q0-49-12-75t-41-36.5Q474-90 420-90H310L289 5h94q33 0 48.5 5t21 17q5.5 12 5.5 38v164H83v91h375v103H258v69q-79-50-175-97l-46 89q146 65 244 138.5T455 795h90q73-97 174.5-172.5T967 482l-48-88q-91 44-171 96v-67H556V320h360zM673 542q-110 82-172 162-80-101-212-191h424q-20 14-40 29zM951 5l-63-73Q832-18 760.5 43T646 138l58 69q44-32 118.5-93.5T951 5zM271 209l73-59Q301 95 237 32.5T113-80L52-8q57 41 116 100t103 117z"/><glyph glyph-name="uni4F5B" unicode="佛" d="M895 400H723V293h198l-3-64q-2-31-4-70t-4-71q-4-55-28.5-74T799-5h-43l-16 87h39q29 0 40 8t14 31q5 52 7 87H723V-97h-84v305H539q-4-51-15-89-18-69-61.5-121T337-110l-66 62q80 55 118.5 96.5T442 137q8 30 12 71H292l21 274h143v110H300v83h156v118h87V675h96v119h84V675h172V400zM216 794l86-22q-33-110-68-201V-93h-84v486q-33-59-72-114l-55 81q55 82 107 197.5T216 794zm327-312h96v110h-96V482zm0-189h96v107h-96V293zm267 189v110h-87V482h87zM380 293h76v107h-66l-10-107z"/><glyph glyph-name="uni4F5C" unicode="作" d="m493 798 91-24q-21-60-45-116h396v-92H633V426h253v-93H633V193h274v-93H633V-99h-94v665h-44q-65-121-148-217l-64 71q64 75 118 172.5T493 798zM260-93h-95v489q-41-60-89-117l-54 85q65 80 124.5 192.5T246 789l95-27q-37-109-81-200V-93z"/><glyph glyph-name="uni4F60" unicode="你" d="m229 791 95-22q-35-111-77-204V-95h-92v489q-36-57-77-110l-52 76q59 82 115.5 199.5T229 791zm705-120v-88l-84-159-88 31 71 128H485q-1-4-3-7-52-102-112-190l-78 50q55 74 105 171.5T474 794l92-18q-17-52-40-105h408zM586 50v462h91V17q0-58-26.5-81.5T558-88H451L432 2h92q37 0 49.5 10T586 50zM425 372l84-25q-26-84-71-181.5T344-13l-85 37q46 70 92 166t74 182zM971 22l-83-38Q779 226 726 336l80 36q52-105 165-350z"/><glyph glyph-name="uni4F63" unicode="佣" d="M345 349v392h554V24q0-62-25.5-87T784-88h-75L690 2h65q32 0 43 10t11 39v130H663V-76h-85v257H429q-6-61-16-107-20-92-75-181l-87 43q42 65 61 114t26 114.5q7 65.5 7 184.5zM234-98h-87v484q-31-51-68-100l-51 82q53 76 102 185t85 234l89-19q-32-113-70-207V-98zm575 752H663V499h146v155zM434 499h144v155H434V499zm229-230h146v143H663V269zm-230 0h145v143H434v-95q0-25-1-48z"/><glyph glyph-name="uni4F69" unicode="佩" d="M303 294v454h558V304q0-154 6-203 3-29 9-46.5T889 37q7 0 11.5 13.5T911 101q6 32 9 75l62-17Q967 57 960 22q-10-47-31.5-69.5T884-70q-25 0-48 26t-33 74q-9 55-12 101.5T788 292v374H376V289q0-99-18.5-189T289-79l-72 42q86 153 86 331zm450 295v-76H617v-92h127V100q0-39-6-59t-21-28q-15-8-45-8h-35l-15 75h22q17 0 24 8t7 28v230h-58V-87h-71v433h-59V3h-68v418h127v92H412v76h341zM199 789l80-16q-26-114-67-222V-92h-77v475q-31-57-66-112L31 372q54 80 98.5 191T199 789z"/><glyph glyph-name="uni4F73" unicode="佳" d="M949 456v-88H306v88h279v123H363v85h222v128h93V664h221v-85H678V456h271zm1-431v-87H301v87h284v137H363v86h222v92h93v-92h221v-86H678V25h272zM242 792l91-21q-28-104-71-202V-99h-93v490q-42-68-93-140L31 359q69 94 123 204t88 229z"/><glyph glyph-name="uni4F7F" unicode="使" d="M903 515V245H664q-4-94-31-154-4-8-9-16 40-17 85-30Q814 14 965 0l-25-91Q783-70 672-34 615-16 566 8q-18-15-41-28-77-46-223-86l-44 85q137 34 204 70 10 5 18 11-77 56-135 141l55 44h-65v270h241v82H308v84h268v114h88V681h273v-84H664v-82h239zM238-103h-89v488q-33-55-72-108l-53 80q55 77 107.5 194T221 796l90-23q-32-115-73-213v-663zm183 431h155v107H421V328zm395 0v107H664V328h152zM553 135q20 42 23 110H413q51-72 120-119 5-4 11-8 5 9 9 17z"/><glyph glyph-name="uni4F84" unicode="侄" d="M788 563q49-62 84.5-108.5T928 381l-76-52q-17 24-38 54-190-7-297-11-114-5-157-12l-26 77q25 6 39 19 30 29 93 112 35 45 60 81H348v86h574v-86H639q-32-45-72-98-52-67-84-103l273 14q-45 60-78 101l73 49 37-49zM673 345V240h221v-85H673V16h266v-86H303v86h278v139H358v85h223v105h92zM238 792l93-25q-37-114-82-212v-655h-90v488q-45-70-98-134L23 362q64 81 119 191.5T238 792z"/><glyph glyph-name="uni4F88" unicode="侈" d="m610 167 32-22-67-61q-43 35-110 84-58-43-124-80l-51 67q109 60 187 126 67 57 121 122-124-60-292-109l-30 78q174 44 309.5 110.5T806 633H536q-17-17-34-33 54-35 107-72l-66-58-106 76q-44-35-93-66l-52 64q92 56 163.5 122T574 801l82-26q-24-34-50-66h308v-76Q813 520 668 439q-17-10-36-19l64-25q-20-28-43-54h281v-76q-60-81-137-145T603-1Q486-58 314-110l-36 76Q433 8 535.5 52.5t170 94.5Q773 197 830 265H582q-24-23-49-44 6-5 13-9 28-19 64-45zM238 793l94-18q-40-126-88-228V-97h-88v486q-35-53-75-103l-54 75q62 84 119 199t92 233z"/><glyph glyph-name="uni4F8B" unicode="例" d="m323-109-64 64q91 78 147 157.5t85 159Q520 351 537 447H429q-3-11-7-22-12-34-25-66l6-6q58-51 77-71l-49-72q-22 22-54 51-10 9-18 16-24-48-52-91l-62 59q52 91 98 220 37 104 55 195h-85v85h337v-85H484q-12-65-29-127h164v-94q-23-128-58-220T469.5 50Q413-27 323-109zm-89 11h-83v491q-33-59-72-115l-54 79q51 81 102 201t82 235l88-16q-29-107-63-199V-98zM824 60v722h83V35q0-47-12.5-73t-41-37Q825-86 774-86H664L647-2h104q43 0 58 13t15 49zm-73 619V123h-83v556h83z"/><glyph glyph-name="uni4F8D" unicode="侍" d="M673 795V675h233v-87H673V484h280v-88H303v88h276v104H358v87h221v120h94zm42-733v144H456q25-24 59-57 42-40 70-70l-70-68q-70 75-138 145l56 50H326v86h389v95h98v-95h128v-86H813V31q0-48-13-72.5T756-76q-31-10-91-10H557L541-1h99q32 0 47.5 5.5T709 23q6 13 6 39zM258-96h-92v498q-41-62-88-122l-50 95q64 78 122.5 187T251 794l92-29q-40-109-85-200V-96z"/><glyph glyph-name="uni4F9B" unicode="供" d="M804 793V614h117v-88H804V295h139v-88H292v88h142v231H327v88h107v179h93V614h184v179h93zM245-94h-94v491q-39-60-85-119l-45 97q62 77 117.5 190T233 805l91-28q-37-114-79-207V-94zm282 389h184v231H527V295zm-21-112 69-58Q531 74 466 11T346-98l-61 70q51 37 112.5 96.5T506 183zM939-28l-65-67Q792-5 664 120l62 62q48-45 110.5-106T939-28z"/><glyph glyph-name="uni4F9D" unicode="依" d="m229 796 92-19q-36-114-80-213V228q121 88 194 182 56 72 101 165H319v89h253q-18 48-49 117l86 32q18-38 60-142l-21-7h283v-89H636q-1-4-3-7 23-120 61-213 76 59 155 135l59-68q-95-81-177-145 5-10 11-19 80-132 221-221l-68-79Q794 29 730 107.5T624 290q-27 69-51 161-30-51-64-96l-3-4V43l148 73 19-91q-93-41-150-68T423-95l-43 74q34 25 34 60v209q-51-49-113-97l-60 77V-92h-93v482q-36-57-78-112l-51 89q63 80 117 190.5T229 796z"/><glyph glyph-name="uni4FA0" unicode="侠" d="m958-21-53-85Q772-39 693 53q-41 48-69 105-12-23-26-46Q529 3 337-104l-56 78q125 65 190 130.5T556 227q4 10 7 20H294v87h283v254H323v88h254v118h90V676h254v-88H667V334h278v-87H683q28-75 76-131 69-80 199-137zM244 790l89-25q-36-111-84-212V-97h-88v489q-40-64-86-124l-48 91q62 82 121.5 198.5T244 790zm586-217 72-40q-60-96-121-187l-73 42q25 34 62 90.5t60 94.5zM531 389l-72-42q-62 99-119 183l72 41q84-121 119-182z"/><glyph glyph-name="uni4FA3" unicode="侣" d="M899 326V-81h-92v50H448v-49h-91v406h542zm-31 432V425H387v333h481zm-628 49 93-27q-39-117-89-221V-83h-93v477q-41-63-86-119l-50 97q62 78 122.5 195T240 807zm567-571H448V57h359v179zM478 511h301v160H478V511z"/><glyph glyph-name="uni4FA5" unicode="侥" d="M606 523q4-6 7-12 115 49 207 113l48-68q-86-63-196-112 10-9 21-16 50-33 89-33 30 0 44 11t22 37q11 35 20 81l78-38q-13-50-30-91-18-44-50-63t-84-19q-39 0-87 18.5T601 388q-11 8-21 18-120-46-265-78l-29 83q124 24 240 65-2 3-3 6-29 54-51 108l-160-19-10 84 142 16q-16 51-33 120l94 11q16-71 31-120l362 42 11-80-345-42q18-41 42-79zM720 57q0-29 8.5-38t33.5-9h40q31 0 40 8.5T853 58q3 57 3 96l79-17-5-112q-2-41-13.5-62.5t-35.5-29Q857-74 814-74h-80q-57 0-81 24t-24 80v175H518v-7q-3-82-23.5-133.5t-65-89Q385-62 300-104l-55 70q72 32 110 63t54.5 70.5Q426 139 430 202v3H294v84h623v-84H720V57zM220 799l91-22q-35-116-76-211V-91h-90v486q-34-55-75-109l-51 85q120 165 201 428z"/><glyph glyph-name="uni4FA6" unicode="侦" d="M875 534V128h-90v324H441V128h-90v406h198v267h92v-93h289v-81H641v-93h234zM246-93h-90v492q-38-59-82-117l-50 90q61 78 116.5 191T235 800l92-25q-36-113-81-210V-93zm702 72-58-76Q835-57 735 9q-71 46-123 80-30-48-89-89-74-51-209-99l-43 83q129 45 191.5 84.5t84 86.5Q568 202 569 281v127h89V263q-1-51-12-93Q835 52 948-21z"/><glyph glyph-name="uni4FA7" unicode="侧" d="M616 738V160h-71v493H374V157h-71v581h313zm-424 60 84-17q-25-99-56-185V-95h-76v519q-28-53-61-107l-58 68q52 82 95.5 189.5T192 798zM827 57v719h76V28q0-43-11-65.5t-37-32Q829-79 781-79h-80L682 4h83q38 0 50 10t12 43zM425 346v260h69V327q0-77-11-136 59-58 184-187l-65-61q-68 79-144 162-20-48-52-86-45-54-123-112l-52 61q87 63 127 109.5t53.5 105Q425 241 425 346zm334 345V131h-74v560h74z"/><glyph glyph-name="uni4FA8" unicode="侨" d="M452 197v59q-55-43-132-91l-55 76q114 66 173 122 40 38 67 84H306v85h234q17 53 28 125-107-9-204-13l-5 86q124 6 272.5 19.5T878 778l12-86q-89-14-224-27-12-75-27-133h294v-85H720q33-49 72-84 61-53 173-107l-42-82q-78 36-136 79V-92h-92v377h53q-5 4-9 9-65 62-113 153h-17q-33-75-93-135-14-14-30-28h57v-83q0-75-14-127t-49.5-96Q444-66 378-113l-63 65q53 38 81.5 68t42 71.5Q452 133 452 197zM245 799l91-24q-33-109-79-209V-94h-90v491q-44-69-93-131l-41 91q61 85 119 204.5T245 799z"/><glyph glyph-name="uni4FAE" unicode="侮" d="m460 802 86-22q-15-35-32-69h415v-84H467l-12-18q-20-29-41-57h457l-3-68q-2-71-5-144h90v-82h-92l-2-34q-2-57-3-100h75V43h-78q-1-8-1-14-3-47-16.5-72.5T793-80q-29-11-81-11H563l-16 79h136q43 0 60 13 15 13 18 42H323l23 215h-69v82h78l18 159q-20-23-41-46l-60 66q56 60 106.5 136.5T460 802zm-240-6 93-20q-35-108-71-195V-96h-89v500q-35-57-77-115l-49 91q53 79 106 191t87 225zm290-582 35 44H434l-14-134h207q-41 35-117 90zm176-39-41-51h121q4 57 8 134H576q50-35 110-83zM527 427l35 43H457l-14-130h197q-73 60-113 87zm175-38-42-49h118q4 78 6 130H596q42-32 106-81z"/><glyph glyph-name="uni4FAF" unicode="侯" d="m964-14-41-86Q782-60 695 10q-37 30-65 66-33-51-100-93-74-47-208-92l-43 82q120 39 185.5 74.5T556 123q10 15 17 32H291v78h294l1 93v3H445q-29-49-65-94l-75 47q78 88 127 206l83-25q-12-29-26-56h412v-78H676q0-15-1-31-1-37-3-65h276v-78H686q28-50 81-88 72-51 197-81zm-718-87h-90v478q-37-55-78-104l-50 87q59 76 120 197t97 238l91-23q-40-128-90-235v-638zm706 671v-78H310v78h437l7 97H387v79h462l-13-176h116z"/><glyph glyph-name="uni4FB5" unicode="侵" d="m312-105-36 78Q433 2 536 45q-66 49-128 129l33 23h-60v38h-83v158h635V235h-75v-36q-54-79-124-135-15-12-31-23 14-5 29-10 87-29 229-50l-30-80Q790-72 698-39q-41 14-78 33-27-14-57-26-102-41-251-73zm565 864V447H350v69h439v52H380v67h409v53H358v71h519zM236-101h-83v479q-33-54-72-108l-54 84q58 79 113.5 200T229 795l90-20q-38-128-83-234v-642zm614 425H381v-57h469v57zM587 104q13-11 28-20 79 46 139 113H493q45-57 94-93z"/><glyph glyph-name="uni4FBF" unicode="便" d="m960 4-22-94Q783-75 680-49 613-32 556-4q-12-8-25-16-77-45-236-89l-36 86q143 35 208 67 3 2 5 3-60 46-114 116l46 38h-58v389h233v76H334v87h606v-87H666v-76h231V201H662q-7-65-25-109-7-15-16-30 33-13 72-23 99-25 267-35zM243-101h-88v474q-33-55-71-103l-60 80q58 81 114.5 203.5T227 795l91-22q-30-112-75-222v-652zm191 535h145v77H434v-77zm145-140v63H434v-76h145v13zm230 217H666v-77h143v77zm0-230v76H666v-76h143zM555 131q12 28 18 70H437q52-60 102-96l1-1q9 13 15 27z"/><glyph glyph-name="uni4FC3" unicode="促" d="M927 269v-88H697V21h265l-16-88H699q-83 0-140 23.5T462 32q-14 20-28 45-37-93-112-180l-72 45v-38h-92v481q-37-57-80-111l-51 80q58 76 117 200t92 237l89-25q-34-111-75-205V-46q73 87 104 171 33 88 41 227l92-8q-5-79-18-144 19-64 47-102 33-44 76-61 5-2 11-4v378H377v338h514V411H697V269h230zM469 500h328v159H469V500z"/><glyph glyph-name="uni4FC4" unicode="俄" d="M420 58v151q-70-17-120-30l-18 89q19 4 138 31v135H284v90h136v107q-55-11-100-16l-12 84q68 10 146 26.5T586 760l19-82q-42-13-97-27V524h136q-3 36-5 75-3 54-5.5 109.5T630 793h90q0-73 6-197 1-37 4-72h217v-90H736q9-105 22-187 61 68 107 150l70-38q-67-116-158-210 13-54 29-93 11-27 21-38t20-11q13 0 20 12t13 54q10 54 15 112l78-26-5-38q-4-20-7.5-46T951 21Q932-96 848-96q-39 0-67.5 27.5T724 23q-11 26-21 57-68-57-147-105l-45 79q97 55 171 118-5 26-9 54-12 80-23 208H508V320q36 8 77 18l37 9 7-45 5-42q-51-11-126-29V25q0-41-11-64t-37.5-33Q433-82 385-82h-84L283 7h72q40 0 52.5 10.5T420 58zM235 795l86-23q-35-117-78-217V-96h-85v486q-33-55-72-110l-61 75q56 75 117 201.5T235 795zm582-44q89-101 113-130l-66-59q-80 100-129 156l64 53 18-20z"/><glyph glyph-name="uni4FCA" unicode="俊" d="m960-17-41-84Q780-60 685-15q-31 15-59 31-27-16-57-30-99-49-252-93l-43 86q137 36 224 71 24 10 47 21-11 8-21 17-44 39-81 89-54-57-119-105l-54 65q69 53 132 125t100 140l76-36q-12-23-25-44h302v-73q-54-89-120-152-16-15-34-29 102-49 259-85zM245 798l88-24q-40-125-87-228V-96h-87v483q-35-55-77-107l-55 77q60 76 122.5 201.5T245 798zm703-254-60-62-49 49q-91-3-178-6-101-4-189-9t-135-10l-18 84q35 7 56 21 39 29 97.5 89T567 809l80-44q-68-80-166-172l280 14q-45 44-82 78l60 57q156-147 209-198zm14-174-41-72-29 17q-153 92-229 132l45 70q57-32 128-73t126-74zM499 514l53-67q-109-90-235-159l-46 77q62 31 123 70.5T499 514zm123-399q12 8 22 16 60 46 106 114H500v-1q48-76 122-129z"/><glyph glyph-name="uni4FCF" unicode="俏" d="M902 23q0-44-11-68t-36-33.5Q830-88 784-88H671L656-1h99q32 0 43 10.5T809 52v48H455V-90h-92v617h221v269h95V527h223V23zM228 789l92-23q-32-104-71-196V-97h-91v491q-37-59-80-114l-51 85q56 73 113 193t88 231zm227-608h354v91H455v-91zm354 261H455v-87h354v87zM547 604l-70-60q-28 36-68.5 84.5T338 710l67 58q51-55 142-164zm308 161 70-53q-83-110-138-170l-69 57q57 61 137 166z"/><glyph glyph-name="uni4FD0" unicode="俐" d="m598 766 15-83q-49-14-112-28V520h124v-86H501V334l40 32q36-46 99-128l22-29v466h82V129h-82v73l-63-51q-63 85-98 131V-93h-83v361l-10-20q-45-88-105-165l-58 69q62 77 115 179 27 52 48 103H283v86h135v117q-63-13-112-20l-16 85q68 8 155.5 26.5T598 766zM236-96h-84v489q-32-53-70-102l-55 80q55 73 108 191t84 229l88-22q-35-113-71-204V-96zM825 55v713h84V30q0-45-11.5-70T857-76q-29-11-84-11H662L648-3h103q31 0 46.5 5T819 19q6 12 6 36z"/><glyph glyph-name="uni4FD7" unicode="俗" d="M574 588h78q105-176 323-297l-52-82q-38 22-71 45V-98h-91v49H465v-49h-90v351q-35-25-74-48l-51 82q221 130 324 301zM247-94h-92v481q-34-53-74-102l-57 74q56 73 115.5 195T231 785l89-24q-33-109-73-201V-94zm514 304H465V37h296v173zM615 494q-65-105-184-199h365q-116 91-181 199zM505 782l63-62q-48-54-109.5-111.5T340 506l-56 73q50 37 111.5 93.5T505 782zm434-203-59-68q-87 81-231 206l59 66q119-102 231-204z"/><glyph glyph-name="uni4FD8" unicode="俘" d="M893 365 674 237v-2h278v-82H674V28q0-42-11.5-65t-39-33Q596-80 546-80H431L413 5h107q36 0 47.5 9T579 51v102H295v82h284v36l159 91H362v80h531v-77zM227 795l91-24q-31-100-73-197V-94h-91v488q-39-67-82-126l-51 91q59 82 116 201.5T227 795zm676-14 18-82q-115-21-280-37-118-11-221-17 20-32 46-76 27-45 38-67l-72-42q-22 40-84 145l70 40q-40-3-78-4l-9 84q139 6 298 20.5T903 781zm-74-117 73-40q-17-32-47-83.5T800 453l-73 42q67 102 102 169zM694 512l-76-39q-9 22-30 65.5T547 620l75 38q55-107 72-146z"/><glyph glyph-name="uni4FDD" unicode="保" d="M880 748V425H369v323h511zm91-713-51-82Q813 15 739 82q-38 35-71 74V-93h-87v254q-35-42-77-80Q425 9 310-55l-48 80q119 59 192 120 52 44 96 103H310v83h271v88h87v-88h272v-83H690Q791 122 971 35zM248-99h-88v489q-37-59-80-114l-55 81q57 78 116.5 200.5T230 788l92-23q-33-110-74-205V-99zm213 610h326v150H461V511z"/><glyph glyph-name="uni4FE1" unicode="信" d="M882 239V-93h-93v48H448v-49h-92v333h526zM247-96h-90v486q-34-54-74-105l-56 83q60 78 116.5 197T229 795l92-23q-33-113-74-210V-96zm706 782v-86H308v86h286q-7 13-14 29-21 44-33 65l93 23q36-73 57-117h256zM789 157H448V36h341v121zm85 228v-79H363v79h511zm0 146v-77H363v77h511z"/><glyph glyph-name="uni4FE9" unicode="俩" d="M914 25q0-47-10.5-71T868-79q-25-9-74-9h-91L685-2h86q35 0 46.5 10.5T829 52v86l-37-26q-23 41-65 106-4 5-7 10-27-97-95-207l-75 42q48 76 74 136 4 10 8 21l-44-33q-19 31-43 69-1-3-1-6-24-99-86-201l-50 33V-93h-84v638h162l1 101-1 17H311v85h639v-85H753q-1-70-1-118h162V25zM207 791l89-17q-27-111-62-205V-95h-86v478q-30-51-65-99l-59 70q50 73 103 200t80 237zm240-573q21 57 28 118 7 51 9 124h-76V135q24 44 39 83zm374-4 8-13v259h-78q-2-66-9-123 30-45 79-123zM596 323q21-35 46-73 12 37 18 76 9 57 11 134H569q-2-47-5-89 19-29 32-48zm-24 283q-1-33-2-61h101v118h-99v-57z"/><glyph glyph-name="uni4FED" unicode="俭" d="M568 799h81q105-192 322-330l-57-75q-48 31-90 65v-59H394v62q-43-33-91-66l-56 75q112 72 190 152.5T568 799zm-330 1 96-25q-38-119-90-228V-95h-93v473q-37-58-76-110l-53 87q62 74 121.5 198.5T238 800zm554-427 86-31q-27-74-72-187-29-73-52-127h177v-88H290v88h368q55 130 134 345zM609 698q-68-110-183-209h362q-110 95-179 209zM508 92l-85-26q-16 57-43.5 142T335 342l81 26q36-102 92-276zm176 33-83-27q-14 54-38 131t-41 124l82 27q42-127 80-255z"/><glyph glyph-name="uni4FEE" unicode="修" d="m563 805 81-26q-14-29-29-56h280v-73q-56-92-146-160 90-44 219-73l-31-80q-112 30-194 66l38-63q-160-99-325-153l-36 73q85 26 168 64 83 37 153 80-37 17-69 35-106-60-269-110l-33 74V71h-76v586h76V555q58 49 108 115 52 68 85 135zM222-98h-80v479q-30-52-63-98l-59 63q56 83 113 211.5T219 796l83-19q-35-126-80-233V-98zm677 299 44-61Q738-19 393-105l-34 72Q516 5 654 64.5T899 201zm-82 102 44-61q-85-60-193-111T442 46l-39 65q114 34 219.5 83.5T817 303zM417 486l-47 61V406q138 39 228 84-48 38-88 87-43-49-93-91zm143 153q46-60 114-106 72 50 117 115H566q-3-5-6-9z"/><glyph glyph-name="uni4FEF" unicode="俯" d="m544 603 81-23q-24-74-51-135V-93h-80v397q-23-32-50-63l-32 41q-2-44-6-80-7-81-26-146T326-83l-85 36q38 70 57 129.5T323.5 210q6.5 68 6.5 177v306h279q-26 55-44 93l93 21q13-24 54-114h234v-84H414V407q0-39-1-73 35 46 66 107 42 80 65 162zM236-98h-86v484q-35-60-75-114l-51 87q55 70 108.5 190.5T217 787l92-19q-32-111-73-209V-98zM783 57v322H600v81h183v123h81V460h86v-81h-86V32q0-46-11-71.5T815.5-76Q789-87 741-87h-90L634-3h81q41 0 54.5 12T783 57zm-20 103-71-37q-19 42-49.5 103.5T597 313l70 36 96-189z"/><glyph glyph-name="uni4FF1" unicode="俱" d="M861 751V199h95v-81H515l53-64q-52-41-118.5-83T315-105l-43 80q121 49 239 143H281v81h96v552h484zM239-99h-88v481q-34-54-70-100l-54 80q56 73 108.5 189T220 785l89-19q-26-107-70-211V-99zM889 14l63-36-50-76Q824-46 667 44l46 71q52-28 176-101zM773 671H465v-63h308v63zM465 199h308v63H465v-63zm0 137h308v62H465v-62zm0 136h308v62H465v-62z"/><glyph glyph-name="uni4FFA" unicode="俺" d="m222 796 90-23q-33-112-75-209V409q129 80 203 172 11 13 21 28H302v79h205q26 53 43 113l92-17q-15-50-35-96h320v-79H733q34-50 80-93 67-62 158-104l-43-77q-35 19-68 41V81H643V37q0-28 12-38.5T698-12h123q33 0 44 11.5T877 46q4 50 4 97l80-17q-1-10-2-44.5T956 26q-3-43-15-66t-37.5-32.5Q878-82 832-82H669q-60 0-85 23.5T559 20v61H427V22h-85v355q-30-21-63-43l-42 64V-96h-86v494q-37-60-78-111l-49 80q54 72 111 194.5T222 796zm295-257q-38-47-90-93h132v100h84V446h128q-12 12-25 24-68 68-110 139h-70q-22-37-49-70zm258-385v73H643v-73h132zm0 218H643v-73h132v73zm-348-73h132v73H427v-73zm0-145h132v73H427v-73z"/><glyph glyph-name="uni500D" unicode="倍" d="M684 725q6-11 16-33l-16-6h236v-85H767l83-30q-31-60-74-134h178v-88H311v88h179q-36 68-76 126l71 38H355v85h244q-17 36-47 95l90 33q26-51 42-89zm196-464v-362h-94v47H476v-47h-96v362h500zM241 788l95-25q-36-104-83-204v-659h-91v489q-36-58-74-108l-64 73q66 83 122 194.5T241 788zm545-609H476V29h310v150zM578 467l-60-30h154q22 34 43 73 28 50 46 91H501q40-65 77-134z"/><glyph glyph-name="uni5012" unicode="倒" d="M284 467q20 28 56 97 21 40 36 73H275v86h356v-86H463q-20-41-42-85-33-65-52-96l159 13q-32 63-53 102l67 31q47-86 109-216l-69-32q-8 18-18 39-40-3-75-5V268h125v-85H489V67q103 11 160 17l3-40 2-45q-74-7-201-20T251-42l-8 87q24 1 164 14v124H274v85h133v115q-100-7-128-13l-22 76q7 2 15 8t12 13zm-98 325 89-18q-30-114-66-208V-99h-82v489q-28-50-60-97l-49 82q48 74 94 188.5T186 792zM821 53v725h84V28q0-46-11-71t-38-35.5Q829-89 778-89H676L659-7h92q41 0 55.5 12.5T821 53zm-71 615V120h-78v548h78z"/><glyph glyph-name="uni5014" unicode="倔" d="M338 448v301h579V497H428v-51q0-181-22-294T326-82l-87 41q42 75 62.5 138.5t28.5 142q8 78.5 8 208.5zm580-272V-96h-76v40H460v233h76V25h114v201H481v209h73V308h96v170h78V308h96v126h74V226H728V25h114v151h76zM237-95h-88v479q-32-57-67-105l-61 75q61 86 111 198t83 242l91-21q-30-104-69-202V-95zm592 671v92H428v-92h401z"/><glyph glyph-name="uni5018" unicode="倘" d="M907 30q0-48-12-72.5T855.5-77Q828-87 776-87h-93L665-4h88q41 0 53.5 11T819 52v385H416V-91h-87v614h241v265h95V523h242V30zM211 784l90-18q-32-111-68-203V-98h-87v481q-33-54-71-107l-52 85q57 77 106 187t82 236zm534-427V52H491v305h254zM527 602l-68-59q-28 35-69 82.5T323 700l65 59q49-49 139-157zm317 153 68-55q-24-30-67.5-80.5T774 540l-68 60q29 27 72 75.5t66 79.5zM564 134h108v139H564V134z"/><glyph glyph-name="uni5019" unicode="候" d="m960-19-50-77Q790-53 720 17q-27 27-47 59-31-49-87-88-66-47-180-90l-49 76Q498 24 561 83q39 36 55 78H407v77h220q1 25 1 93v3H525q-23-44-54-88l-69 45q62 82 104 197l77-20q-10-29-21-56h336v-78H721q0-13-1-27-1-41-3-69h219v-77H726Q785 33 960-19zM214 794l85-20q-32-115-72-217V-98h-82v480q-30-55-64-108l-55 79q51 80 105 205.5T214 794zm736-220v-77H411v77h338l8 95H466v78h386l-15-173h113zM380 680V53h-80v627h80z"/><glyph glyph-name="uni501A" unicode="倚" d="M776 54v297H287v83h82l-32 61q92 27 138 52t66 61q3 6 6 13H340v82h226q1 1 1 3l4 85h93q-1-13-2-39 0-23-2-49h248v-82H647q-1-5-2-9 36-17 98-48 98-48 143-72l-38-58h105v-83h-87V30q0-47-12-72t-39.5-35.5Q787-88 735-88H633L616-6h88q31 0 46 4.5t20.5 17Q776 28 776 54zM225 793l93-20q-30-102-72-201V-97h-89v490q-38-66-79-122l-55 80q56 73 114 200t88 242zm446-515V19H351v259h320zm32 220q-57 32-93 51-25-30-66-55-49-30-134-60h409q-44 25-116 64zM428 90h167v116H428V90z"/><glyph glyph-name="uni501F" unicode="借" d="M867 338V-93h-94v40H460v-42h-94v433h501zm-79 451V678h133v-82H788V489h164v-82H289v82h155v107H327v82h117v111h90V678h163v111h91zM245-96h-88v490q-33-57-72-110l-60 75q57 80 113.5 203T224 795l92-20q-33-109-71-202V-96zm528 353H460v-78h313v78zM460 25h313v77H460V25zm74 464h163v107H534V489z"/><glyph glyph-name="uni5021" unicode="倡" d="M907 322V-94h-90v43H438v-44h-90v417h559zm-37 421V390H385v353h485zM249-99h-90v487q-36-59-78-118l-55 87q60 74 120 197t93 237l93-25q-38-111-83-210V-99zm568 343H438v-72h379v72zM438 26h379v72H438V26zm36 440h306v65H474v-65zm306 201H474v-64h306v64z"/><glyph glyph-name="uni5026" unicode="倦" d="M946 464v-79H770q25-31 57-59 58-49 145-93l-44-81q-74 42-135 95-3-55-5-78-5-53-26.5-72.5T684 77H574l-13 76h99q26 0 34.5 7.5T706 190q3 21 3 35H488V60q0-36 13-47.5T554 1h175q31 0 47 4.5t22 15q6 10.5 8 32.5 1 16 2 39.5t1 40.5l87-19-7-96q-2-39-16-59.5t-43-29Q801-79 750-79H535q-70 0-100.5 26T404 35v180q-54-47-123-95l-40 63V-98h-90v494q-34-56-74-110l-55 84q58 73 114.5 193.5T222 794l90-20q-31-108-71-202V198q120 80 192 164 10 11 19 23H288v79h214q16 32 28 67H318v78h119q-40 53-87 112l68 48q41-50 99-125l-47-35h80q6 28 13 64 13 72 20 127l84-11q-6-52-18-117-6-34-12-63h117l-46 32q53 59 102 127l68-42q-53-74-90-117h130v-78H618q-9-35-22-67h350zm-274-79H556q-20-32-43-61-8-9-17-19h237q-36 39-61 80z"/><glyph glyph-name="uni502A" unicode="倪" d="M744 58q0-26 8.5-34.5T787 15h33q30 0 40 9t11 35q2 38 2 116l82-17-6-137q-2-51-28-72.5T834-73h-76q-56 0-79.5 21.5T655 27v237H555q0-10-1-21-6-91-25.5-147t-68-101.5Q412-51 316-102l-55 80q79 37 121 72t60.5 79.5Q461 174 464 243q0 6 1 21H347v461q52 9 116 29t113 42l27-88q-35-18-80.5-35T440 647V544h147v-77H440V351h352v116H641v77h151v112H636v87h248V264H744V58zM245-93h-88v489q-37-59-82-118l-50 89q63 82 117 196t90 239l89-18q-36-119-76-215V-93z"/><glyph glyph-name="uni503A" unicode="债" d="M661 794v-92h258v-67H661v-55h229v-67H661v-55h293v-69H287v69h285v55H345v67h227v55H333v67h239v92h89zM244-99h-88v484q-32-52-70-101l-56 78q59 76 113 191.5T228 784l91-17q-34-114-75-211V-99zm618 430V69h-86v188H456V67h-85v264h491zM573 194q1 6 3 36l82-2q0-11-3-37-4-44-13-79 62-28 144-66 94-44 151-72l-41-77q-60 32-152 79-75 38-133 66-32-44-93-75-67-35-203-77l-35 82Q404 5 464.5 35t81.5 65q21 35 27 94z"/><glyph glyph-name="uni503C" unicode="值" d="M663 794v-78h263v-79H663v-75h210V21h81v-79H277v79h82v541h211v75H325v79h245v78h93zM235-93h-91v473q-32-56-68-109l-50 99q56 78 103 191.5T207 799l96-19q-31-110-68-206V-93zM452 21h329v64H452V21zm0 268h329v63H452v-63zm0-134h329v63H452v-63zm329 330H452v-62h329v62z"/><glyph glyph-name="uni503E" unicode="倾" d="M906 567V120h-76v372H603V121h-76v446h130q11 47 22 103H512v78h431v-78H765q-12-58-23-103h164zM197 794l87-18q-27-98-60-189V-90h-83v485q-31-62-66-124l-51 79q50 82 100.5 212T197 794zm124-659v639h83V549h91v-87h-91V152l84 65 23-90q-48-34-95.5-69T338-4l-50 73q18 13 25.5 28.5T321 135zm359 166v140h73V282q0-66-10-116 85-76 215-196l-61-63Q857-53 791 10q-41 40-77 73-21-41-57-76-53-52-154-109l-46 75q98 48 145.5 92.5T665 162q15 52 15 139z"/><glyph glyph-name="uni5047" unicode="假" d="M597 180V96H407V-93h-85v846h274V465H407v-98h173v-84H407V180h190zm-52-280-50 76Q616 35 688 95q-55 78-88 190l58 19h-62v82h313v-85Q875 179 802 90l20-16q56-43 144-83l-47-86Q811-39 743 29q-77-68-198-129zm-312 0h-87v491q-30-51-66-102l-52 84q55 77 103 188t79 229l90-16q-32-113-67-203v-671zm665 852V466H633v87h182v114H634v85h264zM731 174q7-11 15-22 55 66 81 152H677q21-76 54-130zM513 549v119H407V549h106z"/><glyph glyph-name="uni504E" unicode="偎" d="M877 752V379H343v373h534zm-38-515 50-62q-56-37-153-94 21-14 44-27 67-36 172-65l-47-75Q792-49 720.5-6T601 99q-44 56-79 140h-73V11l165 61 5-87q-89-28-148.5-49T369-107l-40 77q18 10 25 22t7 29v218h-99v79h677v-79H610q27-56 59-95l8-10q92 52 162 103zM229-103h-88v495q-39-66-83-123l-43 98q56 76 107.5 187.5T212 789l88-23q-32-106-71-199v-670zm557 783H649v-80h137v80zm0-230v79H649v-79h137zM434 600h135v80H434v-80zm0-150h135v79H434v-79z"/><glyph glyph-name="uni504F" unicode="偏" d="m213 787 87-26q-36-121-70-208V34q31 52 50 105 24 66 34.5 149.5T325 494v210h251q-18 41-39 86l87 25 51-102-37-9h260V465H410q-1-39-3-77h503V11q0-53-23-74t-79-21h-37l-13 56v-15h-75v165h-71V-42h-76v164h-70V-88h-78v319q-4-20-9-40-30-133-93-234L230 0v-95h-86v476q-28-45-61-93l-53 78q57 83 106.5 197T213 787zm598-246v87H410v-87h401zM788-7q25 0 33 8.5t8 31.5v89h-71V-7h30zM612 195h71v118h-71V195zm217 118h-71V195h71v118zM466 195h70v118h-70V195z"/><glyph glyph-name="uni505A" unicode="做" d="M588 622v-86H467V376h95V12q72 64 118 125l20 28q-20 43-36 88-22 65-36 144-14-23-29-44l-59 68q47 77 87 182t54 197l84-15q-14-75-35-148h227v-87h-65q-14-145-41-245-20-73-55-140 8-13 16-25 61-85 159-167l-58-76Q817-17 757 68q-6 9-11 17-66-91-182-191l-58 73q13 11 26 21H288v388h94v160H262v86h120v169h85V622h121zM216-95h-85v485q-28-50-59-97l-50 84q49 84 95 197t71 220l89-24q-27-102-61-193V-95zM365 74h118v217H365V74zm318 432q12-101 37-181 12-37 28-72 15 35 26 73 28 91 40 224H701q-9-23-18-44z"/><glyph glyph-name="uni505C" unicode="停" d="M237-94h-84v479q-32-51-72-101l-56 78q57 82 110.5 197T223 794l91-18q-39-128-77-223V-94zm627 674V399H369v181h495zM585 40v93H394v77h439v-77H676V16q0-41-11.5-63t-39-31.5Q598-88 546-88H437L420-5h104q38 0 49.5 9T585 40zm348 308V176h-87v98H383v-97h-85v171h635zM686 712l-33-8h279v-74H321v74h257q-13 29-40 79l96 32q14-29 28.5-57t23.5-46zM457 461h319v56H457v-56z"/><glyph glyph-name="uni5065" unicode="健" d="M905 309v-69H721v-61h210v-70H721V28h-80v81H474v70h167v61H511v69h130v63H514v69h127v65H487v70h154v65H515v69h126v81h80v-81h172V576h56v-70h-56V372H721v-63h184zM479 646 354 454h122v-79q-14-112-34-183-12-47-33-91 29-32 66-54Q541 8 644 8h307l-15-75H636q-106 0-181 33-48 21-87 61-34-55-90-127l-69 55q69 79 107 141-46 79-76 207l71 23q21-83 48-143 8 20 13 40 19 66 26 155H263v76l126 193H271v77h208v-78zM180 786l84-17q-23-98-56-193V-95h-79v486q-28-56-60-107l-49 83q48 78 91.5 192T180 786zm634-345v65h-93v-65h93zm0 200h-93v-65h93v65z"/><glyph glyph-name="uni5076" unicode="偶" d="M907 11q0-54-25-77t-91-23h-90l-16 76h72q36 0 50 11.5T821 40v188H652V127q34 3 58 5l-17 55 60 18q19-54 56-176l-61-16-15 45q-58-4-149-12-108-9-140-13l-8 81q51 2 131 7v107H404V-89h-85v397h248v68H349v376h525V376H652v-68h255V11zM235-99h-87v486q-39-62-86-120l-40 98q63 86 115 194.5T224 791l92-21q-38-120-81-217V-99zm551 551v75H652v-75h134zm0 224H652v-74h134v74zM437 452h130v75H437v-75zm0 150h130v74H437v-74z"/><glyph glyph-name="uni5077" unicode="偷" d="M609-6q0-47-19.5-64.5T518-88h-64L436-8h51q27 0 35 6.5t8 25.5v69H399V-93h-79v540h289V-6zm-42 801h93q53-74 131.5-136.5T967 553l-43-83q-76 36-142 83v-50H440v43q-64-45-144-89l-45 81q110 57 186 118.5T567 795zM232-102h-85v489q-33-54-71-108l-46 99q58 75 111 187t85 224l93-18q-39-123-87-226v-647zM812 37v423h78V14q0-42-11-63.5T843.5-79Q819-87 774-87h-94l-16 75h90q35 0 46.5 10T812 37zm-64 391V75h-75v353h75zM614 713q-54-72-132-135-2-1-5-3h275l-8 6q-81 64-130 132zM399 161h131v73H399v-73zm131 216H399v-72h131v72z"/><glyph glyph-name="uni507F" unicode="偿" d="m930-50-71-49q-21 29-45 59-199-8-310-14-115-6-158-14l-19 78q17 7 26.5 14T378 44q34 34 74 85 19 24 35 47H298v82h647v-82H598q-20-30-48-65-42-54-78-94l285 16q-41 54-74 99l74 39q66-79 173-221zM667 791V598h115l-54 34q23 31 48.5 69.5T817 766l68-38q-15-27-42-67-23-35-42-63h140V392h-91v123H390V393h-87v205h143q-24 38-46 73-24 37-39 61l67 38q42-60 90-137l-58-35h118v193h89zM238-96h-87v487q-40-69-85-127l-40 92q70 112 115 210t84 222l88-20q-34-109-75-204V-96zm592 523v-80H413v80h417z"/><glyph glyph-name="uni5080" unicode="傀" d="M878 712V276H763l39-16q-28-67-67-131l72 6q-17 36-30 61l55 29 16-31q22-43 36-71l75-14-3-38q-1-29-4-56-3-36-14.5-56t-36-28Q877-77 832-77H689q-65 0-91 22t-26 80v115q-30-46-72-88-76-76-207-152l-50 78q113 61 182.5 126T527 249q6 13 10 27H334v436h190q6 16 11 34 13 41 18 62l100-13q-6-20-26-83h251zM236-96h-87v487q-38-67-80-125l-48 88q55 81 110.5 202.5T219 791l87-23q-30-100-70-197V-96zm406 451h150v102H646v-23q0-42-4-79zm150 278H646V532h146v101zM656 46q0-27 11.5-37T712-1h102q37 0 50 10t15 39q0 11 1 20l-35-15-10 22q-69-3-112-6-41-3-67-9V46zm-96 388v23H417V355h138q5 37 5 79zm-143 98h143v101H417V532zm247-389q16 24 37 67 18 36 30 66H629q-5-19-11-37h38V133q4 4 8 10z"/><glyph glyph-name="uni5085" unicode="傅" d="M940 699v-73H661v-56h230V217h-67v-35h130v-75H824V19q0-44-11-66.5t-37.5-32Q749-89 697-89H587l-17 78h98q30 0 44 5t19 16q5 11 5 34v63H461l32-25q-5 4 80-60l-52-62Q466 7 382 66l33 41H283v75h453v49h69v33H661v-41h-82v41H426v-47h-86v353h239v56H321v73h258v95h82v-95h124q-11 12-30 30-37 39-39 42l57 40q8-10 37-37l29-29q22-22 26-28l-24-18h99zM246-101h-88v494q-40-69-83-127l-58 74q69 96 124 214t87 240l87-21q-29-99-69-196v-678zm180 428h153v57H426v-57zm0 121h153v55H426v-55zm235-121h144v57H661v-57zm144 176H661v-55h144v55z"/><glyph glyph-name="uni508D" unicode="傍" d="M916 705v-79H748l56-25q-16-28-43-68-5-8-9-14h161V371h-88v70H381v-70h-86v148h167q-7 11-17 26-19 30-34 50l62 31H296v79h275q-17 35-40 84l91 22q20-40 48-106h246zM835 75q-4-44-4-52-4-56-34-81T697-83H568L552-5h123q38 0 53.5 11.5T747 46l6 64H499Q483 52 448 9q-50-61-162-121l-50 75q66 36 103.5 66t58 68q20.5 38 28.5 96 4 28 7 64H282v78h295q-6 10-11 22-18 38-28 54l86 23q32-65 48-99h264v-78H521q-4-38-8-68h332q-1-16-10-114zM218-96h-83v487q-30-51-64-102l-53 81q51 76 99.5 188T197 786l88-16q-29-109-67-206V-96zm334 636-41-21h138q15 20 36 51 21 32 35 56H492q13-17 28-38 18-26 32-48z"/><glyph glyph-name="uni50A8" unicode="储" d="m872 734 76-30q-51-118-109-204h114v-79H779q-37-42-81-82h192V-88h-78v43H629v-43h-77v313q-35-24-73-48l-36 76q132 77 225 168H469v79h156v109H511v77h114v108h79V686h107v-77H704V500h35q80 101 133 234zm-656 59 88-19q-32-118-72-219V-95h-82v477q-34-60-72-112l-56 81q61 85 112.5 204.5T216 793zM342 71v345h-78v88h161V97l76 63 25-88Q459 21 425.5-5.5T369-56l-56 68q29 25 29 59zm72 648q58-92 71-115l-72-45q-22 40-49.5 87T312 732l69 41q10-18 33-54zM629 29h183v83H629V29zm183 235H629v-79h183v79z"/><glyph glyph-name="uni50AC" unicode="催" d="M246-99h-88v483q-41-70-86-130l-57 77q66 95 120 215.5T222 789l95-23q-28-103-71-205V278q120 118 180 275l80-23q-15-36-30-69h179q-26 47-43 74l54 26H348v192h87V642h154v150h86V642h152v111h86V561H691q24-40 50-85l-32-15h223v-75H720v-71h199v-72H720v-70h199v-72H720V28h231v-75H462v-50h-89v389q-35-44-79-92l-48 64V-99zM462 28h172v73H462V28zm0 287h172v71H462v-71zm0-142h172v70H462v-70z"/><glyph glyph-name="uni50B2" unicode="傲" d="M587 60q-4-62-29-84.5T474-47h-77l-14 70h65q32 0 45.5 11T511 75q3 24 6.5 62.5T521 190H412q-10-69-31-123-30-76-95-155l-59 54v-65h-83v494q-34-60-72-113l-60 69q64 91 115 205t82 233l85-21q-27-103-67-201V-20q57 66 83 123 27 60 32 148l3 76h-85v78h151v71H294v75h117v67H285v76h126v101h81V694h134v-76H492v-67h102v-75H492v-71h108l-23 20q51 83 84 183t46 191l81-15q-15-72-37-147h206v-84h-52q-12-138-40-242-22-79-57-150 12-20 25-39 56-80 140-154l-62-66Q822-12 763 81q-62-93-161-188l-56 70q97 85 155 173 9 13 17 27-3 8-7 16-43 98-61 217-7-11-14-21l-29 24v-72H422q-1-32-2-62h181Q591 95 587 60zm126 463q6-122 34-216 8-27 17-51 15 36 26 75 27 95 40 222H724q-6-15-11-30z"/><glyph glyph-name="uni50BB" unicode="傻" d="M899 724V388H773q33-15 75-36 74-35 117-57l-31-67q-50 27-123 62.5T691 347l25 41H511l23-37q-101-71-235-136l-36 69q59 26 121 59 41 23 78 45H350v336h179q4 10 8 21 14 37 21 62l89-15q-15-39-26-68h278zm58-740-31-85Q742-60 623 0q-31-15-65-29-103-42-257-77l-32 78Q427 2 539 51q-52 37-93 82-59-50-125-94l-45 70q71 42 144.5 105.5T528 328l67-33q-10-16-21-31h285v-69q-58-77-128-130-10-8-21-15Q820 2 957-16zM231 791l89-19q-34-114-79-216v-656h-88v489q-32-52-68-103l-57 78q57 77 115 197t88 230zM624 94q76 44 121 95H510q46-53 114-95zM433 462h52l-26 52q48 20 103 45-57 28-91 43l28 48h-66V462zm355 53-32-53h60v188h-67l27-48q-33-20-77-43 60-29 89-44zm-158 10q-75-36-139-63h263q-47 24-124 63zM526 643q59-28 106-51 64 32 108 58H512l14-7z"/><glyph glyph-name="uni50CF" unicode="像" d="M900 590V381H619q-9-16-22-29 39-49 62-94 122 65 198 119l44-67q-43-28-113-68 27-68 63-117 43-58 115-113l-57-63Q838 6 793 73q-37 55-67 135-19-10-40-21 16-59 16-133 0-78-32.5-109.5T559-87H458l-15 73h97q46 0 63 19.5T620 79q0 20-2 38-56-49-124-90-91-55-204-100L253-6q113 39 211 94 80 45 139 101l-8 22q-2 5-5 10-56-40-117-73-76-41-177-83l-31 65q186 66 292 147-8 13-19 26-12-8-25-14-72-37-214-82l-28 69q129 35 195 68 32 17 56 37H348v144q-21-15-43-29l-41 76q71 46 134 108.5T501 808l88-25q-16-28-34-54h256v-68l-71-71h160zM239-100h-88v487q-38-65-80-121l-56 76q65 92 117.5 209T219 792l90-21q-30-104-70-202v-669zm469 759H500q-15-17-31-32-19-19-40-37h209l70 69zm110-213v78H665q-5-44-15-78h168zm-389 0h141q14 33 19 78H429v-78z"/><glyph glyph-name="uni50DA" unicode="僚" d="m870 618 58-56q-58-50-96-81 60-43 141-77l-41-79q-43 19-80 41V141H652V15q0-43-8-64t-30.5-30Q591-88 545-88h-84L445-6h71q27 0 37 10t10 39v98H379v224q-45-27-97-52l-41 75q92 46 154 93l-46 45-44 43 55 55q26-24 66-63 17-15 29-28 36 38 61 84 3 4 5 9H310v80h244q13 41 21 90l92-5q-8-45-20-85h293v-80H699q29-53 71-94 18 14 37 30 36 31 63 56zM238-99h-83v494q-34-56-74-110l-54 77q54 77 110.5 196.5T226 789l87-19q-33-115-75-213V-99zm190 239 60-61q-33-37-84-81T300-85l-56 72q51 34 100.5 75t83.5 78zm427-71 106-80-54-69q-25 22-75 60.5T754 41l-41 32 52 64 90-68zm-87 321H458v-55h310v55zM458 212h310v55H458v-55zm139 370q-38-68-92-121h225q-67 68-114 160-9-21-19-39z"/><glyph glyph-name="uni50E7" unicode="僧" d="m745 807 80-42q-19-29-51-72-3-5-7-9h144V352H318v332h144q-24 33-62 81l74 47q35-37 87-108l-29-20h127q34 43 86 123zm124-513V-97h-86v39H446v-39h-88v391h511zM239-97h-87v494q-33-57-71-111l-54 75q52 76 105.5 196.5T217 790l87-20q-30-103-65-192V-97zm159 525h180v178H398V428zm432 0v178H657V428h173zM446 16h337v66H446V16zm337 204H446v-65h337v65zM558 482l-60-44q-43 62-82 113l56 42q45-54 86-111zm193 113 61-36-15-22q-52-80-66-98l-59 38q53 75 79 118z"/><glyph glyph-name="uni50F5" unicode="僵" d="M891 285V45H331v240h560zm-5 367V428H336v224h550zM205 796l89-18q-30-119-69-218V-95h-86v475q-30-50-64-97l-53 89q52 73 104 193t79 231zM954 4v-70H271V4h683zm-25 760v-69H314v69h615zm23-376v-62H271v62h681zM803 232H653v-43h150v43zm-383-43h150v43H420v-43zm383-90v41H653V99h150zm-383 0h150v41H420V99zm379 379v39H653v-39h146zm-375 0h146v39H424v-39zm375 124H653v-37h146v37zm-375-37h146v37H424v-37z"/><glyph glyph-name="uni50FB" unicode="僻" d="m206 798 88-18q-32-128-75-233V98q35 61 55 106 23 54 34 122.5T319 500v243h264V429H397q-1-55-9-105h199V-21H422v-64h-74v258q-29-73-76-155l-53 46V-93h-80v478q-31-53-68-104l-48 86q51 72 103.5 194.5T206 798zm736-595v-84H808V-97h-82v216H606v84h120v118H597v84h175q15 41 33 92 27 74 36 104l70-21q-9-28-37-101-15-40-27-74h106v-84H808V203h134zM820 701l-22-7h139v-84H606v84h133q-13 40-34 89l75 25q27-65 40-107zM513 62v179h-91V62h91zm-8 451v148H398V513h107zm231-25 17-52-66-20q-24 79-54 162l66 20q30-90 37-110z"/><glyph glyph-name="uni5112" unicode="儒" d="M895-14q0-43-18.5-60T811-91h-59l-15 73h40q23 0 31 7t8 25v130h-91V-65h-70v209h-92V-66h-70v210h-92V-90h-79v307h205q9 24 20 62H282v66h654v-66H646q-12-37-21-62h270V-14zm29 651V449h-78v122H650V375h-84v196H370V449h-77v188h273v53H341v70h539v-70H650v-53h274zM224-96h-84v477q-34-57-71-108l-40 97q49 76 101.5 197.5T211 797l87-17q-32-121-74-225V-96zm309 538v-49H398v49h135zm284 0v-49H684v49h133zm-284 89v-48H398v48h135zm284 0v-48H684v48h133z"/><glyph glyph-name="uni5121" unicode="儡" d="M872 761V411H334v350h538zm57-408V-85h-70v38H684v-39h-65v439h310zm-347 0V-85h-64v38H347v-39h-70v439h305zM217-97h-79v476q-33-59-72-114l-42 98q51 74 103.5 196.5T209 798l88-18q-34-127-80-238V-97zm568 582v67H641v-67h144zm0 201H641v-67h144v67zm-363-67h143v67H422v-67zm0-134h143v67H422v-67zM684 29h58v91h-58V29zm117 0h58v91h-58V29zm58 248h-58v-90h58v90zm-175-90h58v90h-58v-90zM347 29h56v91h-56V29zm0 158h56v90h-56v-90zM463 29h55v91h-55V29zm55 248h-55v-90h55v90z"/><glyph glyph-name="uni513F" unicode="儿" d="M658 88q0-40 13.5-53T722 22h50q30 0 45.5 5.5t21.5 19q6 13.5 8 41.5 2 31 3 74.5t1 72.5l92-17q0-36-2-82.5T937 54q-3-49-18-75.5T872.5-59Q841-70 784-70h-78q-55 0-86 12t-45.5 42Q560 14 560 70v707h98V88zM261 441v337h96V441q0-154-20.5-247t-73-162.5Q211-38 107-116L31-35Q131 35 178.5 93t65 135Q261 305 261 441z"/><glyph glyph-name="uni5141" unicode="允" d="m291 326 1 55q-126-6-192-13l-31 98q27 7 41.5 14t34.5 22q67 53 147.5 141.5T431 816l95-46q-59-79-136-164T250 466l479 19-1 1q-82 84-142 145l65 59 273-273-68-65q-19 20-44 46h-22q-75-2-142-5V85q0-39 14.5-52.5T716 19h51q32 0 47.5 5t22 18.5Q843 56 844 85l3 125 100-20q-4-97-7-144-2-46-16.5-72.5T877-64q-32-11-88-11H687q-74 0-106 31T549 64v326q-87-2-156-5-1-39-1-59-3-114-26.5-184.5T285.5 14Q229-43 118-113L42-34Q143 20 194.5 67T267 172.5Q288 231 291 326z"/><glyph glyph-name="uni5143" unicode="元" d="M654 91q0-39 13.5-52.5T720 25h53q31 0 46.5 5T841 48.5q6 13.5 7 42.5 4 92 4 124l96-22q0-28-1.5-69.5T943 50q-4-46-18.5-71.5t-46-36.5Q847-69 792-69H691q-73 0-105 31T554 69v320H389q-1-66-1-89-3-92-27.5-159t-83-126.5Q219-45 113-111L45-30q99 52 150.5 100T266 170.5Q285 223 287 300q1 17 1 73v16H60v94h882v-94H654V91zm208 648v-95H141v95h721z"/><glyph glyph-name="uni5144" unicode="兄" d="m307 305 1 21H145v422h698V326H647V73q0-35 13-46.5T711 15h62q31 0 46.5 4.5t21.5 16q6 11.5 7 35.5l3 119 89-20q0-26-2.5-66T932 33q-3-44-16.5-67.5t-43-33Q843-77 789-77H677q-68 0-95.5 27.5T554 46v280H402q0-10-1-22-8-115-37.5-188t-92-127Q209-65 96-116L44-31q104 45 157.5 86.5t76.5 98Q301 210 307 305zm-69 110h513v244H238V415z"/><glyph glyph-name="uni5145" unicode="充" d="m896 324-73-67q-29 33-57 63-66-2-124-4V64q0-33 13.5-43.5T708 10h61q30 0 45.5 4.5t21.5 15q6 10.5 7 32.5 2 26 3 59t1 56l93-17q0-25-2-59t-5-61q-3-44-17-69.5T869.5-67Q837-79 781-79H673q-48 0-75.5 10.5t-40 37Q545-5 545 43v270q-76-2-137-5l-3-38q-8-100-38.5-166t-94-116.5Q209-63 94-116L40-31q99 42 152.5 82t79.5 91.5Q298 194 306 273q1 9 3 32-118-6-185-13l-23 90q16 3 35.5 12t33.5 19q46 38 115 109 34 35 62 66H63v93h404q-10 21-24 49-21 42-31 58l86 31 41-80 26-51-24-7h381v-93H471q-83-94-195-201l413 19q-52 57-96 106l72 61q110-114 231-249z"/><glyph glyph-name="uni5146" unicode="兆" d="M641 78q0-38 13-50.5T705 15h77q31 0 45.5 4.5t20 17Q853 49 854 76q2 26 3.5 53t1.5 43l89-23-6-111q-2-46-15-70.5t-42.5-34Q855-76 801-76H681q-74 0-103.5 26.5T548 46v743h93V419l6 8q136-89 262-176l-59-79q-47 36-125 90-46 32-84 58V78zM241 257q-127-64-149-77l-38 96q21 6 151 70 95 46 135 67v373h93V378q0-139-26.5-223.5t-90-145Q253-51 130-114L66-31Q185 27 242 77t77 119q13 44 18 110-35-18-96-49zm88 224-79-58q-31 43-82 108T84 636l75 55q38-45 89.5-108T329 481zm494 207 77-60q-79-90-189-200l-69 60q42 39 91.5 94T823 688z"/><glyph glyph-name="uni5148" unicode="先" d="M662 74q0-35 13.5-47.5T726 14h49q31 0 47 5.5t22 18q6 12.5 8 35.5 2 32 2 78l1 34 90-19q0-23-1.5-59T940 42q-3-49-17.5-74.5t-45-35Q847-77 789-77h-97q-50 0-76.5 10.5t-38 36.5Q566-4 566 45v260H421q-1-9-1-16-8-106-36.5-174t-89-120Q234-57 123-112L64-22q102 44 154.5 83t75.5 91.5Q317 205 322 290l1 15H55v88h415v163H262q-39-81-87-154l-87 43q50 69 87 147.5T241 766l93-21q-16-52-35-101h171v152h93V644h331v-88H563V393h378v-88H662V74z"/><glyph glyph-name="uni5149" unicode="光" d="M647 80q0-34 13.5-46T713 22h57q31 0 46 4.5T837.5 43q6.5 12 7.5 37 1 17 1 84v32l93-15q-1-16-2-52.5T934 49q-3-50-17.5-76.5T871-65q-31-11-87-11H678q-50 0-77.5 11.5T561-25q-12 28-12 78v283H401q0-8-1-14-7-114-33-186.5T281.5 7Q222-49 112-106L36-25q105 48 159.5 91.5t78.5 102Q298 227 301 324v12H61v93h389v362h97V429h388v-93H647V80zm153 657 78-56q-38-52-89-116.5T699 456l-76 59q43 46 92.5 108.5T800 737zM372 516l-78-58q-38 50-91 117t-85 103l74 56q34-39 91-107.5T372 516z"/><glyph glyph-name="uni514B" unicode="克" d="M841 522V214H645V60q0-34 13.5-44.5T711 5h62q31 0 45.5 4T839 24q6 11 7 34l4 116 87-21-8-130q-4-43-17-64.5t-41.5-30Q842-80 787-80H676q-67 0-93.5 25T556 35v179H421q-4-26-7-46-10-69-43.5-118.5T272-39q-65-39-174-80L54-31Q155 1 208.5 30.5t79 67Q313 135 323 196q1 8 2 18H159v308h296v91H67v85h388v96h89v-96h387v-85H544v-91h297zM246 299h507v138H246V299z"/><glyph glyph-name="uni514D" unicode="免" d="m347 803 87-31q-20-31-40-59h363v-78L647 531h218V219H590V66q0-33 12-43.5T650 12h119q30 0 44 4t20 15q6 11 7 34 4 50 4 107l87-17q0-77-6-136-2-37-14.5-57T871-66.5Q844-75 795-75H621q-46 0-71.5 10T513-31.5Q502-8 502 37v165q-39-98-128-169-92-73-269-140L54-20Q221 37 305 98q70 51 104 121H147v236q-29-22-60-43l-40 81q92 65 169.5 145T347 803zm183-502h246v148H548q-5-83-18-148zm-295 0h201q15 63 20 148H235V301zm44 272q-20-21-42-42h292l107 101H332q-26-31-53-59z"/><glyph glyph-name="uni5151" unicode="兑" d="M314 252v1H143v378h175q-10 15-23 34-38 56-65 93l77 49q81-111 124-176h122q26 35 59 84 42 60 61 92l82-45q-25-39-69-100-11-17-22-31h175V253H641V65q0-35 13-46t52-11h64q31 0 46 4.5T836.5 28q5.5 11 6.5 34 2 22 6 103l86-17q0-23-2-64t-4-60q-4-41-18.5-64T866-72.5Q836-82 784-82H672q-68 0-95.5 25.5T549 32v221H407v-5q-8-99-36-159.5t-89-106Q221-63 105-115L51-33Q157 8 210.5 44.5t76 83.5Q309 175 314 252zm-79 87h513v205H235V339z"/><glyph glyph-name="uni5154" unicode="兔" d="M867 547V237H686q88-75 130-114l-61-67q-31 31-67.5 64.5T622 180l51 57h-91V67q0-33 12.5-44T645 12h130q30 0 45 4.5T841 33q6 12 8 36l4 109 87-21q-5-103-7-133-2-54-31-75.5T801-73H614q-68 0-95 24t-27 89v171q-45-98-134-173-98-81-270-149L43-20q166 63 252 129 72 55 108 128H139v228q-28-21-56-40l-43 88q88 58 165 137t131 165l89-31q-16-28-35-55h369v-81L652 547h215zm-92-224v139H548q-6-76-20-139h247zm-543 0h201q14 60 19 139H232V323zm397 323H328q-25-29-52-58-20-21-41-41h284l110 99z"/><glyph glyph-name="uni515A" unicode="党" d="M799 456V170H641V52q0-30 12.5-40.5T705 1h61q43 0 57 9.5T839 49l3 103 87-17q0-26-2-60t-4-58q-3-41-16-63t-41-30.5Q838-85 787-85H668q-63 0-90 24t-27 82v149H411q-5-67-32-114-34-60-99.5-98.5T108-114L69-24q90 21 142 44.5T291 88q21 33 27 82H204v286h595zm-44 326 70-51q-48-54-99-105h185V409h-90v131H182V409H91v217h187q-51 57-99 103l67 53q51-49 120-123l-39-33h128v172h90V626h126l-35 31q28 25 62 61t57 64zM295 251h414v124H295V251z"/><glyph glyph-name="uni515C" unicode="兜" d="M677 710V259H325v451h111q18 62 25 92l93-7q-4-23-15-59-4-14-7-26h145zM644 65q0-35 12-46.5T707 7h82q38 0 52.5 11.5T857 63l5 110 89-23-7-122q-2-44-15.5-67t-42-32.5Q858-81 808-81H668q-62 0-88 23.5T554 28v200h90V65zM114 332v353q39 10 90 27t82 30l30-83q-82-32-113-40V352l93 44 12-95-43-19q-36-16-72.5-33T133 218l-44 76q14 10 19.5 18.5T114 332zm778 377V254H702v89h100v276H702v90h190zM313 186q0 15 2 41h94q-1-7-1-17.5t-2-27.5q-6-74-34.5-123T277-29.5Q211-69 88-107L42-23Q153 8 210 38t78.5 64q21.5 34 24.5 84zm100 157h176v102H413V343zm176 283H413V525h176v101z"/><glyph glyph-name="uni5162" unicode="兢" d="M896 531V249h-88V48q0-21 6.5-28.5T838 12l17 1q17 1 23.5 8t7.5 28q2 40 2 121l79-17q0-26-1.5-66.5T962 17q-1-36-10-55t-28.5-26.5Q904-72 867-73h-58q-46-2-66 19.5T723 19v230h-58l-2-38q-5-72-22.5-124.5T584-13.5Q545-61 477-112l-55 68q65 42 98 80t46 79.5Q579 157 583 222q1 13 2 27h-67v282h145v90H506v82h157v93h85v-93h180v-82H748v-90h148zm-440 0V249h-68V93l102 78 29-80Q438 32 395.5-.5T325-59L272 7q20 15 27 28t7 32v182h-61l-2-36q-3-73-18-125T180.5-7.5Q151-51 100-102L33-39q49 44 73.5 76.5t36 72Q154 149 158 215q1 18 2 34H91v282h139v90H68v82h162v93h87v-93h148v-82H317v-90h139zm145-205h211v126H601V326zm-427 0h199v126H174V326z"/><glyph glyph-name="uni5165" unicode="入" d="M546 660q23-212 121.5-375.5T960-7l-68-84Q762 2 675.5 101.5T536 325q-20 48-36 103Q400 148 103-91L30-11q213 157 311 328 90 156 113 320-5 10-15 16-19 12-64 12H237v97h174q65 0 97.5-24t37.5-78z"/><glyph glyph-name="uni5168" unicode="全" d="M459 796h82q130-195 423-332l-48-84q-56 27-107 57v-52H549V257h286v-89H549V24h374v-87H77v87h373v144H166v89h284v128H192v54q-52-30-111-60l-46 86q154 73 256 153t168 178zm215-269q-105 81-173 169-67-86-170-164-38-29-83-58h501q-40 26-75 53z"/><glyph glyph-name="uni516B" unicode="八" d="m963-20-83-70Q761 40 698.5 153.5t-90.5 257Q580 554 572 782h99q6-210 32.5-343.5T790 200Q850 95 963-20zM315 762h98q-11-228-37-362.5T292.5 157Q235 49 119-89L34-23Q144 99 199.5 199.5t81 227.5Q306 554 315 762z"/><glyph glyph-name="uni516C" unicode="公" d="M833 17q11-16 22.5-33.5T878-52l-82-50q-21 34-50 78-236-9-382-18-154-10-211-22l-29 94q27 5 42 13t29 24q56 63 124.5 175.5T440 468l93-36q-49-104-116-214.5T293 34l398 26-2 4q-68 103-121 181l77 49q36-51 97-142t91-135zm133 353-62-78q-127 92-208 198.5T557 760l87 30q56-150 128.5-244.5T966 370zM353 777l89-30Q328 478 95 289l-60 76q221 174 318 412z"/><glyph glyph-name="uni516D" unicode="六" d="m589 602-53-18h408v-94H56v94h427q-12 32-33 80-27 60-49 106l94 34q25-50 53-110t41-92zM941-37l-93-53Q805-9 726 122.5T582 354l86 51q97-145 273-442zM322 398l97-36q-54-126-126-246.5T148-96L63-36q75 86 143.5 202T322 398z"/><glyph glyph-name="uni5170" unicode="兰" d="m426 632-49-35h168q37 49 80 106 56 75 80 113l87-56q-36-51-88-121-17-23-31-42h226v-95H99v95h231q-20 27-49 64-41 53-74 91l74 61q106-127 145-181zM943 47v-94H55v94h888zM837 332v-91H161v91h676z"/><glyph glyph-name="uni5171" unicode="共" d="M722 798V624h190v-91H722V308h221v-93H46v93h220v225H76v91h190v174h98V624h260v174h98zM364 308h260v225H364V308zM933-17l-63-80Q809-50 720 14.5T572 119l59 75Q827 59 933-17zM358 194l63-73Q359 70 270.5 6T113-101L58-18q65 35 148 94t152 118z"/><glyph glyph-name="uni5173" unicode="关" d="m699 817 88-51q-31-43-84-108-21-26-40-48h212v-90H543V362h380v-92H552q35-83 108-147Q763 34 944-12l-47-94Q720-54 607 43q-71 60-112 137-25-45-64-85Q321-22 98-109L47-18q157 57 244 118.5T410 223q12 23 20 47H65v92h378v158H111v90h214q-22 29-52 67-38 49-64 80l80 51q27-32 65.5-79.5T418 648l-58-38h181q31 36 70 87 57 74 88 120z"/><glyph glyph-name="uni5174" unicode="兴" d="M945 358v-92H53v92h892zM929-21l-74-75Q794-37 711 37T570 158l71 72q57-47 145.5-123.5T929-21zM347 230l72-69Q363 99 281 25T130-101L64-21q66 46 144.5 116T347 230zm10 203-89-45Q153 622 108 698l86 42q64-117 163-307zm447 310 87-41q-30-64-78-156.5T725 381l-80 49q37 61 82.5 151T804 743zM583 445l-96-22q-14 62-42 161.5T395 752l93 23q29-89 95-330z"/><glyph glyph-name="uni5175" unicode="兵" d="M949 252v-89H52v89h160v463q176 9 339 25.5T838 779l17-86q-100-22-248-38.5T309 630V514h611v-88H733V252h216zm-640 0h328v174H309V252zm59-100 55-74q-61-44-150.5-97T110-107L64-23q62 28 156.5 82T368 152zM936-22l-53-84q-65 42-154 95.5T579 77l52 76L936-22z"/><glyph glyph-name="uni5176" unicode="其" d="M954 209v-83H45v83h171v403H76v83h140v96h92v-96h383v96h93v-96h139v-83H784V209h170zm-646 0h383v81H308v-81zm0 162h383v80H308v-80zm0 161h383v80H308v-80zm69-415 42-78Q248-52 104-112L68-29q152 55 309 146zM927-28l-42-79q-64 34-153.5 75T574 36l38 78q64-27 161.5-71T927-28z"/><glyph glyph-name="uni5177" unicode="具" d="M806 35Q910-8 932-17l-40-83q-67 32-163 73.5T569 40l37 74H383l42-63q-64-40-153.5-82.5T93-108L58-27q83 28 167 68 75 36 137 73H47v81h139v559h627V195h138v-81H612q46-18 95-39 52-21 99-40zM279 195h441v65H279v-65zm0 278h441v64H279v-64zm441 202H279v-63h441v63zM279 335h441v63H279v-63z"/><glyph glyph-name="uni5178" unicode="典" d="M440 785V679h124v106h87V679h213V222h88v-88H49v88h91v457h211v106h89zm-57-662 45-78Q266-46 96-117L60-33q196 78 323 156zM934-29l-42-81q-68 35-158 77T570 40l38 79q61-25 162.5-71.5T934-29zM440 222h124v143H440V222zm211 0h123v143H651V222zM440 451h124v140H440V451zM230 222h121v143H230V222zm544 369H651V451h123v140zM230 451h121v140H230V451z"/><glyph glyph-name="uni517B" unicode="养" d="m684 815 80-41q-27-31-75-83h215v-79H544q-5-41-11-75h339v-75H514q-13-40-30-76h455v-79H660q41-42 89-69 77-44 208-77l-37-89q-127 38-217 96V-94h-94v300h40q-57 45-101 101H437q-42-56-106-104h74q0-86-19-143T318.5-40.5Q270-84 180-125l-59 74q83 32 123.5 66T298 91q11 37 13 97-2 0-3-1-90-62-233-116l-38 88q125 41 204 88 46 28 81 60H58v79h326q21 35 35 76H125v75h313q7 33 11 75H93v79h213l-2 3-68 83 71 42q11-10 44-47t52-60l-38-21h214q80 89 105 124z"/><glyph glyph-name="uni517C" unicode="兼" d="M840 551V410h104v-76H840V193H665Q780 69 953 5l-44-85Q796-29 707 41q-43 34-78 70v-213h-86v295H414v-295h-86v208Q230-2 78-87L27-4q112 53 194 122 44 36 77 75H107v76h221v65H42v76h286v65H116v76h212v73H59v76h233q-22 31-56 77l76 44q55-72 77-106l-28-15h209q17 21 35 47 29 41 48 72l82-42q-17-26-48-69l-6-8h240v-76H629v-73h211zm-426 0h129v73H414v-73zm0-282h129v65H414v-65zm0 141h129v65H414v-65zm339-141v65H629v-65h124zm0 206H629v-65h124v65z"/><glyph glyph-name="uni517D" unicode="兽" d="m420 709-19-12h175q47 55 82 112l85-45-21-27q-16-21-31-40h180V351H127v346h185q-8 11-18 22-28 34-34 41l76 49q44-48 84-100zm415-531V-96h-88v39H253v-39h-90v274h672zm118 123v-71H45v71h908zM747 104H253V17h494v87zM214 419h244v68H214v-68zm571 0v68H543v-68h242zM214 557h244v65H214v-65zm571 65H543v-65h242v65z"/><glyph glyph-name="uni5180" unicode="冀" d="m923-39-25-73Q735-61 576-17l24 67H400l34-67q-66-24-161-52.5T108-115L83-39q85 19 170 43t147 46H53v63h236v52H100v62h189v45H141v244h717V272H711v-45h188v-62H711v-52h234V50H600q64-14 154.5-40T923-39zM630 648q0-23 11.5-32t39.5-9h113q34 0 45.5 8t14.5 34q3 23 3 40l80-15q0-19-5-54-4-29-15-44t-33-21q-22-6-63-6H637q-51 0-70.5 17.5T547 631v163h83v-76q54 11 118 24 92 20 141 34l18-65q-51-13-146-33-75-15-131-26v-4zM444 794V543h-88v34L68 550l-9 62 297 26v38H85v58h271v60h88zm-62-681h234v52H382v-52zm0 114h234v45H382v-45zM237 422h216v42H237v-42zm523 42H546v-42h214v42zM237 326h216v41H237v-41zm523 0v41H546v-41h214z"/><glyph glyph-name="uni5185" unicode="内" d="m757 228 30-30-67-73q-93 99-220 225-25-49-64-95-60-71-164-147l-63 79V-93h-94v744h338v140h95V651h337V37q0-52-12-77.5T832-76q-29-10-86-10H616L599 6h117q33 0 48.5 5t21 18q5.5 13 5.5 40v492H548q-2-63-15-116 67-63 224-217zm-548-41q98 70 150.5 129T432 437q18 53 20 124H209V187z"/><glyph glyph-name="uni5188" unicode="冈" d="M892 55q0-59-13.5-89T834-75q-31-11-91-11H616L599 4h115q37 0 54.5 6t24 21.5Q799 47 799 81v576H203V-96h-92v843h781V55zM660 608l80-50q-76-113-175-228 112-120 190-207l-73-67q-74 87-180 204Q390 138 278 45l-61 74q117 94 224 209-122 134-198 212l67 58q71-71 192-201 88 104 158 211z"/><glyph glyph-name="uni518C" unicode="册" d="M955 420v-89H851V24q0-45-11-68.5t-37-33Q777-87 728-87h-91L620 4h81q38 0 50 11t12 44v272H631q-2-103-9-168-8-78-30.5-138T523-108l-87 46q47 69 69 124.5T534 195q5 52 7 136h-82V42q0-65-28-91t-99-26h-86l-17 86h81q36 0 48.5 10.5T371 63v268H248q-2-104-9-169-9-78-32.5-137.5T135-108L49-60Q98 8 120.5 62.5T151 195q6 52 8 136H45v89h115v329h299V420h83v329h309V420h104zM763 661H631V420h132v241zm-392 0H248V420h123v241z"/><glyph glyph-name="uni518D" unicode="再" d="M924 740v-82H547v-85h293V213h114v-85H840V32q0-49-13-75t-43-36.5Q754-90 698-90H583L566 1h104q34 0 50 5t22 17.5q6 12.5 6 39.5v65H254V-96h-93v224H46v85h115v360h293v85H78v82h846zM547 213h201v100H547V213zm-293 0h200v100H254V213zm494 277H547v-96h201v96zm-494-96h200v96H254v-96z"/><glyph glyph-name="uni5192" unicode="冒" d="M821 396V-97h-93v45H258v-47h-93v495h656zm65 361V438h-98v245H200V438h-97v319h783zM735 512v-67H254v67h481zm0 119v-66H254v66h481zm-7-303H258v-59h470v59zM258 16h470v59H258V16zm0 127h470v58H258v-58z"/><glyph glyph-name="uni5195" unicode="冕" d="M760 452v-56l-81-64h185V126h-7l85-21q-1-14-2.5-38.5T935 10q-3-36-14-54.5T885.5-70Q861-77 814-77H629q-63 0-89 21t-26 78v89l-4-6Q471 35 375-14.5T95-106L62-26Q233 8 315 46q71 34 103 80H161v144q-26-14-53-28l-41 72q81 42 151 93 66 48 112 97h-57v58h452v-58H355l63-23q-13-15-27-29h369zm120 314V486h-88v211H206V486h-89v280h763zM598 51q0-31 12-42t44-11h132q40 0 53 10.5T854 50l3 76H598V51zm127 607v-57H273v57h452zM277 348l-21-16h302l78 59H329q-26-23-52-43zm267-154h236v71H557q-4-38-13-71zm-299 0h203q10 31 15 71H245v-71z"/><glyph glyph-name="uni5197" unicode="冗" d="M259 294v191h436V66q0-31 9.5-41T742 15h44q31 0 42 9.5T841 64q2 25 4 75.5t2 84.5l95-22q-1-34-4-81.5T931 35q-5-64-33.5-87.5T800-76h-91q-59 0-84.5 26T599 40v353H356V287q0-103-18-166T267.5 4Q215-50 107-109L46-30q91 48 136 89.5t61 94.5q16 53 16 140zm643 441V481H801v164H189V481H88v254h814z"/><glyph glyph-name="uni5199" unicode="写" d="M313 348h551q-2-49-6.5-132T848 68q-4-57-22.5-90t-57-47.5Q730-84 665-84H514L495 2h142q59 0 83.5 19.5T749 90q3 26 7.5 83.5T763 261H207l38 359h96l-9-85h462v-84H323l-10-103zm593 397V530h-97v127H197V526h-92v219h801zM692 164V78H71v86h621z"/><glyph glyph-name="uni519B" unicode="军" d="M575 421V316h291v-84H575V125h373V39H575v-139h-93V39H55v86h427v107H167v84q45 50 105 143H100v84h225q35 59 61 111l89-30q-21-42-43-81h470v-84H384q-50-81-99-143h197v105h93zm337 325V569h-93v95H189v-95H97v177h815z"/><glyph glyph-name="uni519C" unicode="农" d="M263 42v176Q179 145 66 74l-52 89q151 91 243 184t138 203q11 25 20 52H195V464h-91v224h333q12 55 17 116l106-9q-7-56-18-107h350V484h-90v118H520l-10-30q33-126 83-217 7-13 14-25 106 77 183 148l63-80q-106-82-193-144 35-42 78-79 88-75 220-135l-60-88Q761 25 673.5 103.5T528 286q-40 71-72 165-41-73-99-140V29l214 86 19-95Q475-20 395-51t-128-57l-44 86q25 14 32.5 29t7.5 35z"/><glyph glyph-name="uni51A0" unicode="冠" d="M423 79q0-43 13-57t53-14h278q48 0 66.5 14T856 76q2 22 3.5 53.5T861 184l89-22q-1-24-9-127-3-42-18.5-65.5t-49-34.5Q840-76 781-76H463q-51 0-79 10.5t-40 38Q332 0 332 52v234h-74l-1-32q-2-87-16-147.5t-45-109Q165-51 111-103L36-47q57 54 84.5 96.5t36.5 87q9 44.5 12 119.5v30H50v88h448v-88h-75V79zm487 670V571h-92v90H173v-88H80v176h830zM718 187v217H499v87h219v95h90v-95h122v-87H808V167q0-42-11.5-65t-38-33Q732 59 683 59h-93l-16 77h87q36 0 46.5 10t10.5 41zM469 549v-84H120v84h349zm211-320-71-39q-20 35-47 79t-50 78l67 37q15-23 43-65t58-90z"/><glyph glyph-name="uni51A4" unicode="冤" d="M864 431V181H705q40-29 110-85l-53-61q-30 25-65.5 53T632 137l39 44h-83V58q0-36 12.5-47T651 0h130q30 0 45 4.5t21.5 17Q854 34 855 59q1 18 2 46t1 47l88-18q-5-94-7-111-3-56-33-79T804-79H620q-68 0-94.5 23.5T499 32v102Q457 61 373 8 277-52 92-109L56-19q171 47 254 94 76 43 110 106H158v167q-23-16-46-31l-45 77q78 49 159.5 125T356 660l84-39q-15-22-32-43h362v-69l-96-78h190zm36 322V539h-93v132H182V540H88v213h812zM774 257v98H554q-4-54-13-98h233zM634 504H342q-21-22-45-44-16-15-33-29h276l94 73zM248 257h199q10 43 14 98H248v-98z"/><glyph glyph-name="uni51AC" unicode="冬" d="m75 203-36 88q221 61 376 135l-16 11q-74 53-141 122-69-71-147-131l-54 70q79 61 156 147.5T334 806l97-26q-21-34-45-67h454v-85Q732 510 592 422q35-16 73-31 121-46 300-86l-32-94q-179 48-307 101-65 27-122 59-82-43-185-84 153-33 392-89l-18-89q-217 53-404 94l16 79q-104-41-230-79zM468 59q73-15 154.5-31.5T782-5l-24-91Q555-50 177 28l19 86q73-14 144-29t128-26zM319 626q64-74 140-128 20-15 42-28 132 74 210 160H322q-1-2-3-4z"/><glyph glyph-name="uni51AF" unicode="冯" d="m501 615-29-228h231l32 272H342v89h500l-44-361h116q-3-57-9-162T895 63q-5-62-22-94t-53.5-44.5Q783-88 713-88H553L534 1h150q47 0 70.5 6.5t34 24Q799 49 802 84q3 40 7 107.5t6 106.5H368l38 325 95-8zm259-422v-87H285v87h475zM207 364l47-17 45-15q-33-81-88.5-223T142-70L46-34q22 46 84.5 199T207 364zm95 122-89-42q-33 63-78 148T66 719l80 38q19-33 72.5-125.5T302 486z"/><glyph glyph-name="uni51B0" unicode="冰" d="m856 636 71-76q-45-45-110-103-49-45-89-78 9-18 19-35 84-151 231-273L899-5q-98 97-164 197-58 89-98 194V30q0-46-12.5-71T583-77q-29-11-82-11H390L370 1h100q44 0 59 12.5T544 65v728h93V636q22-90 52-168 32 29 66 63 55 54 101 105zM267-12l-82 59q96 103 151.5 207.5T416 477H277v91h229v-92q-25-146-80-259.5T267-12zM160 367l41-10 47-12q-25-73-67.5-204.5T120-52L33-20q28 72 71.5 203.5T160 367zm97 111-85-35q-18 50-52.5 135.5T65 707l85 30q68-158 107-259z"/><glyph glyph-name="uni51B2" unicode="冲" d="M656 796V625h243V146h-95v48H656V-97h-92v291H414v-50h-94v481h244v171h92zM191 371l41-14 49-15q-19-60-67-189T139-41L51-6q35 84 80 202.5T191 371zm223-84h150v246H414V287zm390 246H656V287h148v246zm-520-27-83-48q-31 60-75 141T59 718l80 43q73-125 145-255z"/><glyph glyph-name="uni51B3" unicode="决" d="M945 355v-89H611q36-82 101-143 87-80 245-139l-56-90Q743-42 646 53q-54 54-91 121-36-79-113-147-79-70-211-138l-58 86Q296 33 365.5 89T465 210q12 26 19 56H277v89h220v11q1 52 1 164v28H313v89h186v149h98q-1-9-1-98v-51h253V355h96zm-776 21 53-13 44-10q-10-31-63.5-193T134-50L39-20q22 50 71.5 200.5T169 376zm590 182H595V372q0-9-1-17h165v203zm-486-61-92-39q-26 59-59.5 131T61 716l85 38q85-165 127-257z"/><glyph glyph-name="uni51B5" unicode="况" d="m447 291 1 36H334v412h550V327H745V50q0-22 10-30.5t35-8.5h32q32 0 41 7t9 31q1 23 1 53.5t1 57.5v23l89-15q0-29-2-79.5T957 15q-2-37-13-56.5T909.5-69Q886-77 841-77h-81q-59 0-83 21.5T653 21v306H537q-1-24-2-40-5-105-29.5-172.5T430-3.5Q379-54 285-109l-62 72q88 47 134 89t66 97q20 55 24 142zm-20 122h364v239H427V413zm-230-45 45-19 42-17q-34-112-69.5-207T134-61L47-14q46 84 84.5 183T197 368zm-44 374q86-153 129-240l-87-44q-29 62-70 143.5T62 723l80 40 11-21z"/><glyph glyph-name="uni51B6" unicode="冶" d="M870 311V-96h-92v47H433v-47h-93v407h530zm64 110-80-49q-15 23-32 50-245-8-360-13-119-5-157-14l-27 88q22 8 33 15.5t23 19.5q43 43 106 130t97 155l93-32q-38-67-97.5-150.5T431 491l334 19q-1 1-2 3-55 83-95 142l73 47q109-155 193-281zM778 224H433V38h345v186zM187 356l47-14 46-13Q155-25 142-66L49-33q18 41 72 193.5T187 356zm102 143-92-44q-23 51-65.5 136T63 722l82 44q100-178 144-267z"/><glyph glyph-name="uni51B7" unicode="冷" d="m672 39 106-64-51-82Q514 29 351 126l50 76q56-33 178-107 31 30 71 69 69 68 94 96H317v85h551v-88q-53-57-123-128-45-46-84-83l11-7zM555 802h87q102-198 325-329l-53-84q-101 61-183 141.5T600 698q-43-74-119-151.5T304 396l-60 78q110 73 185.5 153T555 802zM188 357l50-14 41-12q-27-94-128-367L57-7q23 58 64.5 174T188 357zm89 164-84-46q-48 98-135 257l80 41q12-21 61-107.5T277 521zm411-109-71-58q-22 28-58.5 71T494 499l69 55 125-142z"/><glyph glyph-name="uni51BB" unicode="冻" d="M579 56v230H321v89q30 42 102 200 2 6 5 11H299v88h168q35 83 48 127l91-17q-12-40-42-110h362v-88H527q-4-8-8-17-66-148-96-194h156v162h93V375h231v-89H672V23q0-45-12.5-68.5t-41-33.5Q590-89 538-89H430L412 1h99q41 0 54.5 11T579 56zM181 363l45-14 42-12q-10-36-65.5-190.5T128-53L41-24q16 34 73 191t67 196zm219-115 82-44q-34-66-82-137T302-67l-77 56q48 55 95.5 124.5T400 248zM974-1l-76-56Q829 37 787 97q-62 84-71 98l73 54q40-53 185-250zM268 498l-87-40q-26 61-60 135T61 723l80 38q76-152 127-263z"/><glyph glyph-name="uni51C0" unicode="净" d="m455 811 94-18q-17-34-35-65h277v-70l-92-103h162V383h84v-79h-84V84h-85v47H617V31q0-42-12.5-65.5t-42-33.5Q533-78 481-78H370L353 6h102q32 0 47 4t20.5 14q5.5 10 5.5 32v75H296v80h232v93H266v79h262v95H332v29l-65 58q128 122 188 246zM171 376l45-13 43-13q-25-74-62.5-192T136-34L46-5q26 75 70 209t55 172zm83 140-91-37q-26 60-62 140T45 739l81 35q25-45 64-124t64-134zm129 39h204l88 95H462l-5-7q-33-44-74-88zm393-77H617v-95h159v95zM617 211h159v93H617v-93z"/><glyph glyph-name="uni51C4" unicode="凄" d="M945 234v-66H796q-40-71-87-114-5-5-11-10 97-30 224-70l-32-74Q789-61 618-5q-32-15-71-28-104-36-300-70l-30 81Q397 1 494 29l10 3q-86 27-185 58 30 38 57 78H225v66h194q18 32 32 61H293v65h237v53H232v63h298v54H297v64h233v55H271v69h259v79h87v-79h301v-69H617v-55h245V476h88v-63h-88V295H496l45-11q-11-24-26-50h430zM152 386l45-11 41-8q-11-34-59.5-207.5T123-47L39-23q22 77 64 227t49 182zm92 117-83-28q-60 165-99 264l78 26q19-45 50-123.5T244 503zM639 97q34 28 60 71H475q-17-27-31-47 55-15 161-48 19 12 34 24zm141 433H617v-54h163v54zm0-170v53H617v-53h163z"/><glyph glyph-name="uni51C6" unicode="准" d="m418 804 98-15q-16-68-46-141h198q-56 93-76 126l77 34q59-89 91-145l-30-15h203v-83H717V451h195v-80H717V258h195v-81H717V52h231v-83H445v-64h-93v520q-34-52-72-99l-63 78q140 163 201 400zM181 336l50-16 44-15q-24-71-60.5-184.5T156-62L59-32q12 32 61.5 181T181 336zm104 180-89-45q-22 46-65 130T67 722l82 42q26-45 68.5-121.5T285 516zM445 52h181v125H445V52zm0 399h181v114H445V451zm0-193h181v113H445V258z"/><glyph glyph-name="uni51C9" unicode="凉" d="M573 46v192H345v292h528V238H668V13q0-40-12-61.5T616-79q-28-9-79-9h-89L430-2h82q38 0 49.5 9.5T573 46zm104 659-23-7h283v-85H299v85h273q-17 44-41 86l94 32q10-18 26-52t26-59zM438 324h343v120H438V324zm-245 49 49-19 38-15q-23-58-148-387L42-13q26 59 80.5 197T193 373zm209-165 78-49q-36-62-85-127T299-83l-75 58q48 51 96.5 113.5T402 208zM274 507l-87-44q-29 67-120 253l82 41q63-119 125-250zm545-319Q932 46 977-16l-74-57q-37 51-88 116t-85 106l76 56 13-17z"/><glyph glyph-name="uni51CC" unicode="凌" d="m946 332-40-68q-31 17-59 34v-68q-57-84-131-144-16-13-33-25 107-49 273-82l-32-83Q726-52 605 13q-33-17-72-34-108-48-270-90l-32 81Q372 2 464 37q33 12 62 26-56 42-101 95-55-53-124-99l-52 69q72 47 139 115.5T491 371l74-36q-11-19-23-37h305q-109 61-196 104l37 56H502l35-46q-49-39-116.5-82T294 256l-39 70q57 29 120 69 49 32 91 63H278v79h279v85H322v79h235v94h93v-94h244v-79H650v-85h292v-79H718q47-26 102-56 69-37 126-70zm-785 43 49-13 41-10q-25-85-62-220T140-52L48-27q18 54 59 200.5T161 375zm105 128-86-39q-24 59-57.5 135.5T68 719l82 35q23-47 116-251zm337-398 16 11q63 44 113 107H486q-2-2-4-5 49-65 121-113z"/><glyph glyph-name="uni51CF" unicode="减" d="M286 250v412h352q-1 21-2 41-2 49-4 93h82l7-134h103q-13 16-30 35-27 31-50 55l53 44q22-21 51-51.5t49-54.5l-35-28h70v-84H726q13-186 31-305 46 102 71 235l78-14q-36-192-115-329l-9-15q14-53 33-94 23-49 42-47 9 1 15.5 19T883 85q6 54 9 102l72-15q-3-50-16-130-10-72-33-99t-57-27q-35 0-62.5 22.5T741 23q-9 20-18 44-65-81-158-155l-59 64q42 31 79 64H409v299h206V68q46 46 81 96-37 159-53 414H366V250q0-93-24-190.5T276-107l-79 44q44 67 66.5 147T286 250zM140 381l45-8 42-8q-29-109-59.5-221.5T120-33L28-11q20 58 58.5 193T140 381zm73 195 31-76-87-31q-18 54-49.5 134.5T53 735l83 28q25-57 77-187zm411-85v-80H404v80h220zM474 119h76v139h-76V119z"/><glyph glyph-name="uni51D1" unicode="凑" d="M866 577v-70H571q-8-21-16-41-4-11-9-21h376v-70H744q30-39 66-68 57-46 143-81l-36-78q-105 51-179 119v-29H619q-1-20-2-51-1-6-1-11h224v-69H604q-1-6-3-12Q709 53 898-28l-37-80q-67 33-168 79-78 34-131 56-32-34-87-61-74-36-216-71l-27 81Q363 4 426 32.5T509 95l6 12H318v69h215l1 13q1 14 2 49H420v33q-69-68-173-132l-45 71q109 68 172 133 15 16 28 32H246v70h203q12 20 21 42 4 9 8 20H302v70h198q7 28 13 59H274v72h252q2 11 4 24 5 39 6 63l92-1q-4-41-11-86h278v-72H604q-6-31-13-59h275zM143 368l44-8 44-10q-14-61-49-193.5T126-49L36-27q19 58 54 189t53 206zm105 129-87-32q-17 47-51 133.5T55 732l81 30q25-52 59-132.5T248 497zm398-122H506q-24-37-54-71h249q-30 33-55 71z"/><glyph glyph-name="uni51DB" unicode="凛" d="M888 616V319H303v297h585zM559 32v70H428l44-61q-44-31-109-69T235-96l-38 67q62 30 124 65t105 66H241v67h707v-67H651V8q0-39-10.5-59.5t-35-29Q581-89 535-89h-91l-15 74h72q36 0 47 9t11 38zM387 369h416v195H387V369zm545 358v-68H260v68h293l-21 35q-3 5-8 13.5t-6 12.5l88 29 21-34q22-38 32-56h273zM739 533V402H453v131h286zm142-258v-61H313v61h568zM167 375l51-14 33-8q-9-26-50.5-161.5T140-5l-7-24L46-3q16 36 65.5 188.5T167 375zm86 131-82-28q-18 45-51 122.5T63 732l78 28q85-189 112-254zM958-27l-42-66q-42 26-107.5 63T693 34l35 63q45-22 115.5-60T958-27zM518 445h155v46H518v-46z"/><glyph glyph-name="uni51DD" unicode="凝" d="M826 12h138l-18-83H818q-106 0-165 51-22 19-39 49l-5-12q-23-56-68-119l-72 39q49 62 72 110t31.5 110q8.5 62 9.5 173l71-1q-1-98-8-165 14-70 46-105 9-11 21-19v352H554v81h164q-67 75-118 124l52 50q40-41 82-84 22 24 65 71 9 10 18 19.5t16 18.5H572v82h355v-88L786 509q10-9 20-19l-22-17h155v-82l-39-94-67 19 31 76h-76V251h141v-81H788V14q18-2 38-2zM450 130q42-39 86-83l-53-59-82 81q-18-36-47-70-42-49-116-103l-68 60q73 44 112.5 89.5T336 134q5 13 8 27H221v77h136q2 23 4 65v22h-50q-17-36-36-70l-63 33q24 42 44.5 90.5T288 466l70-19q-8-25-17-49h201v-73H442q0-14-1-32-1-29-2-55h116v-77H430q-2-13-5-25l9 10 16-16zm64 628 29-63q-36-18-105-45l-88-33v-35q0-21 7.5-28.5T384 546h61q26 0 33.5 7t9.5 33q3 27 3 54l70-16q-3-49-5-66-4-49-24-65.5T459 476H351q-45 0-64.5 21.5T267 573v221h83V687q30 12 64 26 64 26 100 45zM143 374l43-9 37-8q-21-81-51.5-200T122-40L38-17q12 38 52.5 189T143 374zm84 122-79-25Q91 647 59 737l75 25q56-151 93-266z"/><glyph glyph-name="uni51E0" unicode="几" d="M233 421v319h491V71q0-32 9.5-42T773 19h38q26 0 33.5 10t9.5 41q1 32 2.5 81t1.5 85l94-22q0-35-2-89t-4-92q-2-44-12-67t-32.5-32.5Q879-76 837-76h-99q-62 0-87.5 24.5T625 38v604H332V421q0-147-17-230.5T254.5 44Q211-19 117-103L37-35q87 72 126.5 124.5t54.5 125Q233 287 233 421z"/><glyph glyph-name="uni51E1" unicode="凡" d="M205 402v340h528V76q0-36 9-47t39-11h25q29 0 38 10t11 40l5 166 89-18-4-88-3-99q-3-60-30-83t-89-23h-75q-60 0-87.5 26.5T633 44v600H304V402q0-135-15-217.5T234 37q-40-65-121-141L33-43q76 70 111.5 124.5t48 125Q205 277 205 402zm196 95q32-33 107-111.5T619 268l-73-68q-42 48-116 128.5T315 451l68 64 18-18z"/><glyph glyph-name="uni51E4" unicode="凤" d="M137 346v406h692V338q0-176 9-254 8-63 20-63 14 0 24 58 4 16 9.5 49.5T899 181l72-35Q952 23 935-22q-13-36-34-56t-47-20q-29 0-54 24.5T764-7q-25 108-25 339v328H227V346q0-124-23.5-232.5T119-102L35-53Q75 14 96 69t31 119.5Q137 253 137 346zM726 40l-67-68q-67 77-158 178-18-21-39-41-76-77-194-157l-58 74q113 74 184 144 24 24 45 48-91 98-160 167l58 60q66-63 157-156 8 12 15 24 43 72 79 168H269v87h410v-87q-39-119-90-207-15-26-32-51Q662 113 726 40z"/><glyph glyph-name="uni51EB" unicode="凫" d="M806 552q-4-39-17-60t-40.5-29.5Q721 454 672 454H560l-14 73h99q35 0 50.5 11.5T713 576q3 42 3 54H232V403h676q-1-11-1-23t-1-25l-6-127q-2-50-12.5-75.5t-34-35.5Q830 107 786 107H674l-16 83h77q40 0 55.5 12.5T808 249l2 26 3 50H138v386h209q24 46 43 93l95-11q-19-48-34-82h363q0-10-3-72t-5-87zM211 181v70h397V48q0-31 11-42t42-11h125q39 0 52 9.5T853 43l4 72 89-20-2-30q-2-42-4-57-4-50-34.5-73T802-88H625q-43 0-66.5 9.5t-34.5 34Q513-20 513 27v139H303v-21q0-65-20-111t-66.5-82Q170-84 90-117L36-39q75 29 111.5 54.5t50 62.5Q211 115 211 181zm311 319-55-64q-53 51-157 131l52 61q33-24 81-62.5t79-65.5z"/><glyph glyph-name="uni51ED" unicode="凭" d="M904 390v-78H338v78h234v98H304v78h268v94q-110-11-226-17l-7 77q288 17 527 55l9-76q-102-17-210-29V566h275v-78H665v-98h239zM262 182v61h430V55q0-31 9-40t39-9h53q36 0 48 8.5T854 51l5 114 83-19q0-27-2.5-64T935 19q-4-56-31.5-77T806-79h-92q-65 0-90.5 22T598 24v135H358v-16q0-62-19-102.5t-70.5-76Q217-71 115-114L65-30q90 33 130 58t53.5 58q13.5 33 13.5 96zm-7 623 81-29q-32-70-72-132V287h-91v238q-45-50-98-97l-41 85q62 50 121.5 129T255 805z"/><glyph glyph-name="uni51EF" unicode="凯" d="M542 399v342h285V43q0-16 4.5-21.5T847 16h11q13 0 17.5 4.5T881 40q2 33 3.5 86t1.5 85l77-18q0-38-3-101.5T955 7q-3-48-25-66.5T859-78h-31q-83-2-83 94v638H624V399q0-152-10-231.5t-40-139Q544-31 477-108l-80 52q66 73 95 125.5T531.5 193Q542 264 542 399zM99 47v230h267v90H75v83h376V193H183V33l264 78 3-90Q184-45 111-77L73 1q26 19 26 46zm50 685V594h85v202h78V594h84v138h78V511H72v221h77z"/><glyph glyph-name="uni51F0" unicode="凰" d="M124 369v388h713V346q0-195 10-262 8-56 18-56 14 0 22 53 8 45 14 102l70-28Q957 48 945 4q-11-49-33.5-73T864-93q-22 0-46.5 21T782-15q-33 113-33 314v380H213V327q0-239-105-425L24-49q60 102 80 193t20 225zm318 301 82-14q-11-30-19-52h177V317H284v287h134q14 35 24 66zm256-523V79H526V22h228v-69H214v69h227v57H269v68h172v57H254v67h459v-67H526v-57h172zm-97 395H362v-53h239v53zM362 378h239v51H362v-51z"/><glyph glyph-name="uni51F3" unicode="凳" d="m69 399-41 69q114 44 189 87-14 9-30 20-48 33-75 50l34 56H74v71h401v-69q-36-51-86-97h212q-14 14-27 29-59 67-101 163l77 25q26-54 58-98 34 18 76 40 62 33 93 53l37-56q-70-40-164-89 25-26 52-48 123 59 171 89l37-58q-56-31-146-74 81-48 195-82l-35-72q-68 24-124 49V306H684l32-24q-12-14-45-49h241v-67H78v67h241l-42 49 38 24H189v147q-55-28-120-54zM256 86v36h425V25q0-23 9-31t36-8h61q30 0 40 7t12 28q1 18 2.5 47t1.5 49l83-17q-3-24-7-103-3-49-28-67t-90-18H690q-53 0-77 22T589 2v51H335V41q-1-42-22-69.5t-71-46Q192-93 104-108L69-27q84 12 123.5 26T244 32q12 19 12 54zm13 282h451v50H269v-50zm83 155v31q-16-12-33-24-36-26-80-50h513q-18 10-35 19-42 25-78 53v-29H352zm67-282-14-8h160q17 17 38 40 17 18 30 33H359q62-67 60-65zm-45 440H152q19-12 130-84 53 38 92 84z"/><glyph glyph-name="uni51F6" unicode="凶" d="M197 655V49h603v614h94V-90h-94v47H103v698h94zm480 135 84-49q-85-147-198-296 127-157 218-273l-83-62q-80 107-197 256-115-142-234-257l-69 71q126 118 242 264-143 182-232 288l73 54q78-90 220-264 98 132 176 268z"/><glyph glyph-name="uni51F8" unicode="凸" d="M288 465v293h425V465h187V-93h-95v53H196v-53h-96v558h188zm517-93H616v290H384V372H196V53h609v319z"/><glyph glyph-name="uni51F9" unicode="凹" d="M432 742V376h139v367h329V-93h-97v62H197v-62h-96v835h331zm371-94H662V287H342v362H197V60h606v588z"/><glyph glyph-name="uni51FA" unicode="出" d="M890 296V-93h-95v38H112v349h96V35h246v327H141v347h94V454h219v343h93V454h219v255h94V362H547V35h248v261h95z"/><glyph glyph-name="uni51FB" unicode="击" d="M236 261V38h219v293H55v90h400v148H117v90h338v140h91V659h338v-90H546V421h400v-90H546V38h219v224h94V-95h-94v45H142v311h94z"/><glyph glyph-name="uni51FD" unicode="函" d="M847 668 551 505V289l33 43q52-37 114-83 60-44 108-81v294q-79-76-167-146l-58 67q39 29 85 69t80 74l60-62v119h95v-689h-95v35H96v654h96V189q38 25 110 76 81 57 106 79l24-27 27-33v264l205 111H170v87h677v-78zM343 195q-69-50-113-82l-38 57V10h614v147l-47-61q-51 41-117 92-54 41-91 68V150q0-40-9.5-60.5t-34.5-29Q482 52 435 52h-96l-16 81h80q36 0 46 8.5t10 37.5v101q-49-35-116-85zm88 197-64-60Q253 449 213 485l60 57q29-25 79-72.5t79-77.5z"/><glyph glyph-name="uni51FF" unicode="凿" d="M648 790V570h305v-82H635l54-40q-18-24-57-71l-10-12h130v-79H547v-71h190v-79H547V31h-91v105H266v79h190v71H252v79h135q-40 48-72 82l53 41H49v82h306v220h93V570h107v220h93zm234-354V-98h-92v37H121v497h91V22h578v414h92zm-402-71h47q19 23 47 56 37 44 53 67H377q22-26 50-59 30-35 53-64zM316 628l-67-54q-82 102-130 152l62 56q67-70 135-154zm499 152 68-51q-25-32-66-80t-66-75l-65 56q32 34 70 77.5t59 72.5z"/><glyph glyph-name="uni5200" unicode="刀" d="M334 499q2 34 5 96 2 26 2 43H90v98h784q-2-22-5-120-20-492-22-527-3-61-21-94.5t-57-48Q730-68 659-68H482l-21 96h162q51 0 76 7.5T735 64q11 21 14 65 3 39 10.5 230T770 638H437q-6-150-6-155-7-146-38-245.5t-96-179Q232-21 117-108L37-30q115 80 175 150.5t86.5 156Q325 362 334 499z"/><glyph glyph-name="uni5201" unicode="刁" d="M853 100q-3-67-22-103t-60-51q-41-15-116-15H477l-21 94h166q54 0 80.5 8.5t37 30Q750 85 752 131q6 107 12.5 261t9.5 249H106v96h772q-3-111-25-637zM666 523l17-49 18-46L86 119l-41 98q139 61 311 146t310 160z"/><glyph glyph-name="uni5203" unicode="刃" d="m401 488 6 147v5H98v97h783l-9-224q-6-174-10.5-282T856 89q-3-60-22-94t-58.5-48.5Q736-68 666-68H489l-20 96h162q50 0 74.5 8T741 65q11 21 14 65 5 95 12.5 257T778 640H506q-1-21-2-47-2-60-4-97-9-160-44-259T342 58.5Q263-21 109-112L44-29q132 70 205.5 137.5t108.5 156Q393 353 401 488zm-194 76 92-34q-27-82-67-171t-76-150l-89 47q40 60 76 141t64 167z"/><glyph glyph-name="uni5206" unicode="分" d="M755 60q-5-52-23.5-81.5t-55-42Q640-76 578-76H433l-18 91h135q43 0 64.5 6.5t31.5 24Q656 63 659 98q6 54 12.5 131.5T679 331H405q-1-20-2-48-5-92-31-156T286.5 6.5Q227-50 118-112L46-37q100 50 153 96t75.5 97Q297 207 306 284q3 27 5 47H171v67q-37-32-79-62l-54 78q107 74 187.5 170T356 790l89-34q-59-128-143-228-45-53-103-105h584q-3-64-12.5-185.5T755 60zm212 355-53-86q-142 90-226 191T546 773l88 32q50-132 126-221.5T967 415z"/><glyph glyph-name="uni5207" unicode="切" d="M887 73q-3-79-40-111.5T720-71H607l-19 95h98q41 0 63 7t32 25.5Q791 75 792 110q4 96 10 259.5t9 258.5H628q-1-56-5-143-5-156-27.5-253t-73-174Q472-19 373-113l-83 66q101 88 147 152t64.5 147.5Q520 336 527 494q3 70 5 134H405v97h507q-4-113-13.5-369.5T887 73zm-715 60v295L51 413l-9 97 130 15v269h93V536l169 21 3-95-172-22V139l154 96 23-98q-18-11-78.5-46T262 30q-41-26-65-44l-57 80q21 16 26.5 30t5.5 37z"/><glyph glyph-name="uni520A" unicode="刊" d="M523 407v-91H324V-95h-95v411H44v91h185v239H81v95h416v-95H324V407h199zM795 70v716h95V33q0-45-12.5-70.5t-43-37.5Q804-87 747-87H621L604 5h125q41 0 53.5 13T795 70zM665 703V114h-93v589h93z"/><glyph glyph-name="uni5211" unicode="刑" d="M586 399v-86H470V-78h-86v391H249q-2-86-8-141-9-80-35-140t-83-137L43-63Q95 5 120 61t34 129q6 49 8 123H52v86h111v253H71v85h502v-85H470V399h116zM809 60v724h86V35q0-67-29-94.5T761-87H644L627-1h110q42 0 57 12.5T809 60zM704 692V118h-87v574h87zM250 399h134v253H250V399z"/><glyph glyph-name="uni5212" unicode="划" d="M261 591q1-18 1-34l282 46 12-87-288-48q10-126 27-213 87 90 147 203l73-46q-81-143-183-245l-12-12q20-59 45-98 18-26 30.5-35.5T420 13q13 0 22.5 14T460 77q12 53 20 114l82-33q-20-90-31-128-16-63-44-91.5T417-90q-34 0-64.5 22.5T287 11q-22 35-39 80Q172 31 77-25L29 54q107 62 190 131-6 22-10 45-19 92-30 223L55 433l-12 88 129 21q-2 27-3 57-2 49-8 194h91q2-83 9-202zM810 62v730h86V29q0-45-10-69.5T849-76q-27-11-78-11H663L645 2h102q39 0 51 11.5T810 62zM697 704V126h-87v578h87zm-217-58-56-56q-55 61-133 135l52 52q62-54 137-131z"/><glyph glyph-name="uni5217" unicode="列" d="M124-115 62-38q117 77 188.5 146.5t115 149Q409 337 438 448H259q-18-40-38-79 50-37 119-97l-56-73q-56 50-109 91-38-60-82-112l-63 68q73 90 134 217 49 104 71 194H79v89h494v-89H332q-17-64-38-123h239v-84q-30-126-79-221T326 51.5Q247-31 124-115zM813 68v716h93V33q0-66-32-93T761-87H634L617 5h118q45 0 61.5 13.5T813 68zM704 695V124h-94v571h94z"/><glyph glyph-name="uni5218" unicode="刘" d="m536 35-74-63q-58 81-133 184-16-24-33-46-75-98-195-200L33-18q113 91 181 176 30 37 55 78l-1 1Q155 389 80 483l68 55q69-87 167-214l8 20q37 91 58 214H54v91h231q-39 93-60 134l85 24q19-41 35.5-80t24.5-56l-81-22h270v-91h-81q-23-135-63-238-16-40-36-79 93-120 157-206zm268 22v729h93V30q0-63-29.5-90T763-87H649L632 3h108q38 0 51 11t13 43zM693 701V113h-92v588h92z"/><glyph glyph-name="uni5219" unicode="则" d="M519 751V163h-86v498H188V161h-86v590h417zM267 367v241h88V345q0-76-12-136 65-57 221-198l-67-69Q452-13 386 49q-39 37-73 68-24-50-65-93Q191-36 88-98L32-24q99 59 148.5 110t68 114.5Q267 264 267 367zM801 68v710h86V45q0-48-12.5-75T833-68.5Q804-80 753-80H638L619 8h111q43 0 57 12t14 48zM697 700V131h-82v569h82z"/><glyph glyph-name="uni521A" unicode="刚" d="m416 607 72-30q-44-119-103-243 69-133 114-224l-71-44q-35 75-88 180-53-103-109-191l-58 41V-91H91v836h492V27q0-63-26-87t-92-24H363L346-2h90q39 0 52.5 11.5T502 54v608H173V123q61 94 122 212-72 139-121 230l68 38q34-63 96-181 46 96 78 185zM824 52v725h84V27q0-44-10.5-68.5t-37-35Q834-87 785-87H679L661-2h100q38 0 50.5 10.5T824 52zm-84 635V118h-80v569h80z"/><glyph glyph-name="uni521B" unicode="创" d="m609 535-59-70q-45 42-219 198-28-38-61-76-48-53-103-101h340q0-42-2-108t-4-108q-3-44-14-69t-36.5-36.5Q425 153 378 153h-89l-15 79h79q28 0 41 4.5t18 16.5q5 12 7 38 2 21 3.5 54t1.5 56H224V87q0-33 5-48t20-20.5q15-5.5 47-5.5h118q31 0 46 5t21 18.5q6 13.5 8 41.5 4 68 4 91l87-16q0-23-2.5-63T573 34q-4-43-17.5-65.5T512-63q-30-9-86-9H269q-50 0-78.5 12t-42 41Q135 10 135 61v398q-25-20-51-39l-55 69q84 63 163.5 153T315 813l87-36q-11-21-23-41l230-201zM815 69v716h87V31q0-45-11.5-70T851-75q-28-11-80-11H657L637 9h108q42 0 56 12t14 48zM714 709V144h-88v565h88z"/><glyph glyph-name="uni521D" unicode="初" d="M525 491q3 91 4 138H405v95h505q-27-620-30-659-3-54-19.5-84.5t-52-44Q773-77 711-77H597l-19 93h99q42 0 65 7t33 25.5Q785 67 787 103l24 526H622q0-24-1-51-2-58-4-99-7-150-28-241.5T521 70Q474-6 380-108l-80 61q92 93 136 160.5t63.5 151Q519 348 525 491zM65 184l-32 90q71 62 133.5 136.5T269 554H65v91h149q-10 24-47 104-6 12-10 20.5t-7 14.5l84 31q7-14 30.5-64t35.5-78l-82-28h157v-84q-47-83-107-161v-55q9-7 22-17 21 26 46 56 38 45 63 80l64-49q-63-84-107-135 57-43 78-56l-49-65q-41 32-94 72-12 9-23 18V-94h-93v385q-51-55-110-107z"/><glyph glyph-name="uni5220" unicode="删" d="M111 420v328h218V414h56v334h221V414h53v-83h-53V22q0-58-19-78.5T518-77h-59L443 5h46q26 0 34 10.5t8 43.5v272h-70q-1-100-7-165-6-80-22.5-138.5T384-97l-73 31q34 67 49 122t20 132q3 53 4 143h-55V34q0-41-7.5-62T295-58q-19-9-57-9h-54l-16 81h46q23 0 31.5 11t8.5 41v265h-65q-1-104-7-169-7-78-24-133.5T106-95L32-58Q69 9 84.5 60T105 187q4 53 5 144H44v83h67v6zM827 54v726h77V33q0-64-27-92t-93-28H679L664-9h98q38 0 51.5 13T827 54zm-70 638V129h-74v563h74zm-226-26h-70V414h70v252zm-277 0h-65V414h65v252z"/><glyph glyph-name="uni5224" unicode="判" d="M552 470v-87H367v-5q0-57-3-104h207v-88H355q-3-15-6-29-17-82-58.5-142T166-116L94-56q81 66 118 117.5T263 185v1H60v88h213q4 48 4 109H87v87h190v319h90V470h185zM813 68v716h90V33q0-44-12.5-69.5t-42-37Q819-85 767-85H640l-19 95h118q44 0 59 12t15 46zM709 702V122h-92v580h92zm-212 38 73-36q-29-56-117-206l-74 37q28 44 64 106.5t54 98.5zM252 540l-75-38Q115 624 71 698l73 37q57-99 108-195z"/><glyph glyph-name="uni5228" unicode="刨" d="M540 224q-1-41-12-67l69-15q-4-94-8-121-4-40-18-61t-42.5-29.5Q500-78 450-78H235q-72 0-102.5 27T102 47v376l-13-19-63 53q56 81 101 169.5T195 798l89-18q-14-44-31-86h293l-6-470zm-158-21H185V71q0-39 15-52.5T258 5h183q39 0 53 11.5T509 64l2 68q-12-10-28-16-29-11-82-11h-79l-16 74h73q46 0 61 13.5t15 53.5l1 96q2 204 5 267H214l-9-17q-25-45-53-92h230V203zM818 55v727h82V30q0-64-27.5-90T773-86H664L649-2h104q39 0 52 11.5T818 55zm-93 645V130h-82v570h82zM299 275v147H185V275h114z"/><glyph glyph-name="uni5229" unicode="利" d="m510 771 17-87q-74-14-175-30V519h190v-90H352V318l43 45q25-24 68.5-66.5T559 203l-66-70q-36 40-82 87-33 34-59 59V-97h-94v372l-20-34Q177 143 91 54l-61 79q83 77 148 177 37 57 66 119H63v90h195v121q-95-14-172-22l-11 87q103 9 224.5 27.5T510 771zM809 69v715h94V36q0-47-13.5-74T844-77q-32-12-88-12H628L609 2h122q46 0 62 13.5T809 69zM685 701V118h-95v583h95z"/><glyph glyph-name="uni522B" unicode="别" d="M510 58q-4-71-39.5-99.5T351-70h-94l-17 83h80q42 0 63 6.5T413 43q9 17 11 51l4 105 2 48H279q-7-62-18-107-16-67-50.5-121T111-103L35-45q61 56 93 103.5T174 163q9 36 15 84H55v85h140q3 66 4 105h-98v314h411V437H288q-2-67-4-105h237q-2-52-5.5-150T510 58zm292 7v716h86V33q0-66-29.5-93.5T752-88H633L616 2h112q42 0 58 13t16 50zM695 700V138h-87v562h87zM190 522h232v147H190V522z"/><glyph glyph-name="uni522E" unicode="刮" d="M515 302V-50H196v-46h-91v398h160v127H47v88h218v124q-100-10-191-15l-7 87q112 7 240 21.5T522 765l15-88q-73-14-182-27V517h212v-88H355V302h160zM805 67v715h88V34q0-45-12-71t-40.5-38Q812-87 759-87H639L622 5h110q43 0 58 12.5T805 67zM702 690V120h-90v570h90zM424 37v175H196V37h228z"/><glyph glyph-name="uni5230" unicode="到" d="M96 473q27 28 77 99 32 44 55 80H61v87h506v-87H331q-26-39-58-86-47-68-76-103l231 14q-28 41-62 91l68 46 95-136q32-48 56-81l-73-47q-13 20-33 51-64-3-118-5V270h192v-86H361V62l217 20 2-43 1-47q-39-2-236.5-19T48-54l-9 88 230 20v130H77v86h192v121q-144-8-182-14l-21 80q21 7 30 16zM811 60v720h92V29q0-67-29.5-93.5T769-91H647L628-2h111q41 0 56.5 13T811 60zM706 701V119h-89v582h89z"/><glyph glyph-name="uni5236" unicode="制" d="M571 50q0-46-22-66t-74-20h-65l-17 81h51q26 0 35 8t9 30v134H382v-325h-87v325H186V-43h-82v344h191v88H55v84h240v103H181q-20-53-41-93l-81 26q61 128 85 247l86-13q-9-42-22-84h87v129h87V659h193v-83H382V473h214v-84H382v-88h189V50zm253 10v716h87V25q0-44-11.5-69.5t-39.5-37Q832-93 781-93H662L643-6h110q40 0 55.5 15T824 60zm-88 636V109h-88v587h88z"/><glyph glyph-name="uni5237" unicode="刷" d="M124 435v320h466V493H205v-74q0-140-25.5-256T104-59L28-25q50 99 73 208t23 252zM589 85q0-57-18-77t-67-20h-43l-16 74h29q24 0 32.5 9t8.5 36v195h-77V-97h-76v399h-74V-15h-73v395h147v84h76v-84h151V85zm236-38v743h81V24q0-42-11-65.5T858-76q-26-11-74-11H679L662-5h100q37 0 50 10.5T825 47zm-88 663V127h-78v583h78zM505 570v106H205V570h300z"/><glyph glyph-name="uni5238" unicode="券" d="M937 448v-80H698q38-40 83-72 76-54 185-94l-46-89q-82 37-153 86-2-20-4-42-6-66-10-109-5-50-20.5-77T686-67.5Q655-79 602-79H458L440 4h121q40 0 59.5 5.5t28 19.5Q657 43 661 74q9 69 12 111H448q-11-66-34-112-32-64-97.5-109T133-125L86-38Q190-7 245.5 27t79.5 83q16 31 25 75H249v22q-71-53-163-104l-47 85q105 56 173 108 44 34 79 72H62v80h290q23 38 42 84H97v82h171q-41 55-94 122l72 50 114-145-38-27h102q8 28 17 61 19 68 27 125l95-15q-21-97-41-171h147l-37 25q68 76 117 147l75-47q-55-73-100-125h174v-82H496q-16-44-37-84h478zm-352-80H410q-22-31-47-58-20-22-43-44h361q-53 47-96 102z"/><glyph glyph-name="uni5239" unicode="刹" d="M292 53v221H55v88h237v108h86V362h207v-88H378V12q0-41-10-62t-34.5-30Q309-89 262-89h-89L156-4h77q37 0 48 11t11 46zm219 731 59-71q-79-66-148-117 74-46 168-105l-56-78q-101 69-192 128-4-2-7-4-104-67-245-131l-38 90q111 45 203 100-94 58-176 104l50 73q89-50 194-115 7-4 14-9 82 57 174 135zM819 63v719h85V32q0-66-29-93.5T770-89H653L636 0h108q43 0 59 13t16 50zM719 704V121h-86v583h86zM152 251l81-32q-22-63-60-140T101-50L24-5q34 51 68.5 121.5T152 251zM618 20l-78-43q-75 141-127 230l74 40q27-42 68-112.5T618 20z"/><glyph glyph-name="uni523A" unicode="刺" d="M559 324q0-52-20-71.5T466 233h-58l-16 77h48q25 0 33.5 8t8.5 29v104H369V161l43 53q79-56 197-153L555-6q-42 37-95 80-49 40-91 73v-250h-85v283q-18-28-40-56Q171 26 76-49L33 37q99 71 164 153 51 66 87 144v117H173V230H94v300h190v82H53v84h231v96h85v-96h223v-84H369v-82h190V324zM815 62v721h88V33q0-66-29.5-93.5T769-88H651L634 1h109q42 0 57 12t15 49zm-94 628V132h-85v558h85z"/><glyph glyph-name="uni523B" unicode="刻" d="m442 561 73-39q-78-143-177.5-246.5T92 89l-48 72q103 57 172 112 47 37 86 80h-8q-74-3-121-6.5t-67-7.5l-23 85q32 9 45 26 26 29 59 79 19 28 35 56H60v86h242q-21 52-45 107l87 26q23-47 57-127l-25-6h214v-86H324q-18-34-41-69-35-52-63-84l151 10q36 53 71 119zM817 56v715h87V23q0-66-27.5-93.5T776-98H660L641-7h108q41 0 54.5 13T817 56zM604-23l-61-74Q493-52 432 2q-38 33-68 59Q257-29 89-114L34-36q168 78 275.5 167.5T504 357l68-46q-66-107-142-187 61-50 174-147zm113 708V107h-86v578h86z"/><glyph glyph-name="uni523D" unicode="刽" d="m610-34-77-38-33 56q-164-8-258-14-99-6-138-14L84 35q25 16 40 33 22 28 59 94 22 40 40 74H56v84h548v-84H320q-24-47-52-96-38-66-62-99l250 17-66 114 73 39q39-62 147-245zM322 812l84-29q-8-17-18-34 125-106 238-207l-58-72Q430 598 343 676q-30-41-67-84-41-47-86-88h329v-82H155v50q-36-29-73-56l-52 73q87 60 169 153t123 170zM820 75v711h86V31q0-47-12-72t-40-35.5Q826-87 775-87H658L640 1h112q40 0 54 17t14 57zm-93 630V134h-85v571h85z"/><glyph glyph-name="uni5242" unicode="剂" d="m604 333-50-77q-110 65-218 128-102-78-271-142l-39 83q135 47 225 108-75 43-148 86l42 67q76-42 176-96 53 50 90 113H56v87h232q-7 17-19 43-18 37-32 62l93 22q12-24 29-59t28-60l-36-8h231v-87h-71q-42-90-107-159 125-69 200-111zM809 62v719h86V43q0-68-30.5-96T761-81H641L624 3h114q43 0 57 12t14 47zM708 698V114h-84v584h84zM166 238l2 43h87q0-22-1-40-1-90-15-148T193-10q-32-45-92-94L32-46q56 45 83 80.5t38 80.5q11 45 13 123zm308 47V-81h-85v366h85z"/><glyph glyph-name="uni5243" unicode="剃" d="m292 686-29-15h87q14 21 32 49 34 55 54 91l77-34q-34-56-68-106h117V402H366V298h219q-1-12-3-78-2-79-4-122-2-55-26.5-75T467 3h-65l-17 79h56q31 0 42 11t13 44q1 16 2 40.5t1 41.5H366v-319h-84v224q-20-26-44-52Q166-8 78-69L31 5q84 57 154 130 40 42 70 84H73l22 263h187v108H69v81h133q-29 46-64 98l70 42q26-33 84-125zM820 65v725h86V36q0-45-11.5-70t-40-35.5Q826-80 773-80H671L653 6h96q31 0 45.5 5t20 17q5.5 12 5.5 37zm-89 632V124h-82v573h82zM160 298h122v104H171l-11-104zm318 184v108H366V482h112z"/><glyph glyph-name="uni524A" unicode="削" d="M549 18q0-42-10-65t-34-32.5Q481-89 437-89H325L310-1h93q35 0 47 10t12 39v51H183V-92H95v623h184v265h86V531h184V18zm270 44v717h89V31q0-65-29-92.5T776-89H660L643-1h108q40 0 54 12.5T819 62zm-94 624V116h-88v570h88zM462 449H183v-92h279v92zM183 182h279v92H183v-92zm72 422-68-51q-63 95-123 170l65 50q73-92 126-169zm258 163 69-45q-77-113-123-174l-68 48q43 52 122 171z"/><glyph glyph-name="uni524D" unicode="前" d="M489 17q0-62-24-85t-88-23h-84L275-6h70q35 0 45.5 9T401 40v68H207V-95h-90v615h372V17zM368 735q4-7 29-44l-30-14h207q19 26 40 56 33 49 53 84l93-43q-23-34-60-83-6-7-11-14h254v-84H50v84h244q-7 12-18 28-28 42-46 67l82 45q11-14 56-82zM776 53v483h90V30q0-47-11-72t-39.5-35.5Q787-88 733-88H614L597-2h113q29 0 42.5 4.5T771 18q5 11 5 35zM667 497V81h-84v416h84zM207 189h194v83H207v-83zm194 246H207v-82h194v82z"/><glyph glyph-name="uni5251" unicode="剑" d="m325 807 89-27q-10-19-21-37 50-36 116-85 79-59 125-97l-61-66q-50 43-128 105-58 46-98 76-65-88-159-167h350v-84H157v58q-41-32-86-62l-51 78q101 62 178.5 142T325 807zM822 61v720h85V34q0-45-12-70.5T854.5-74Q826-86 775-86H663L645-1h106q41 0 56 13t15 49zM499 389l80-22Q514 174 473 61q114 10 142 14l1-42 2-45q-37-1-274.5-20T68-56l-9 85q42 1 278 21 24 2 46 4 29 75 58 159 36 102 58 176zm223 314V118h-84v585h84zM257 111l-77-23q-14 52-41 137T92 365l77 19q18-50 45-134t43-139zm153 36-78-22q-11 48-33 123.5T259 376l76 20q15-44 38-121.5T410 147z"/><glyph glyph-name="uni5254" unicode="剔" d="M567 47q-5-67-32.5-91.5T443-69h-86L341 9h74q29 0 44 5t21.5 18q6.5 13 9.5 40 3 36 8.5 97.5T507 267h-57q-14-72-38-129-29-69-77-127T209-111l-53 61q104 79 153 156 41 65 64 161h-60q-28-80-78-145Q175 45 79-26L29 35q86 55 142 124 41 51 66 108h-57q-46-63-98-117l-54 64q53 50 91 101 37 49 63 106h-54v339h425V421H202l59-25q-13-25-29-51h356q-3-51-9.5-146.5T567 47zm255 9v727h85V30q0-46-11-70.5t-39.5-35Q828-86 774-86h-99L657 0h94q43 0 57 11t14 45zm-93 653V127h-81v582h81zm-259-21H210v-63h260v63zM210 492h260v63H210v-63z"/><glyph glyph-name="uni5256" unicode="剖" d="M520 275V-52H201v-47h-91v374h410zM382 689l-14-4h187v-84H210q26-46 59-111l15-30-52-23h111q40 74 76 162l77-28q-34-78-62-134h152v-84H48v84h152q-40 86-66 130l71 34H73v84h215q-19 45-48 102l84 26q31-58 58-124zM818 57v721h87V31q0-47-12.5-72t-42-35.5Q821-87 766-87H650L632-2h109q46 0 61.5 11.5T818 57zM715 697V117h-85v580h85zM430 35v154H201V35h229z"/><glyph glyph-name="uni5265" unicode="剥" d="M626 59 576-9q-46 34-118 87-42 31-73 54V21q0-44-11-67t-36.5-32.5Q312-88 265-88h-93L155-5h74q31 0 45.5 4t20 15q5.5 11 5.5 33v102q-28-19-131-92L83-5 32 65q23 13 117.5 78T266 226l22-34 12-19v206H55v77h403v72H125v77h333v70H101v78h442V456h74v-77H385V208l12 16q45-31 229-165zm199 13v712h84V41q0-49-12-76t-41.5-39.5Q826-87 772-87H665L646 1h101q33 0 49 5.5t22.5 20Q825 41 825 72zm-91 637V127h-82v582h82zM542 362l57-58q-61-59-129-115l-54 58q68 56 126 115zM247 245l-60-50q-64 75-103 114l58 50q81-87 105-114z"/><glyph glyph-name="uni5267" unicode="剧" d="M571 235V-76h-78v29H292v-42h-79v324h137v90H197q-2-52-6-94-9-89-30-160.5T100-80L22-44Q60 31 79 96.5t27 150q8 84.5 8 219.5v280h466V492H200v-87h150v79h85v-79h180v-80H435v-90h136zM823 50v728h86V28q0-65-27.5-91T784-89H677L661-7h101q37 0 49 11.5T823 50zm-84 638V118h-82v570h82zM493 570v97H200v-97h293zm0-413H292V31h201v126z"/><glyph glyph-name="uni5269" unicode="剩" d="m644 33-59-65q-78 69-208 174V-93h-76v242q-26-37-56-69Q183 13 82-58L32 18q107 65 173 137 18 19 34 41h-69v44q-73-26-106-40l-15 71q27 10 71 24 28 9 50 16v50H64v70h106v53h72V200q32 42 59 93v216H57v79h244v79q-114-9-193-11l-5 77q95 3 230.5 14.5T564 773l10-78q-82-11-197-22v-85h246v-79H377V164l40 49Q554 109 644 33zm182 31v711h80V26q0-43-11-67.5T857.5-77Q831-88 782-88H678L658 7h100q29 0 43 4.5t19.5 16Q826 39 826 64zM507 291q0-18 4.5-25t17.5-7h16q16 0 21.5 8t7.5 30q1 13 1 40l65-11-1-28-1-37q-1-40-21.5-56T552 189h-50q-37 0-52.5 18T434 263v222h73v-76q54 29 84 52l39-63q-27-18-76-43l-47-24v-40zm240 403V124h-73v570h73z"/><glyph glyph-name="uni526A" unicode="剪" d="M888 161q-11-97-17-127-7-48-20-72t-41.5-34Q781-82 725-82H551L533-2h163q32 0 47 4.5T765 18q7 11 12 36 8 25 13 67H470q-15-54-41-91-37-51-112.5-84T105-113L75-31Q195-9 258.5 15T350 74q16 20 26 47H104v73h789q-2-9-3-17.5t-2-15.5zM502 327q0-37-10.5-57t-36-29q-25.5-9-72.5-9h-85l-13 59h79q31 0 41 8t10 29v7H215V234h-87v354h374V327zm-94 379-3-1h186q50 58 84 107l79-39q-29-38-54-68h239v-71H61v71h245q-15 18-37 45l-18 22 75 40q39-46 82-106zm380-340v226h83V343q0-43-12-66t-40.5-33Q790 234 739 234H631l-15 69h104q39 0 53.5 15.5T788 366zM678 577V339h-80v238h80zm-263-47H215v-43h200v43zM215 390h200v42H215v-42z"/><glyph glyph-name="uni526F" unicode="副" d="M569 336V-47H175v-46H90v429h479zM820 65v711h87V32q0-65-30-93T773-89H657L638 2h110q41 0 56.5 13T820 65zM533 605V392H127v213h406zm196 83V135h-86v553h86zm-142 56v-80H71v80h516zM211 464h237v69H211v-69zM484 28v87H371V28h113zm-309 0h113v87H175V28zm0 161h113v76H175v-76zm309 76H371v-76h113v76z"/><glyph glyph-name="uni5272" unicode="割" d="M614 313v-68H377v-53h175V-49H204v-44h-86v285h175v53H57v68h236v49H107v68h186v49H90v66h203v64h84v-64h203v-66H377v-49h186v-68H377v-49h237zM819 60v722h86V33q0-66-29-93.5T773-88H659L641-2h107q41 0 56 12.5T819 60zM596 708V571h-81v66H153v-66H70v137h231q-20 40-40 77l90 25q21-37 53-102h192zm139-20V117h-80v571h80zM465 23v98H204V23h261z"/><glyph glyph-name="uni527F" unicode="剿" d="m176 797 65-41q-38-40-85-78 30-25 82-74l-44-45h167q-52 46-140 119 78 59 139 118l62-42q-59-55-93-79 42-31 89-72l-44-44h165q-72 65-139 119 68 50 137 119l63-42q-55-52-90-79l30-24q23-19 59-47l-42-46h22V253H375v-51h245v-72H375v-231h-73V61Q200-27 71-86L30-6q82 29 153 75 43 28 79 61H53v72h249v51H96v306h77q-62 59-133 119 55 41 136 119zM825 58v723h84V32q0-65-28.5-92T779-87H673L656-2h100q41 0 55 12.5T825 58zm-89 642V134h-78v566h78zM573 35l51-31-47-69Q467 9 380 58l42 67q21-12 151-90zm-70 284v53H375v-53h128zm0 171H375v-53h128v53zM175 319h127v53H175v-53zm0 118h127v53H175v-53z"/><glyph glyph-name="uni5288" unicode="劈" d="M127 613v139h335V544H203q-3-31-9-57h271V284H169v135q-28-54-79-111l-58 58q51 49 73 104.5T127 613zm798-207v-72H752v-81h-89v81H498v72h165v67H482v70h125q-26 43-60 89l42 21h-90v69h175q-3 7-7 15-13 30-25 54l83 22q18-31 44-91h160v-69H819l47-20q-22-39-55-90h134v-70H752v-67h173zM835 37q-4-42-17-65.5t-42.5-34Q746-73 692-73H527L511 5h129q40 0 59 4t27 15.5Q734 36 738 62q2 12 3.5 27.5T745 119q1 17 4 37H457q-12-54-37-93-35-53-114.5-93.5T79-109L49-26Q178 2 244.5 34t91.5 70q14 22 23 52H81v74h771q-2-37-7.5-96T835 37zM382 610v77H206v-77h176zM244 345h147v79H244v-79zm438 221-47-23h87q17 25 36 56 18 30 30 54H627q43-66 55-87z"/><glyph glyph-name="uni529B" unicode="力" d="M856 69q-3-57-22.5-89t-59-46.5Q735-81 668-81H508l-20 98h147q50 0 76 8t36.5 28.5Q758 74 760 115q4 78 10 217t7 179H463q-9-154-35-249-29-107-100.5-190T112-109L39-31q137 90 202 159.5T333 292q24 82 32 219H79v98h290l4 90 3 98h97q1-23-6-188h412q-3-103-10-267T856 69z"/><glyph glyph-name="uni529D" unicode="劝" d="M914 567 890 58q-4-76-38-105.5T736-77H622l-19 92h101q36 0 55 6.5T786.5 45Q795 62 798 95q4 75 11 231t7 188H639q-9-174-23-264-16-99-63-182T400-119l-77 70q96 94 139 163t60 159q16 84 23 241H441v93h107q2 73 4 143 1 15 1 43h95q0-19-1-29 0-87-3-157h272l-2-40zM432 103l-76-57q-34 62-73 129l-20-36Q201 34 103-80L25-10q99 105 159 201 24 40 44 79l-14 23Q136 424 77 513l71 50q56-85 123-193l5 15q32 98 48 220H75v94h342v-94q-20-139-56-250-14-42-31-82 49-80 102-170z"/><glyph glyph-name="uni529E" unicode="办" d="m966 183-86-43q-24 47-110 209-10-216-16-289-4-55-19.5-84.5t-51-43Q648-81 583-81H432l-18 93h133q45 0 67 7t31.5 25.5Q655 63 658 101q6 86 12.5 216T681 538H442q-10-173-34-272-27-110-91.5-191T116-111L48-34q118 83 179 160.5T314 303q23 91 33 235H81v91h270q3 72 4 110 0 20 2 58l97-2-8-166h338l-9-178q-1-22-2-42l53 28q29-47 71-123t69-131zM146 461l88-33q-23-77-54-155.5T119 138l-86 43q73 136 113 280z"/><glyph glyph-name="uni529F" unicode="功" d="M880 80q-3-63-19-95.5t-52-45Q773-73 704-73H593l-19 90h95q52 0 75 7t32 27q9 20 11 65 4 82 8.5 197.5T802 512H617q-6-167-23-259-18-104-67-183.5T370-110l-80 65q107 96 152.5 165T502 274q13 78 21 238H415v93h110l5 190h94l-4-190h280q-3-103-9-263T880 80zM426 243l7-42 8-52q-70-17-192-47.5T57 52l-20 92q25 5 152 36v417H59v88h345v-88H282V204q122 31 144 39z"/><glyph glyph-name="uni52A0" unicode="加" d="M909 685V-79h-90v73H658v-73h-92v764h343zm-422-93q-1-59-6.5-284T474 56q-1-52-15-80t-45.5-39.5Q382-75 326-75h-85l-20 96h83q31 0 47 6.5t23 23q7 16.5 8 49.5 3 64 6 183t5 220q1 18 1 37H268q-5-162-18-262-13-106-44.5-193T112-105L27-55q59 93 88.5 173T158 294q13 93 19 246H55v91h125q0 23 1 48 1 70 1 117h93q0-46-2-115-1-26-2-50h217q0-4-.5-13t-.5-26zm332 1H658V85h161v508z"/><glyph glyph-name="uni52A1" unicode="务" d="m962 386-23-88q-187 34-315 76-64 21-120 46-172-75-433-135l-31 89q210 41 366 97l-8 5q-74 46-145 110-66-60-143-112l-52 64q80 54 156 129t120 141l88-30q-22-32-47-63h473v-76q-109-99-245-171 27-10 56-18 123-36 303-64zM814 31q-5-42-22.5-66.5t-52.5-36Q704-83 644-83H476L459-3h153q42 0 64 5.5T707.5 23Q717 38 721 68q5 26 9.5 57.5T737 180H443q-13-46-35-82-36-60-106-108t-193-99L56-34Q169 9 231 48t92 88q13 20 22 44H111v81h254q8 54 11 94l97-1q-6-48-13-93h377q-3-44-10-113.5T814 31zM450 537q24-14 51-27 128 57 210 128H319q59-59 131-101z"/><glyph glyph-name="uni52A3" unicode="劣" d="m853 178-9-128q-4-51-20-78t-51.5-38.5Q737-78 673-78H516L499 7h135q45 0 67.5 6t33 23Q745 53 749 88q3 26 5.5 62t1.5 52H470q-14-58-37-100-37-66-114.5-115T100-113L53-31q130 43 198 84.5t97 91.5q14 25 24 57H123v85h264q9 80 9 84l96-4q-2-37-8-80h376l-7-109zM733 595l33-79q-143-74-290-115.5T68 313l-18 84q223 35 380 81 57 16 112 36h-91v284h96V516q95 34 186 79zm199-25-50-77q-48 36-126.5 91.5T621 678l48 68q77-48 263-176zM312 739l56-68q-52-47-119.5-98T119 485l-48 78q61 36 128 85t113 91z"/><glyph glyph-name="uni52A8" unicode="动" d="M96 129q24 44 61 138 25 65 42 119H60v92h438v-92H297q-18-57-47-134-37-100-64-154l198 22q-39 98-68 164l84 31q50-116 106-258 11 20 20 39 35 71 47 165 12 91 17 262H468v91h124q1 9 1 19 1 67 4 162h87q0-92-2-181h232q-3-106-9-277T894 53q-2-49-15.5-76T835-61.5Q805-73 752-73H640l-20 91h96q37 0 55.5 6T798 46.5Q806 63 808 97l13 326q1 32 2 57.5t1 42.5H679q-7-186-18-281-12-99-47-180.5T500-117l-83 55q39 46 67 87L431-2q-7 18-13 35l-26-2Q268 21 193 12.5T84-5L54 87q18 8 26 17t16 25zm369 597v-89H100v89h365z"/><glyph glyph-name="uni52A9" unicode="助" d="M590 482v48h-89v88h91q0 22 1 44 1 89 2 130h90q-2-100-4-174h230q-3-94-10-275.5T889 56q-2-48-16.5-74.5t-46-37Q795-66 738-66H637l-16 87h81q41 0 61.5 6t29 21.5Q801 64 802 96q3 78 8 217t8 217H679q-1-33-2-57-5-166-24-261.5t-63-167Q546-27 457-114l-70 67q54 49 90 91Q108-13 57-23L43 70q29 4 75 10v660h341V132q25 4 52 8V88l4 6q40 61 55 144.5T590 482zM371 118v123H206V93q71 11 165 25zm0 535H206V527h165v126zM206 324h165v119H206V324z"/><glyph glyph-name="uni52AA" unicode="努" d="m536 322-47 77-48-70q-55 34-111 66-14-9-30-19-77-46-216-91l-41 81q122 35 190 70 7 4 13 7-69 37-138 71 25 48 48 108H58v83h129q19 55 29 98l91-15q-12-41-26-83h202v-81q-27-88-66-145-8-11-18-23 55-29 94-51l-1-2q73 29 128 62-63 65-107 157l70 35h-77v82h390v-86q-53-113-136-190 9-5 20-11 69-36 182-71l-38-88q-146 49-236 113-65-45-152-84zM823 33q-5-46-20.5-70T754-71q-33-10-94-10H504L485 7h153q36 0 54 4.5T718.5 29Q727 42 730 68q3 22 6 50t4 48H440q-11-50-32-86-33-59-105-102.5T96-112L50-29Q173 9 236 44.5t88 78.5q11 19 18 43H104v86h253l4 38 1 23h96q-1-23-5-61h394L823 33zM667 537q11-12 23-23 71 60 112 143H590q35-72 77-120zm-331-23q34 43 56 108H251q-17-41-33-73 36-18 103-52 8 9 15 17z"/><glyph glyph-name="uni52AB" unicode="劫" d="M494 653v-91H343V415h184v-92H314q-21-48-48-103-38-78-71-129l199 23q-32 63-70 135l75 35q30-54 68-128 29-57 49-97 14 25 25 49 37 78 51 172 12 85 18 225H510v95h103q0 34 1 73 2 77 2 123h89q0-59-4-196h227q0-52-7.5-273.5T909 41q-2-49-13-73.5T859-67q-26-10-78-10H656l-19 91h98q36 0 53.5 5.5T813 40q7 15 9 47l15 418H697q-6-154-21-250-17-108-56-190.5T505-112l-76 53q35 41 62 79L449 0q-7 14-13 28-9-1-20-2Q148 1 93-11L66 78q17 7 27 16t20 24q30 42 68 122 20 43 36 83H58v92h193v147H92v91h159v142h92V653h151z"/><glyph glyph-name="uni52B1" unicode="励" d="M905 503q-7-360-13-461-2-45-14-69.5t-37-34Q816-71 770-71h-70l-17 86h58q39 0 53 14.5T810 86q5 108 9.5 243.5T826 525H719q-6-167-20-270-14-106-46.5-188T558-100l-75 43q62 84 92.5 156.5T619 270q13 95 18 255h-73v87h75q3 130 3 188h82q0-105-2-188h186l-3-109zM508 57q-2-44-13-68t-35-34q-24-10-68-10h-71l-15 75h59q29 0 42.5 5t19 18q5.5 13 7.5 40 2 39 8 216H341q-6-100-25-186Q290-3 218-97l-69 48q48 60 73.5 129.5T257 220q9 70 11 160 1 17 1 60l1 43h-82v82h359v-82H345l-1-100h177q-2-60-6.5-180.5T508 57zM104 398v351h461v-85H184V407q0-121-6-199.5T155 57q-17-72-52-153L28-60Q61 9 77.5 72.5t21.5 136q5 72.5 5 189.5z"/><glyph glyph-name="uni52B2" unicode="劲" d="m480 111 2-40 1-28q19 29 33 55 37 69 52 160.5T588 514v5h-95v90h96l4 186h92q-1-111-3-186h220l-6-184q-6-220-11-368-2-49-16-76.5T824-59q-31-12-85-12h-96l-19 90h80q52 0 71 16.5T795 97q3 77 7.5 210.5T809 519H679q-6-172-23-274-17-103-55-182T488-112l-84 55q35 41 62 77Q386 9 269-8 140-28 50-42l-8 90q46 5 187 26v163H75v89h397v-89H322V87q95 14 158 24zm49 324-51-78q-114 79-183 124l-1-1q-91-78-211-139l-48 76q96 47 174 106.5T339 651H76v87h380v-82q-44-61-96-114 30-18 62-38 60-38 107-69z"/><glyph glyph-name="uni52B3" unicode="劳" d="M808 58q-5-53-20.5-81T739-62q-33-11-95-11H490l-18 88h147q38 0 57 5.5T703.5 40Q712 54 715 83q3 16 6.5 62.5T726 218H443q-13-64-35-110-33-70-106-122.5T94-117L52-29q123 44 185.5 83.5T326 147q14 30 22 71H119v82h238l6 92h98q-1-30-7-92h372q-10-150-18-242zM697 794v-83h251v-86H697v-73h-89v73H392v-73h-93v73H50v86h249v83h93v-83h216v83h89zm208-278V326h-88v107H182V326H93v190h812z"/><glyph glyph-name="uni52BF" unicode="势" d="M840 404q8-37 23-35 15 0 23 39 10 46 17 88l64-26q-19-81-30-117-13-43-31-62.5T861 271q-29 0-54 24t-41 76q-8 26-14 80t-6 102v54H629q-2-72-15-120-1-2-1-3 80-36 131-60l-37-76q-58 29-127 62-11-15-23-30-36-41-102-88h28q-2-28-7-59h378q-1-22-6.5-88.5T837 39q-4-46-19-71.5t-46.5-37Q740-81 684-81H518L502 5h151q52 0 71.5 12.5T748 68l5 45 5 41H463q-14-58-39-98-37-57-114-96T89-114L49-29Q181 2 245.5 30T337 98q16 23 25 56H104v79h272q5 40 7 59h36l-52 45q77 46 114 85 11 12 21 26-53 24-88 39l34 70q39-17 85-38 8 36 11 88h-93v81h95v7q0 64 1 96h86q0-24-1-36 0-40-1-67h198V559q0-106 11-155zm-614-9v57q-102-19-166-31l-9 79q68 11 175 29v83H69v76h157v103h88V688h113v-76H314v-68q50 9 87 16l3-36 4-39q-40-7-94-17v-95q0-37-9.5-56T272 290q-23-8-66-8H104l-16 72h86q33 0 42.5 7.5T226 395z"/><glyph glyph-name="uni52C3" unicode="勃" d="M520 705v-79H340v-74h179V390h-46v-71l-130-95v-13q74 8 169 18l2-41 1-36q-67-6-172-17V24q0-46-10.5-69.5t-37-33Q269-88 217-88h-83L117-6h78q28 0 42 4t18.5 14q4.5 10 4.5 31v83q-150-15-200-22l-5 78q53 5 205 20v48l108 70H126v69H70v163h183v74H79v79h174v91h87v-91h180zm87-222q0 14 1 39h-71v88h73q0 28 1 63 1 32 1 64t1 56h87q-1-64-3-162 0-11-1-21h210L886 54q-1-48-14.5-74.5t-43-37Q799-68 746-68h-97l-17 87h81q37 0 55.5 6t26 22q7.5 16 8.5 47l15 428H694q-1-27-1-48-4-149-24-246.5t-61.5-173Q566-21 489-109l-72 58q76 81 114.5 148t55 154.5Q603 339 607 483zm-169-9H153v-74h285v74z"/><glyph glyph-name="uni52C7" unicode="勇" d="M867 585V229h-90v52H544v-38h-87v38H223v-54h-88v358h253q-76 37-132 63l26 40H135v75h715v-77L606 585h261zM848 26q-5-40-21-63t-48-32.5Q747-79 692-79H519L502-4h160q37 0 56 5t27.5 15.5Q754 27 757 47l8 61H457Q434 27 352-24q-85-53-254-89L61-33q113 23 175.5 47T327 68q16 17 27 40H95v77h282q1 2 1 5 5 27 6 42l96-1q-2-24-6-46h392q-3-32-8.5-79.5T848 26zM223 345h234v53H223v-53zm321 0h233v53H544v-53zM223 463h234v51H223v-51zm554 51H544v-51h233v51zM347 686q89-42 147-71l174 73H342q2-1 5-2z"/><glyph glyph-name="uni52C9" unicode="勉" d="m217 807 86-22q-13-31-30-62h210v-81l-81-102h117V231H330v-3l-1-6h79V57q0-26 12-37.5T460 8h336q33 0 46 11t14 41q1 18 1 49-10-9-24-14-27-9-76-9h-82l-18 89h88q34 0 46 11t13 45q2 23 7 143t7 179H710q-4-132-18-214-15-87-50-152T539 46l-72 53q67 69 99 127.5T611 362q12 70 18 191h-90v88h93q0 23 1 48 1 60 1 108h84l-6-156h191q-3-80-8-220.5T887 200q-1-21-4-38l62-13q-1-12-2.5-48T938 22q-2-56-29.5-78T814-78H436q-58 0-85 26.5T324 34v168q-21-81-65-144-51-72-156-160L39-33q100 76 148 139 41 54 62 125H106v254l-26-27-48 75q120 120 185 274zm-10-195q-26-38-54-72h147l80 102H226q-9-15-19-30zm136-295h100v135h-91q-3-76-9-135zm-159 0h82q7 58 10 135h-92V317z"/><glyph glyph-name="uni52CB" unicode="勋" d="M621 466v57h-87v84h89v21q2 104 3 164h86q0-49-3-152 0-17-1-33h215q-3-98-9-277.5T904 52q-1-48-15.5-74.5T843-60q-31-11-84-11h-94l-15 86h78q38 0 56.5 6t26 21q7.5 15 9.5 47 2 23 8 189.5t9 244.5H706q-1-27-2-48-5-160-19-250T637 61.5Q603-12 531-108l-78 53q71 81 103.5 141T603 229.5Q617 313 621 466zM488 754V513H110v241h378zm20-311V125h-84v237H173V122H91v321h417zM258 219q4 35 4 110h84q1-31-3-86t-10-85l-1-6 100-67 65-43-48-68Q373 28 303 75q-17-29-42-55-59-59-188-121L36-19q82 35 127.5 67t67 71.5Q252 159 258 219zm-69 368h221v92H189v-92z"/><glyph glyph-name="uni52D2" unicode="勒" d="M504 430V199H343v-69h191V69q7 13 13 26 33 71 47 159.5T616 497q0 8 1 18h-87v85h89q0 28 1 63l3 130h86l-5-193h218L898 44q-2-48-16-73.5t-42.5-36Q811-76 760-76H658l-19 91h89q34 0 51.5 6.5t25 22.5q7.5 16 9.5 46l20 425H702v-27q-5-159-22-257.5T627 56q-36-76-105-164l-74 54q46 55 76 107H343V-97h-86V53H53v77h204v69H96v231h161v62H148v138H64v76h84v84h87v-84h135v84h85v-84h97v-76h-97V492H343v-62h161zM370 557v73H235v-73h135zm59-288v92h-86v-92h86zm-257 0h85v92h-85v-92z"/><glyph glyph-name="uni52D8" unicode="勘" d="M582 299v-81H188V28h328v-46q39 56 60 105 29 64 42 155.5T635 497q0 5 1 17h-76v89h78v9q2 98 3 151v29h88q-1-58-4-152 0-19-1-37h201L903 43q-2-48-15-73.5T848-66q-27-10-75-10h-79l-20 89h68q32 0 47.5 5t22 19q6.5 14 8.5 44 4 78 10 216.5t9 216.5H721v-27q-5-164-18-261T659.5 55Q629-19 569-106l-75 49H102v275H47v81h96v328H70v78h73v85h85v-85h181v85h85v-85h76v-78h-76V299h88zm-68-198 17-23-60-45q-57 86-99 142l55 42q36-45 87-116zM288 215l58-39Q301 98 240 36l-51 48q33 35 55.5 65t43.5 66zm-60 216h181v61H228v-61zm0 136h181v60H228v-60zm0-268h181v58H228v-58z"/><glyph glyph-name="uni52DF" unicode="募" d="m958 121-28-83q-89 29-163 72-5-66-10-93-6-56-35.5-77.5T620-82H485L470-9h129q36 0 48.5 8T664 33l8 50H473q-14-37-40-65-38-42-108.5-72T141-109l-28 76Q213-13 273 9.5T364 63q9 9 16 20H235v33Q164 73 73 34l-37 74q134 52 217 117l10 8H62v65h267q20 25 37 53H162v267h677V351H461q-15-28-32-53h507v-65H720q31-26 68-47 67-37 170-65zM702 800v-69h235v-66H702v-38h-96v38H391v-38h-94v38H61v66h236v69h94v-69h215v69h96zM255 410h491v47H255v-47zm491 149H255v-46h491v46zM414 208l84-1q-3-30-8-57h215q-52 38-95 83H378q-26-29-55-54-18-15-38-29h119l10 58z"/><glyph glyph-name="uni52E4" unicode="勤" d="M542 482V305H353v-48h194v-64H353v-49h176V82H353V30l179 10V-7q37 57 57 108 29 75 39 166 9 85 14 246h-94v91h96l1 52q2 117 3 136h81q-1-50-3-126-1-34-2-62h194q-1-5-1-22-10-357-17-527-3-70-32.5-96.5T766-68h-94l-18 88h81q34 0 51.5 6T811 48q7 16 8 48l15 417H721q-5-169-15-264-10-101-40-184.5T573-111l-77 52q10 15 20 29-43-2-168-9-151-9-259-16-20 0-34-2l-2 72 218 11v56H98v62h173v49H77v64h194v48H86v177h185v52H148v115H57v69h91v72h83v-72h164v73h84v-73h100v-69H479V534H353v-52h189zM395 596v53H231v-53h164zm64-232v61H353v-61h106zm-291 0h103v61H168v-61z"/><glyph glyph-name="uni52FA" unicode="勺" d="m293 810 102-28q-23-58-49-112h541q-4-103-13-337.5T863 72q-3-57-22-91t-58.5-49Q743-83 676-83H497l-20 95h165q47 0 72.5 8T752 49q12 21 14 61l8 205 10 260H296q-75-132-172-238l-83 65q80 85 149 196t103 212zm278-578-76-73q-49 55-123 133.5T253 415l69 67q156-151 249-250z"/><glyph glyph-name="uni52FE" unicode="勾" d="M874 73q-4-84-47-118T686-79H512l-21 94h161q66 0 92.5 21t30.5 75q3 26 10 209.5T795 591H276q-70-117-162-215l-76 62q147 153 235 367l99-18q-21-53-45-102h568q-3-104-11-346T874 73zm-124 52-78-48q-14 26-34 58-221-14-324-21-110-7-157-16l-29 96q25 6 36 12.5t23 21.5q41 48 100.5 147.5T387 558l88-45q-34-66-93-163t-97-151l301 22q-3 5-6 11-59 95-99 153l73 48q35-53 93-143.5T750 125z"/><glyph glyph-name="uni52FF" unicode="勿" d="M864 80q-4-59-21.5-89.5t-54-43Q752-65 685-65H550l-20 92h123q45 0 68 7.5t32.5 27Q763 81 766 120q7 83 17 228.5T798 577H694q-28-155-69-263-46-120-126-218T283-106l-81 72q135 96 213.5 184T537 346q38 95 62 231H484q-29-107-69-191-48-101-120-184T116 42l-76 69q153 100 236 220 71 103 113 246H278l-14-22q-71-113-150-196l-74 64q78 80 142 180.5T283 803l94-25q-20-53-47-107h571q-6-100-18-291.5T864 80z"/><glyph glyph-name="uni5300" unicode="匀" d="m292 812 89-29q-23-54-48-104h560q-4-100-11.5-299T869 71q-3-57-19.5-88.5t-53.5-45Q759-76 693-76H508l-21 91h171q47 0 71.5 9t35 29.5Q775 74 777 112q2 26 8 207t8 266H281q-74-121-168-221l-71 63q77 82 143 184.5T292 812zm444-441 12-39 14-53q-47-16-314.5-116T134 45l-33 94q43 13 314 112.5T736 371zM328 526q30-19 109.5-70T558 378l-59-78q-74 52-198 134l-44 30 53 74 18-12z"/><glyph glyph-name="uni5305" unicode="包" d="m257 799 100-26q-15-36-32-70h529l-2-98q-5-305-8-371-2-53-17.5-82.5t-51-42.5Q740 96 676 96H568l-19 89h111q38 0 57 6t26.5 22q7.5 16 9.5 49 1 27 2 76t2 101q1 37 2.5 97t2.5 80H279q-31-55-68-105h391V190H234V79q0-42 17.5-57T319 7h435q33 0 50 5t24.5 18.5Q836 44 839 73q7 70 7 96l96-19q-2-25-6-62t-8-66q-5-42-21-64t-48.5-31Q826-82 766-82H295q-56 0-88 12t-47.5 42Q144 2 144 57v371q-20-22-41-43l-73 69q75 76 133.5 166T257 799zm256-521v143H234V278h279z"/><glyph glyph-name="uni5306" unicode="匆" d="m279 803 98-23q-22-50-45-97h570q-5-72-21.5-324T862 80q-4-61-23.5-95T780-63q-39-14-105-14H546l-20 96h121q45 0 69 8.5t34.5 30Q761 79 765 120q4 30 18.5 235T799 593H685q-30-156-69-262l-12-30q67-29 144-62l-41-90q-66 31-145 67-30-54-69-103-79-99-218-206l-71 71q127 92 204 185 37 44 67 93l-32 14q-40 18-78 35-32-51-73-96-73-81-189-169l-65 75q154 110 238 229-51 23-96 42l42 79q41-17 102-43 40 77 67 171H284Q201 451 98 345l-61 86q72 76 138.5 178.5T279 803zm239-464q6 13 11 27 38 97 64 227H485q-32-118-73-204-1-2-1-4 48-21 107-46z"/><glyph glyph-name="uni5308" unicode="匈" d="M214 468V118h402v358h89V35H126v417q-21-20-41-40l-56 80q66 54 136.5 144.5T272 804l86-32q-15-35-36-72h580q-1-108-3.5-310.5T893 69q-2-59-17.5-93t-51-49.5Q789-89 726-89H563L544-2h151q41 0 63 8.5t31 29Q798 56 799 94q0 23 1 43 1 80 4 223.5t4 252.5H264q-9-12-19-25-51-63-105-120h74zm315 120 72-43q-58-96-124-182 67-82 124-153l-63-57q-52 67-114 143-68-80-144-151l-61 62q80 72 151 156-82 99-139 163l62 52q53-58 129-150 57 76 107 160z"/><glyph glyph-name="uni5315" unicode="匕" d="m842 685 47-98q-128-67-324-152-164-71-279-113V115q0-42 12.5-58T348 41h374q38 0 56 6t24.5 22q6.5 16 7.5 52 4 128 4 131l99-24q-5-123-10-167-4-46-17-70.5t-43-35Q813-55 757-55H341q-63 0-96 16t-46 52.5Q186 50 186 119v669h100V431q106 39 242 100 188 83 314 154z"/><glyph glyph-name="uni5316" unicode="化" d="m857 673 71-71Q772 433 594 297V89q0-38 14.5-51.5T663 24h110q42 0 57 12t16 47q2 35 3.5 81.5T851 239l92-22q-1-31-3-80t-5-89q-5-65-36.5-91.5T790-70H639q-53 0-83.5 12.5t-44 42Q498 14 498 67v161q-78-54-159-101l-50 87q107 62 209 136v439h96V423q142 116 263 250zM289 799l91-29q-40-118-96-225V-96h-97v479q-50-73-109-140l-43 95q75 90 143.5 214.5T289 799z"/><glyph glyph-name="uni5317" unicode="北" d="m885 638 57-83q-55-38-154-99-78-49-135-83V81q0-33 11-43t45-10h66q42 0 56 11t16 44q2 32 3 80.5t1 79.5l101-23q0-32-7-162-3-49-16.5-75.5T885-55q-30-11-85-11H694q-55 0-84 11.5t-41.5 41Q556 16 556 71v722h97V483q38 23 81 51 86 55 151 104zM411 793V-87h-97V84l-50-22Q190 29 144.5 9T80-20L43 74q49 19 165 70 66 29 106 47v265H71v95h243v242h97z"/><glyph glyph-name="uni5319" unicode="匙" d="M537 188v-76H380V16q29-2 66-2h509l-18-86H445q-87 0-142.5 16T205 2q-17 18-33 42-25-69-74-141L25-53Q78 17 99 80.5T128 247l83-4q-5-54-13-98 26-50 52-76 21-22 48-34v241H58v77h499v-77H380v-88h157zm-41 567V415H121v340h375zm184-525q0-29 10.5-39.5T732 180h37q34 0 45.5 9t13.5 38q2 29 3.5 66.5T833 355l87-19q-4-84-9-137-4-41-17-64t-39.5-32.5Q828 93 781 93h-62q-46 0-73 10t-40 36q-13 26-13 74v557h87V516q26 19 54 39 68 49 124 99l57-73q-63-53-134-104-54-39-101-67V230zM405 681H211v-61h194v61zM211 489h194v60H211v-60z"/><glyph glyph-name="uni5320" unicode="匠" d="M941 754v-86H219V29h726v-90H126v815h815zm-8-349v-86H737V58h-93v261H436q-2-53-8-89-8-51-31.5-94T325 38l-75 54q45 52 64.5 88t25.5 81q6 45 6 132v178q252 13 482 63l22-82q-96-20-205.5-35.5T437 494v-89h496z"/><glyph glyph-name="uni5323" unicode="匣" d="M873 592V183H632V31h-88v152H302v409h571zm65 162v-89H212V26h738v-90H118v818h820zM393 260h151v92H393v-92zm390 0v92H632v-92h151zm0 256H632v-91h151v91zm-390-91h151v91H393v-91z"/><glyph glyph-name="uni532A" unicode="匪" d="M936 744v-87H209V20h737v-88H118v812h818zm-39-364v-74H701v-87h229v-74H701V48h-86v580h86v-86h212v-77H701v-85h196zM519 622V50h-86v95H244v74h189v87H267v74h166v85H250v77h183v80h86z"/><glyph glyph-name="uni5339" unicode="匹" d="M384 499v144H211V31h736v-92H115v799h822v-95H696V303q0-29 10-39.5t37-10.5h28q35 0 45 11t12 47q3 36 3 115l86-17q-4-102-6-129-3-49-15-74t-39-34.5q-27-9.5-79-9.5h-64q-59 0-85.5 25T602 274v369H476V493q0-98-14.5-160.5t-54-114.5Q368 166 291 109l-71 61q75 58 109 101t44.5 91.5Q384 411 384 499z"/><glyph glyph-name="uni533A" unicode="区" d="M924 747v-93H221V31h722v-91H122v807h802zM752 636l80-57q-86-114-193-226 139-133 232-227l-73-72q-92 94-229 228Q436 153 301 57l-63 80q131 92 259 215-135 131-219 208l66 68q84-76 223-207 103 106 185 215z"/><glyph glyph-name="uni533B" unicode="医" d="m903 111-51-78q-120 71-277 157-31-41-83-76-71-47-195-90h649v-86H123v812h811v-87H413l75-31q-14-32-30-64h414v-78H631l-4-111h292v-82H619q-3-17-8-32 102-52 292-154zM248 379h291l2 96v15H412q-38-58-82-105l-71 50q45 48 86 111 40 63 62 117H212V24h85l-49 82q110 34 171.5 70t88.5 83q10 18 17 38H248v82z"/><glyph glyph-name="uni533E" unicode="匾" d="M894 121q0-35-8.5-53.5t-28-25.5Q838 35 801 35h-43l-15 64h34q21 0 29.5 8t8.5 26v37h-86V58h-69v112h-79V58h-69v112h-84V34h-75v280q-7-46-18-87-26-96-82-177l-49 42V2h745v-76H114v831h823v-81H599q10-18 26-51 6-10 10-18h245V420H361q-1-27-3-53h536V121zM284 467v140h256l-5 10q-6 10-11.5 20.5T514 656l76 20H204V130q41 66 59 133 21 80 21 204zm512 17v56H362v-56h434zm19-181h-86v-73h86v73zm-387-73h84v73h-84v-73zm153 0h79v73h-79v-73z"/><glyph glyph-name="uni533F" unicode="匿" d="M760 669v-70h162v-70H760v-52h-83v52H477v-53q8 16 14 33l81-22q-10-23-22-45h375v-71H508q-23-35-50-65h379V89H363v129q-51-39-116-78l-39 72q104 56 177 132 12 13 24 27H251v71h208q10 17 18 34h-83v53H248v70h146v70h83v-70h200v70h83zm180 90v-82H203V18h750v-80H111v821h829zM449 156h301v81H449v-81z"/><glyph glyph-name="uni5341" unicode="十" d="M549 794V462h395v-96H549V-93h-99v459H56v96h394v332h99z"/><glyph glyph-name="uni5343" unicode="千" d="M948 410v-92H551V-98H447v416H48v92h399v214q-184-17-323-23l-5 95q156 5 366.5 27T840 770l21-96q-130-21-310-40V410h397z"/><glyph glyph-name="uni5347" unicode="升" d="M950 440v-92H751V-90h-98v438H378q-4-97-19-163-19-85-71.5-153.5T132-113L54-39Q157 33 204 88t61 120q12 52 14 140H57v92h223v193q-95-15-178-26l-18 88q111 13 246.5 36T558 776l22-86q-83-20-201-41V440h274v351h98V440h199z"/><glyph glyph-name="uni5348" unicode="午" d="m281 815 99-30q-19-53-45-110h550v-92H568V345h376v-91H568V-95H466v349H57v91h409v238H287l-8-14q-64-114-127-192l-82 67q61 76 120.5 179T281 815z"/><glyph glyph-name="uni534A" unicode="半" d="M902 444v-87H546V227h398v-88H546V-92h-90v231H56v88h400v130H99v87h357v350h90V444h356zm-516 94-75-63q-35 43-90.5 107T122 692l69 61q70-73 195-215zm416 214 75-59q-50-62-193-219l-71 60q41 44 98.5 110T802 752z"/><glyph glyph-name="uni534E" unicode="华" d="m859 743 46-78q-121-80-255-140-24-11-49-22v-60q0-35 14-48.5t48-13.5h109q40 0 55 13t17 47q2 36 2 86l86-19q-3-73-5-96-4-47-17.5-71.5T868 306q-28-10-79-10H622q-61 0-88.5 26T506 414v52q-76-27-161-53l-32 86q103 29 193 63v230h95V601q2 2 5 3 129 58 253 139zM550 297V195h395v-92H550v-207h-97v207H57v92h396v102h97zM307 804l83-36q-45-78-90-140V273h-93v246q-54-54-126-112l-40 80q151 128 266 317z"/><glyph glyph-name="uni534F" unicode="协" d="M808 52q-3-55-18-84t-45-40.5Q715-84 661-84H561L541 8h90q34 0 51 6.5t25 23Q715 54 717 88q6 80 15.5 223T747 535H600v-1q-6-167-28-272.5T500.5 72Q451-12 357-105l-76 55q88 84 134.5 164T482 290q19 95 28 245H347v90h167v21q2 66 3 101 0 33 1 49h88l-2-74q-1-55-2-97h239l-12-208 61 26q41-94 94-232l-78-34q-37 101-80 201L808 52zM227 794V543h101v-90H227V-97h-91v550H44v90h92v251h91zm147-338 82-27q-20-66-49.5-139.5T349 162l-81 37q61 108 106 257z"/><glyph glyph-name="uni5351" unicode="卑" d="M942 144V61H590V-99h-89V61H56v83h145l-24 45q116 45 172 82v1H148v430h229q24 55 36 100l109-14q-11-30-37-86h369V272H474q-25-30-60-56-51-38-129-72h216v102h89V144h352zM763 350v100H545q-6-56-24-100h242zM240 525h216q1 29 1 71v29H240V525zm523 100H550q-2-40-2-100h215v100zM240 350h182q3 6 6 13 15 35 22 87H240V350z"/><glyph glyph-name="uni5352" unicode="卒" d="M545 281v-89h399v-87H545V-98h-91v203H54v87h400v89h91zm31 419-26-8h367v-84H88v84h385q-22 46-48 94l89 31q43-75 62-117zm-83-346-65-60q-58 64-115 122-8-14-17-27-54-79-147-162l-65 70q82 70 133 143t78 157l92-21q-15-42-32-79 63-63 138-143zm420-39-58-72Q734 351 662 411q-35-54-93-120l-68 61q56 60 91.5 119T649 597l89-21q-17-48-34-88 89-72 209-173z"/><glyph glyph-name="uni5353" unicode="卓" d="M839 572V207H547v-75h397V52H547V-96h-93V52H57v80h397v75H163v365h272v224h95v-76h379v-79H530v-69h309zM257 286h487v66H257v-66zm487 207H257v-66h487v66z"/><glyph glyph-name="uni5355" unicode="单" d="m423 689-25-18h170q22 26 48 57 42 51 66 84l82-40q-33-45-80-101h170V238H547v-88h393V64H547V-98h-93V64H60v86h394v88H146v433h174q-12 14-25 30-31 38-56 66l69 50q83-90 115-128zm339-101H547v-93h215v93zm-523-93h215v93H239v-93zm0-174h215v93H239v-93zm523 0v93H547v-93h215z"/><glyph glyph-name="uni5356" unicode="卖" d="M824 24q36-14 63.5-24T934-18l-40-79q-76 32-198 80-99 39-163 63-44-38-110-66-114-49-330-87L67-21q211 34 310 74 73 30 110 72H54v77h292q-140 79-193 107l39 64q149-78 219-120l-32-51h148q16 53 19 132l4 115h94l-4-127q-3-67-16-120h317v-77H596q-3-6-7-12 80-30 235-89zm94 524v-77l-90-146-80 29 75 117H295q109-53 192-97l-39-69q-66 38-210 112l30 54H84v77h371v86H127v78h328v84h91v-84h339v-78H546v-86h372z"/><glyph glyph-name="uni5357" unicode="南" d="M543 797v-97h396v-85H543v-82h340V31q0-48-10-73t-34.5-35Q814-87 768-87H642L625-3h109q26 0 37.5 4T787 16q4 11 4 35v400H615l71-41q-19-29-53-73-6-8-12-15h115v-73H538v-76h218v-72H538V-65h-88v166H231v72h219v76H250v73h119q-11 14-23 30-27 36-44 55l59 44H197V-90h-91v623h343v82H50v85h399v97h94zm-84-458-23-17h84q64 79 95 129H367q21-24 50-59 31-36 42-53z"/><glyph glyph-name="uni535A" unicode="博" d="M941 699v-72H658v-57h233V216h-70v-34h133v-75H821V19q0-44-11-66.5t-38-32Q745-89 694-89H586l-16 78h98q29 0 43.5 5t20 16q5.5 11 5.5 34v63H459q20-15 46-34 46-33 68-51l-51-62Q487-10 384 66l34 41H282v75h455v49h69v31H658v-41h-80v41H428v-46h-84v354h234v57H321v72h257v95h80v-95h128q-13 14-36 36-33 33-35 36l58 40q5-8 45-46 45-43 48-47l-27-19h102zM316 562v-93h-86V-97h-85v566H48v93h97v230h85V562h86zm112-235h150v56H428v-56zm230 0h148v56H658v-56zM428 448h150v55H428v-55zm378 55H658v-55h148v55z"/><glyph glyph-name="uni535C" unicode="卜" d="m925 275-59-89q-76 54-204 140-112 76-196 131V-93h-98v887h98V508l32 47q87-55 216.5-139.5T925 275z"/><glyph glyph-name="uni5360" unicode="占" d="M927 657v-92H516V398h341V-90h-98v53H242v-53h-96v488h272v397h98V657h411zM759 304H242V54h517v250z"/><glyph glyph-name="uni5361" unicode="卡" d="M516 794V674h343v-89H516V437h427v-89H55v89h367v357h94zm1-454V-97h-95v437h95zm376-229-50-82q-59 37-155 93t-168 95l43 76q69-35 174-93t156-89z"/><glyph glyph-name="uni5362" unicode="卢" d="M938 707v-86H524v-94h344V193H252q-3-37-7-67Q234 56 206-.5T123-120L42-65Q97-2 121.5 46T154 157q8 63 8 183v187h268v268h94v-88h414zM774 283v153H256V283h518z"/><glyph glyph-name="uni5364" unicode="卤" d="M877 549V-98h-92v44H215v-44h-92v647h299v247h96v-79h411v-82H518v-86h359zm-92-82H215V28h570v439zm-124-14 62-57q-73-78-155-150l169-139-58-63q-74 66-173 151-98-78-208-147l-49 70q103 63 193 132-109 92-174 145l52 57 183-152q86 73 158 153z"/><glyph glyph-name="uni5366" unicode="卦" d="m972 328-50-90q-48 43-197 167V-97h-92v891h92V524q121-92 247-196zm-622 44v-92h186v-87H350V70q138 13 214 20V-1q-94-8-254.5-22T53-46l-9 90q33 1 214 17v132H79v87h179v92h92zm211 110v-88H49v88h209v111H77v86h181v117h92V679h185v-86H350V482h211z"/><glyph glyph-name="uni5367" unicode="卧" d="M558 752v-92H391V520h128V189H391V25h175v-87H83v814h475zm409-429-58-83q-42 38-109 94-45 38-83 69V-95h-97v884h97V477l22 29q77-58 228-183zm-539-48v159H177V275h251zM177 25h123v164H177V25zm0 495h123v140H177V520z"/><glyph glyph-name="uni536B" unicode="卫" d="M853 351q-3-78-43.5-109T676 211H540l-21 99h126q41 0 63 8t31.5 26.5Q749 363 751 397q3 51 6.5 130.5T761 634H457V43h493v-96H50v96h304v591H108v98h758q-2-74-6.5-212.5T853 351z"/><glyph glyph-name="uni5370" unicode="印" d="M905 153q0-49-14-75.5t-42.5-37Q820 30 773 30H663l-19 92h88q36 0 52 5t21.5 18.5Q811 159 811 189v442H603V-94h-94v818h396V153zm-792-30v574q66 12 162 39.5T447 791l29-86q-157-60-269-84V453h259v-93H207V117l256 78 6-101Q191 19 127-8L87 77q15 11 20.5 21.5T113 123z"/><glyph glyph-name="uni5371" unicode="危" d="M171 351v112q-29-23-60-46l-64 68q95 67 174 151.5T352 810l90-27q-14-27-29-52h386v-71l-92-95-8-8h251v-84H264V341q0-152-29-251T134-107L54-47q51 67 75.5 119t33 113.5Q171 247 171 351zm640-129q-3-45-17-70.5t-45-37Q718 103 663 103H534l-17 84h127q30 0 44.5 4t20.5 14.5q6 10.5 8 32.5 2 25 2.5 44.5T721 312H440V76q0-30 6-44.5T466 12q14-5 42-5h234q50 0 68.5 13T831 74q1 8 3 38.5t3 44.5l1 20 93-25-9-117q-4-45-18.5-69T858-67.5Q827-77 770-77H481q-52 0-81.5 12t-43 40.5Q343 4 343 56v338h476l-8-172zM305 588q-14-15-30-31h303l89 93H357q-24-32-52-62z"/><glyph glyph-name="uni5373" unicode="即" d="m531 32-77-47q-28 44-53 84Q283 22 217-6q-68-30-101-49L69 21q19 15 26 28t7 31v670h376V292H186V71l167 72q-32 49-59 90l72 41q45-65 165-242zm372 129q0-64-28-89.5T781 46h-95l-17 92h75q41 0 55 12.5t14 45.5v443H645V-95h-89v827h347V161zM392 669H186V559h206v110zm0-296v108H186V373h206z"/><glyph glyph-name="uni5374" unicode="却" d="M526 646v-91H351V408h199v-91H312q-21-47-54-107-43-80-79-137l233 20q-35 67-75 140l76 45Q491 143 568 2l-82-46q-13 24-30 55Q311 3 217-4 117-12 76-21L50 73q15 5 25 11t17 16q25 31 72 119 28 53 48 98H46v91h211v147H84v91h173v152h94V646h175zm408-497q0-46-12-71t-39-35.5Q856 32 808 32h-88l-20 92h70q44 0 58.5 12t14.5 49v446H675V-99h-92v826h351V149z"/><glyph glyph-name="uni5375" unicode="卵" d="M112 239v463q179 33 351 88l31-85q-65-23-143.5-44T203 626V243l172 74q1 23 1 49v254h88V365q0-147-25-230.5T350-5q-64-56-195-117l-55 79Q223 15 279 60t76 112q6 19 10 44-80-33-129-53-65-27-99-48l-47 80q13 12 17.5 22t4.5 22zm788-64q0-63-29.5-92T774 54h-90l-20 97h73q43 0 58 13.5t15 53.5v428H634V-95h-89v828h355V175zm-94 152-71-28q-14 38-47 113.5T636 526l69 33q18-37 52-115t49-117zm-445 66-71-29q-17 45-39 97.5T212 549l71 29q17-35 40.5-91t37.5-94z"/><glyph glyph-name="uni5377" unicode="卷" d="M938 449v-77H704q34-36 75-66 73-52 179-91l-41-87q-105 46-191 114-2 1-4 3l-5-84q-4-57-29-78t-90-21H460l-14 78h120q35 0 46.5 8t13.5 32l3 32H326V54q0-39 14-52.5T394-12h284q33 0 49 4.5t23 17Q757 22 760 48l2 43 3 46 92-22q-1-27-9-99-4-44-17-66.5T788.5-82Q759-91 704-91H361q-72 0-101 27.5T231 34v152q-63-47-144-95l-52 84q154 82 243 177 10 10 19 20H60v77h294q26 40 44 84H97v78h180q-54 71-97 120l65 45q26-29 57-66t56-68l-44-31h113q7 26 15 58 16 63 23 117l92-7q-13-91-36-168h154l-39 31q66 70 118 135l67-45q-23-29-59-71-25-28-45-50h184v-78H495q-17-45-37-84h480zm-340-77H414q-29-43-68-84h327q-42 40-75 84z"/><glyph glyph-name="uni5378" unicode="卸" d="M209 350V72q53 8 98 14v319H62v85h245v125h-89q-34-61-70-113l-79 48q41 52 76 118.5T205 805l88-23q-14-40-32-81h285v-86H394V490h169v-85H394V303h152v-86H394V99q142 21 161 24l2-51 1-40Q469 20 307.5-2.5T52-39l-9 88q40 6 77 11v290h89zm706-197q0-64-27-89t-94-25h-83l-17 89h69q39 0 52 11.5t13 46.5v449H680V-97h-88v819h323V153z"/><glyph glyph-name="uni537F" unicode="卿" d="M354 78v677h255V285H428V83l104 62q-22 50-41 91l66 27q65-137 109-241v714h243V144q0-55-21-75.5T812 48h-49l-16 79h39q30 0 39.5 9.5T835 174v478h-95V-95h-74V16l-65-27q-19 43-36 82l-3-2Q486 27 444.5 2.5T375-44l-49 73q17 12 22.5 22.5T354 78zM76 246v460q49 14 110 37t113 46l33-68q-80-44-182-77V255l67 34v323h74V338q0-135-14-208T225.5 7Q188-43 108-102L53-39q78 54 110 88.5t43 83.5q5 26 8 66-36-17-60-29-37-18-66-37l-33 78q21 17 21 35zm461 430H428V558h109v118zm0-312v117H428V364h109z"/><glyph glyph-name="uni5382" unicode="厂" d="M160 476v256h781v-99H259V468q0-156-11-250.5T210.5 51Q184-21 131-109L34-65q56 92 81.5 156.5t35 148.5q9.5 84 9.5 236z"/><glyph glyph-name="uni5385" unicode="厅" d="M145 487v259h801v-96H245V485q0-176-9-272.5t-32.5-165Q180-21 129-107L33-57q51 79 73.5 141.5T137 234q8 87 8 253zM600 75v349H285v96h669v-96H698V44q0-52-13-79.5t-44.5-39Q609-86 549-86H417l-20 98h127q33 0 48.5 5T594 35q6 13 6 40z"/><glyph glyph-name="uni5386" unicode="历" d="M866 48q-3-48-18.5-75t-50-39.5Q763-79 701-79H563l-20 93h130q42 0 61.5 6T762 41.5Q770 57 772 92q4 56 9.5 149.5T789 392H573q-6-106-26-180-24-94-80.5-167.5T304-106l-76 66Q329 34 381.5 98T456 241q18 62 24 151H291v90h192q1 24 2 52 1 52 1 86h93q0-45-2-138h313Q871 99 866 48zM147 395v350h798v-93H243V404q0-123-9-204T200 48q-25-71-73-151L35-57q46 74 69.5 135.5t33 134Q147 285 147 395z"/><glyph glyph-name="uni5389" unicode="厉" d="M854 290Q840 72 838 53q-4-49-19.5-75.5t-49-38Q736-72 675-72H560l-19 85h100q42 0 64 6t32 22q10 16 13 49 6 66 12 174H499q-8-54-19-96-21-76-68.5-140.5T276-106l-74 61q85 66 127 117.5T389.5 190Q408 256 416 371q3 48 4 99H247v85h691v-85H514q0-13-1-28-1-46-4-84l-1-10h349l-3-58zM146 391v350h799v-90H241V399q0-114-9.5-197T195 43q-27-76-77-155L26-70q68 105 94 204.5T146 391z"/><glyph glyph-name="uni538B" unicode="压" d="M620 614V422h281v-92H620V39h334v-92H213v92h308v291H275v92h246v192h99zM143 461v278h793v-91H241V471q0-165-9.5-261T197 43.5Q172-27 120-111L26-65q52 82 75.5 141T134 219q9 84 9 242zm761-333-68-64q-24 30-82 91.5T665 247l64 59q29-28 83.5-83t91.5-95z"/><glyph glyph-name="uni538C" unicode="厌" d="m965-29-52-86Q764-31 676 87q-50 66-87 153-20-49-50-94-87-130-280-252l-63 79q125 71 199.5 141T503 264q18 43 26 92H276v91h261v177h90V447h315v-91H639q31-115 102-209Q828 32 965-29zM149 399v349h796v-90H241V409q0-172-25-285t-94-227L35-61q44 71 68 134.5t35 140Q149 290 149 399zm738 113-58-60Q714 557 686 580l55 57q32-26 77-64t69-61z"/><glyph glyph-name="uni5395" unicode="厕" d="M117 411v345h821v-82H200V379q0-125-8.5-203T161 35.5Q139-27 96-98L18-50Q59 18 79.5 76t29 134q8.5 76 8.5 201zm481 190V129h-75v392H345V127h-75v474h328zM398 295v182h74V278q0-61-8-108l77-77q55-56 98-102l-57-61L467 56q-16 17-28 29-21-45-56-83-47-49-135-104l-51 66q86 52 128 96t57.5 97Q398 210 398 295zM810 49v574h81V20q0-58-26.5-80T769-82h-91L661-2h88q37 0 49 11t12 40zm-72 512V96h-76v465h76z"/><glyph glyph-name="uni5398" unicode="厘" d="M903 167V93H634V12h318v-72H225v72h326v81H283v74h268v78H311v351h564V245H634v-78h269zM131 403v342h819v-82H219V412q0-132-8.5-215.5T180 44q-22-69-65-150L29-62Q72 13 93.5 78T123 217q8 74 8 186zm261-84h159v68H392v-68zm0 135h159v68H392v-68zm399-135v68H634v-68h157zm0 203H634v-68h157v68z"/><glyph glyph-name="uni539A" unicode="厚" d="M884 634V356H305v278h579zM137 484v272h809v-76H230V492q0-176-9.5-272.5T187.5 56Q164-11 114-99L28-50q50 78 72 141.5t29.5 148Q137 324 137 484zm749-240-222-84h290V89H651V16q0-43-10-65.5T606-81q-25-9-75-9H399l-17 78h117q27 0 39 3.5t16.5 12Q559 12 559 31v58H237v71h322v25l148 56H302v68h584v-65zM396 418h396v46H396v-46zm396 152H396v-45h396v45z"/><glyph glyph-name="uni539F" unicode="原" d="M564 55v165H323v365h188q20 49 29 81H237V423q0-138-10-227.5T191.5 35Q166-36 118-110L33-49q48 76 70.5 136t31 133.5Q143 294 143 420v333h808v-87H602l38-7q-13-42-24-74h266V220H660V20q0-43-12-66t-39-32.5Q582-88 532-88H426L408-2h87q43 0 56 11.5T564 55zM412 296h383v69H412v-69zm383 214H412v-69h383v69zM401 193l73-51q-34-48-89.5-108.5T274-78L211-9q54 46 105 100t85 102zM968-2l-66-61q-74 75-197 193l63 57q28-26 200-189z"/><glyph glyph-name="uni53A2" unicode="厢" d="m549 218-59-51q-42 56-73 96V-93h-85v313l-2-4q-42-87-93-155l-47 75q-7-45-18-87-19-71-55-152L27-66Q78 40 97.5 143T117 404v344h826v-89H207V414q0-125-8-209-3-33-8-63 52 68 95 159 27 57 46 111h-95v83h95v132h85V495h92v-83h-92v-83l25 21q20-22 54-64t53-68zm353 374V-90h-85v56H635v-58h-86v684h353zm-85-83H635V409h182v100zM635 49h182v99H635V49zm0 180h182v98H635v-98z"/><glyph glyph-name="uni53A6" unicode="厦" d="M869 540V224H468l31-13q-11-15-23-29h398v-58Q798 63 711 22q-4-2-7-4 111-28 249-43l-14-76Q792-78 694-51q-48 14-92 30-43-15-91-28-113-30-279-57l-16 75q151 19 285 54-56 30-118 72-62-46-140-88l-33 66q76 39 124 76 40 32 78 75h-96v316h211q7 18 14 41H255v59h682v-59H628q-8-22-15-41h256zM139 418v333h809v-70H226V421q0-131-10.5-222t-35-163.5Q156-37 112-113L34-70Q77 1 99.5 66.5t31 146Q139 293 139 418zm648 67H398v-38h389v38zM398 279h389v36H398v-36zm0 84h389v36H398v-36zM597 52q105 35 160 72H451q64-41 146-72z"/><glyph glyph-name="uni53A8" unicode="厨" d="M126 368v378h812v-87H216V377q0-121-9-198T177 39.5Q156-23 115-103L29-60q56 101 76.5 193T126 368zM791 59v339H624v88h167v138h86V486h79v-88h-79V23q0-45-11.5-68.5t-38.5-33Q800-88 747-88h-84L646 3h78q41 0 54 11.5T791 59zM589 440V204H275v236h314zm-82-240 76-34q-37-75-61-120l107 11-1-42v-38q-24-1-182-17.5T216-65l-8 80 221 22q17 32 37 74 26 53 41 89zm108 387v-82H256v82h359zm76-256q9-18 39.5-78t45.5-94l-73-36q-8 18-41.5 89T607 324l72 31 12-24zm-340-54h161v91H351v-91zm64-210-71-33q-14 32-32 69.5T279 170l70 29q8-16 31.5-61.5T415 67z"/><glyph glyph-name="uni53BB" unicode="去" d="M947 379v-90H500q-37-51-92-115-77-88-134-143l435 22q-66 79-129 152l71 53q93-102 260-296l-74-61q-28 34-56 67l-41-2q-135-5-266.5-10t-219-10Q167-59 130-65L99 27q27 7 42 15t29 19q46 38 127 129 49 55 81 99H50v90h404v182H116v89h338v149h91V650h336v-89H545V379h402z"/><glyph glyph-name="uni53BF" unicode="县" d="M803 53q43-37 97-87l-63-68q-25 26-62 61-245-6-403-12-165-6-236-15l-25 87q26 4 39 8t25 12q37 27 97 83 28 27 52 51H52v81h125v503h643V254h128v-81H670L803 53zM270 254h460v90H270v-90zm0 168h460v89H270v-89zm460 253H270v-88h460v88zM293 21l398 17q-57 53-96 87l48 48H449q-58-62-156-152z"/><glyph glyph-name="uni53C1" unicode="叁" d="m968 243-42-84q-118 48-204 113-1 0-2 1v-37H283v35q-84-63-205-121l-47 78q147 62 233 141 18 16 34 34H63v80h297q24 37 45 80-199-5-259-10l-17 75q29 5 41.5 8t22.5 9q38 21 109.5 74T425 815l68-49q-38-33-75-60.5t-67.5-48Q320 637 311 631l368 9q-52 40-96 72l49 59q78-53 265-193l-54-65q-37 29-71 56l-67-1q-156-2-270-4l66-16q-15-34-33-65h469v-80H694q41-40 91-74 77-50 183-86zM894 20v-78H107v78h787zM787 168V92H212v76h575zM345 323l-12-11h340q-45 41-83 91H416q-33-44-71-80z"/><glyph glyph-name="uni53C2" unicode="参" d="m966 252-41-86q-120 50-207 115-77 57-133 133H411q-6-8-12-15-52-64-128-119-9-7-20-14 81 17 162 42 96 29 172 63l31-69q-172-77-366-115l-23 63q-64-40-149-82l-47 78q144 59 229 136 17 15 33 32H62v79h293q24 36 44 77-52-2-100-3-103-2-144-6l-20 73q18 1 30.5 5.5T193 652q40 21 111.5 71.5T425 816l70-51q-86-73-194-132l377 9q-56 40-94 66l51 63q170-117 264-187l-51-65q-41 30-77 56-126-1-242-3-49-1-95-2l65-13q-17-34-35-64h472v-79H691q41-42 92-76 75-50 183-86zm-151-85 42-71Q718 23 545.5-27T133-113l-29 76Q357-2 516 45t299 122zM694 276l36-69Q508 95 188 39l-27 68q301 50 533 169z"/><glyph glyph-name="uni53C8" unicode="又" d="M84-97 34-1q234 92 362 175 10 6 19 12-47 49-85 103-84 123-151 318l92 32q66-179 142-291 36-53 83-99 60 53 102 114 74 106 133 281H109v96h728v-96q-65-202-150-331-47-71-111-132 19-14 39-27Q742 72 958-3l-38-104Q688-17 551 74q-28 19-54 40-17-13-35-25Q322-6 84-97z"/><glyph glyph-name="uni53C9" unicode="叉" d="M85-112 35-13q231 93 363 178l19 13q-54 53-95 114-85 124-154 320l86 31H97v96h749v-96q-55-200-149-334-51-73-117-135 14-10 30-19Q737 75 965-12l-50-99Q682-18 544 75q-23 16-45 32-19-14-39-27Q316-16 85-112zm319 458q40-57 93-106 65 56 111 121 79 110 134 282H260q66-186 144-297zm195 102-83-57q-60 96-131 194l83 53q76-101 131-190z"/><glyph glyph-name="uni53CA" unicode="及" d="M785 654 671 499h193v-88q-56-122-134-214-26-30-56-59Q793 54 963-12l-56-90Q725-18 601 76q-30-23-64-44-116-74-286-141l-50 86Q354 34 458 95q37 21 69 44-78 74-133 159-32 49-57 105-17-128-56-227Q229 47 113-92L32-36q77 87 122.5 165T223 294.5Q246 382 253 498q2 31 5 107 1 30 2 51H102v90h683v-92zm-434-51q42-137 107-239 59-93 141-167 19 17 35 35 72 76 125 179H549v79l118 166H353q-1-28-2-53z"/><glyph glyph-name="uni53CB" unicode="友" d="m959-11-42-97Q750-48 639 20q-30 19-58 39-26-18-54-35-115-68-290-134l-51 91q195 64 319 142-29 27-53 57-59 71-107 165l-10-30Q261 94 99-85L24-12q108 117 171.5 250.5T287 507q8 37 14 77H74v91h240q8 60 13 124l102-5q-5-61-12-119h532v-91H403q-10-57-23-112h469v-88q-54-120-131-206-27-30-60-59 17-11 35-21Q798 37 959-11zM519 242q28-34 63-64 108 88 167 206H425q43-82 94-142z"/><glyph glyph-name="uni53CC" unicode="双" d="m402-114-65 82q157 96 247 188 22 22 41 45-36 62-62 129-48 124-72 288l88 15q25-158 69-271 16-40 36-78 23 37 40 76 50 113 80 282H481v93h417v-93q-32-186-87-314-30-69-72-131 15-20 31-39 78-91 205-180l-64-82Q778-2 694 102l-14 18-21-23Q563-7 402-114zm55 222-78-57q-35 61-77 132-9-15-19-30Q215 46 99-84L30-8q139 147 214 287l-16 26Q140 448 76 546l75 48q62-95 139-216 48 120 70 262H66v95h387v-95q-23-153-62-267-17-47-38-94 60-97 104-171z"/><glyph glyph-name="uni53CD" unicode="反" d="m967-11-48-99Q757-53 644 14q-32 19-61 39-21-14-44-28-114-68-296-134l-55 93Q349 35 457 94q23 12 44 25-26 24-50 50-81 88-148 212l58 38h-96q-1-129-12-211-11-87-41-157.5T123-107L33-52q60 84 88.5 146.5T160 234q10 77 10 212v260q159 6 356.5 22.5T880 768l18-94q-148-20-315.5-34.5T265 618V513h602v-94q-61-140-137-233-30-36-67-70Q787 38 967-11zM581 177q31 26 57 54 72 78 118 188H388q77-144 193-242z"/><glyph glyph-name="uni53D1" unicode="发" d="m952-17-39-96Q749-61 634 3q-34 19-64 40-31-19-65-36-110-55-290-112l-42 90q160 46 266 95 26 12 50 25-25 22-46 46-51 55-93 123-24-50-53-96Q221 59 92-69L23 7q165 155 250 338 37 81 63 177H106v79q11 28 26 85t22 93l92-18q-26-106-40-153h152q18 87 29 185l96-7q-12-96-28-178h480v-86H437q-10-43-22-82-3-12-7-24h425v-86q-65-117-141-192-18-18-39-35 19-12 40-22 107-56 259-98zM513 213q28-29 60-55 21 15 39 32 68 60 111 139H425q39-65 88-116zm312 493-47-79q-78 48-176 103l47 76q29-15 83.5-46t92.5-54z"/><glyph glyph-name="uni53D4" unicode="叔" d="m477-109-64 76q133 97 211 188 15 18 28 36-35 62-58 131-41 119-62 289l87 11q18-155 57-265 15-40 33-78 20 38 36 79 44 111 69 273H517v93h390v-93q-28-176-77-301-28-73-69-140 12-16 25-32 71-89 187-175l-67-78Q782 7 708 105q-1 2-3 4-4-4-7-8Q614-3 477-109zM265 64v311H47v91h178v328h95V677h180v-88H320V466h206v-91H357V28q0-43-10.5-65.5t-36.5-32Q284-79 236-79h-80l-18 89h69q34 0 46 11t12 43zM134 311l83-19q-21-71-50.5-148T109 7L29 36q28 55 55.5 128.5T134 311zm426-207-77-35q-52 125-95 216l73 30q81-169 99-211z"/><glyph glyph-name="uni53D6" unicode="取" d="M523 757v-87h-58V167q45 8 81 15l2-41 2-47q-37-6-85-14v-181h-87V65q-48-8-103-18Q98 17 50 7l-9 91q23 2 85 12v560H68v87h455zM972-7l-61-76Q791 15 721 106 650 12 533-86l-62 71q117 92 184 181l14 19q-36 62-59 133-38 114-60 282l85 12q19-152 55-257 14-42 33-80 20 41 35 84 36 105 62 262H541v90h371v-90q-29-171-69-287-27-77-68-147 8-11 17-23Q859 79 972-7zM265 133q61 11 113 19v110H215V125q23 4 50 8zm-50 414h163v123H215V547zm0-202h163v119H215V345z"/><glyph glyph-name="uni53D7" unicode="受" d="m864 777 19-81q-54-5-118-10l72-32q-21-36-53-86-22-34-40-60h168V306h-84v122H172V306H87v202h161q-10 18-27 45-27 45-44 72l60 31q-67-3-120-4l-12 80q169 5 397.5 18T864 777zM76-105 44-16q167 30 280 66 42 14 79 29-90 61-167 151l30 23h-61v82h581v-82q-75-94-169-159l-25-17q30-12 64-23 122-39 298-65l-32-89Q742-67 619-25 553-2 497 25 448 1 393-18 264-66 76-105zm509 637-51-24h155l-35 19q24 33 54 81 29 45 47 78-109-8-248-16l78-138zm-246-3-44-21h202q-13 25-36 65-30 53-37 65l62 31q-128-7-229-12 16-24 37-58 25-38 45-70zm111-380q21-14 45-27 11 7 22 13 80 49 143 118H332q52-59 118-104z"/><glyph glyph-name="uni53D8" unicode="变" d="M75-114 43-28Q254 8 396 61q-14 9-27 18-90 63-156 155l25 15H129v81h682v-79q-70-93-159-157-24-18-52-34l38-12q123-37 318-70l-32-90Q724-72 592-27q-50 17-95 35-34-14-71-27-137-50-351-95zm492 811-14-4h375v-84H652V366h-87v243H437V366h-88v243H73v84h391q-29 65-43 94l93 28q29-58 53-118zM435 140q28-18 60-35 120 61 191 144H315q55-64 120-109zM257 573l59-57q-42-47-105-102.5T88 318l-52 72q58 38 118 88t103 95zm707-166-53-73q-103 86-224 175l54 65q86-61 223-167z"/><glyph glyph-name="uni53D9" unicode="叙" d="M552 352v-88H356V8q0-55-23.5-75.5T250-88h-79L154-5h62q32 0 43 9.5T270 41v223H61v88h209v95H137v44q-28-23-57-45l-48 75q78 57 148 137t108 156l86-31q-9-18-19-36l100-82 101-82-56-71q-8 7-17 16v-81H356v-95h196zm-50-458-67 73q125 85 205 179 18 21 34 43-32 63-55 133-40 124-63 296l83 10q18-154 55-268 15-44 34-86 23 40 40 84 48 117 71 275H528v95h398v-93q-26-178-72-302-29-80-75-152l20-29q68-94 177-180l-64-72Q800-4 730 97l-6 8Q641 3 502-106zM132 232l76-22q-17-58-47-129T101-43L25-10q31 54 60.5 120.5T132 232zm178 446q-25-34-55-69-36-41-75-78h299q-64 59-169 147zM549 65l-70-40-22 44q-56 112-66 131l69 34q45-77 89-169z"/><glyph glyph-name="uni53DB" unicode="叛" d="m967-32-46-82Q817-43 749 27q-12 13-24 27l-16-16q-76-77-194-157l-57 76Q574 31 645 98l27 27q-19 29-34 61-44 88-71 210l74 22q28-118 66-195l18-32q18 26 33 54 43 80 66 189H563q-1-126-18-221-18-97-55.5-173.5T390-112l-74 61q59 68 93.5 134t51 153Q477 323 477 447v267q97 5 211 21.5T904 774l19-86q-185-39-360-57V520h348v-87q-28-129-77-224-25-47-57-91 14-15 29-30 60-58 161-120zM428 458v-85H294q0-54-2-98h152v-88H285q-2-17-4-32-13-81-48-142.5T121-129L55-59q68 67 98.5 114.5T196 175l2 12H44v88h162q3 44 3 98H69v85h140v335h85V458h134zm-39 268 72-31q-15-41-42-102.5T371 491l-68 38q23 44 48 101t38 96zm-271-21q58-127 78-176l-70-32Q85 601 42 692l67 33 9-20z"/><glyph glyph-name="uni53E0" unicode="叠" d="M801 253V-17h138v-63H55v63h138v270h608zM526 361l-24 47q59 13 106 26-53 14-87 22l17 46q43-10 160-40 56 19 97 41H520v54h377v-56q-45-31-116-61 100-26 145-39l-16-51h1V203h-75v91H158v-91H84v147h826q-43 14-182 52-14 4-28 7-83-28-174-48zM274 696q124-17 227-32 108 22 203 50H140v57h701v-62q-101-38-203-65 136-20 220-34l-11-52q-111 19-335 53-5 1-11 2-157-31-374-52l-17 52q121 9 231 24-102 16-168 25l14 47q15-3 87-13zM94 350l-26 49q85 18 144 33-54 16-94 28l17 43H95v54h389v-54q-44-34-112-65 79-23 108-32l-20-49q-42 14-156 48l-8 2q-92-34-202-57zM274-17h447v40H274v-40zm447 217H274v-39h447v39zM274 72h447v38H274V72zM170 497q40-12 126-37 51 19 89 43H147l23-6z"/><glyph glyph-name="uni53E3" unicode="口" d="M864 709V-77h-98V1H234v-83h-98v791h728zm-98-99H234V100h532v510z"/><glyph glyph-name="uni53E4" unicode="古" d="M939 637v-90H549V371h280V-99h-93v59H264v-59h-94v470h282v176H61v90h391v153h97V637h390zM736 280H264V49h472v231z"/><glyph glyph-name="uni53E5" unicode="句" d="M618 480V80H261V10h-95v425q-32-36-67-70l-68 76q79 78 144.5 172.5T283 803l97-26q-18-42-38-82h543l-3-159-8-478q-1-58-18.5-89T799-75q-39-13-110-13H542L521 9h133q51 0 76 8.5t33.5 27Q772 63 773 100q3 90 6.5 249.5T784 598H287q-14-22-28-43-26-38-56-75h415zm-97-306v212H261V174h260z"/><glyph glyph-name="uni53E6" unicode="另" d="M846 50q-7-72-46-101.5T670-81H504l-19 91h160q44 0 66 6.5T742.5 40Q752 57 756 91q3 18 6.5 63t4.5 70H424q-10-47-24-84-27-70-97.5-129T95-110L44-27Q171 28 232 74.5t83 99.5q9 22 15 50H62v88h283l1 11q5 61 6 95H155v339h690V418H444l-4-49-3-47-1-10h432q-4-49-10.5-128.5T846 50zM249 506h502v163H249V506z"/><glyph glyph-name="uni53E8" unicode="叨" d="M532 496q1 11 1 26t1 30q0 40 1 78H419v95h485q-2-36-10.5-235.5T875 63q-3-55-18.5-85T807-64.5Q773-77 713-77H603l-19 93h94q42 0 63 6.5T771 47q9 18 11 54l26 529H628l-2-94q-1-19-1-43-5-156-25.5-251.5T533.5 69Q488-8 396-108l-81 60q89 91 133 159.5t62.5 155Q529 353 532 496zM385 718V68H177V-5H92v723h293zm-85-555v462H177V163h123z"/><glyph glyph-name="uni53EA" unicode="只" d="M843 742V267H156v475h687zM251 357h497v295H251V357zm84-123 75-69Q353 98 269.5 23T110-105L38-21q75 46 156 116t141 139zM824 94Q935-1 954-17l-74-84Q820-42 734 35T590 159l71 75L824 94z"/><glyph glyph-name="uni53EB" unicode="叫" d="M415 718V61H191v-73h-89v730h313zm94-477v459h90V231l190 75v481h90V-93h-90v301q-88-32-145-54-72-27-119-52l-44 91q18 9 23 18.5t5 29.5zm-183-91v482H191V150h135z"/><glyph glyph-name="uni53EC" unicode="召" d="M845 309V-97h-92v47H248v-47h-91v406h688zM319 638l2 15H86v87h782q-2-44-6.5-120.5T854 517q-4-54-20.5-83T782 393q-35-12-97-12H523l-19 87h155q40 0 61 6.5t30.5 23Q760 514 763 547q1 8 2.5 24t2.5 40l4 42H417q-3-15-5-27-15-78-48-133t-96-102.5Q205 343 94 289l-62 78q99 44 157 83t88 83.5Q307 578 319 638zm434-417H248V36h505v185z"/><glyph glyph-name="uni53ED" unicode="叭" d="M370 722V83q21 36 37 70 42 89 60.5 226T488 762h90q-2-255-22-402.5T492.5 114Q449 16 363-96l-81 55q48 60 82 115H170V12H85v710h285zM966-41l-87-54Q801 16 760 120.5T700 376q-19 151-24 405h90q5-237 24.5-382.5t60-244.5Q891 55 966-41zM285 166v466H170V166h115z"/><glyph glyph-name="uni53EE" unicode="叮" d="M411 729V69H184V-6H89v735h322zM681 76v554H449v99h505v-99H778V47q0-49-13.5-76.5t-45-39.5Q688-81 633-81H509l-20 95h119q42 0 57.5 13T681 76zm-364 88v470H184V164h133z"/><glyph glyph-name="uni53EF" unicode="可" d="M580 523V120H245V49h-88v474h423zM736 79v573H48v89h907v-89H828V54q0-58-13-87t-46.5-41Q735-86 669-86H535L516 4h133q36 0 54 6t25.5 21.5Q736 47 736 79zM491 207v228H245V207h246z"/><glyph glyph-name="uni53F0" unicode="台" d="M838 317V-97h-95v46H255v-46h-95v414h678zm90 113-67-61q-26 28-59 63-285-6-464-13-184-7-240-15l-25 94q36 6 52.5 11.5T157 525q55 41 137.5 129T424 810l88-42q-52-68-122-145.5T272 503l446 18q-82 86-129 131l65 58q52-50 136-136t138-144zM743 227H255V37h488v190z"/><glyph glyph-name="uni53F2" unicode="史" d="M879 666V302H548q0-121-38-192-5-10-11-19 60-28 133-46Q754 14 946 2l-22-95Q724-77 594-42q-90 25-164 63-25-17-56-33-98-50-291-98L47-19q172 34 259 75 20 9 38 20-86 64-171 167l75 59H121v364h335v126h92V666h331zM215 389h241v189H215V389zm571 0v189H548V389h238zM424 153q32 56 32 149H248q84-103 168-163l8 14z"/><glyph glyph-name="uni53F3" unicode="右" d="M861 392V-88h-96v59H338v-59h-95v341q-73-73-165-147l-50 98q182 127 277 278 30 47 55 95H70v92h332q25 62 42 127l107-17q-15-56-36-110h430v-92H474q-34-71-78-139-15-23-33-46h498zm-96-94H338V62h427v236z"/><glyph glyph-name="uni53F6" unicode="叶" d="M395 705V46H173v-74H84v733h311zm331 89V471h224v-92H726V-96h-89v475H422v92h215v323h89zM307 139v473H173V139h134z"/><glyph glyph-name="uni53F7" unicode="号" d="M952 408v-82H325l-18-84h508l-2-32q-2-21-6.5-78.5T800 59q-7-61-24.5-91T719-74q-39-12-114-12H392L373 4h204q49 0 72 5.5t32.5 21Q691 46 694 80q7 46 9 82H183l37 164H49v82h903zM827 755V482H172v273h655zM272 562h456v113H272V562z"/><glyph glyph-name="uni53F8" unicode="司" d="M644 383V39H249v-63h-98v407h493zM888 34q0-67-30-94.5T752-88H599L580 3h132q33 0 49.5 5.5t23 20Q791 43 791 72v586H119v92h769V34zM735 562v-88H71v88h664zM546 128v166H249V128h297z"/><glyph glyph-name="uni53F9" unicode="叹" d="m390-110-62 85Q485 75 579 169q11 11 22 23-47 71-78 147-49 120-79 281l91 16q25-148 69-256 24-57 59-112 36 51 62 106 53 112 80 268H417v90h486v-89q-34-177-90-302-35-80-89-153 5-6 11-12 86-96 233-195l-59-86Q756 2 664 110q-1 1-2 3l-4-4Q558 2 390-110zm-9 826V78H176V4H86v712h295zm-91-546v455H176V170h114z"/><glyph glyph-name="uni53FC" unicode="叼" d="M401 723V49H183v-74H92v748h309zm501-217q-11-399-13-430-4-84-43-117T718-74H565l-19 92h140q58 0 81.5 21t25.5 75q3 47 9 250.5t7 276.5H456v96h453q-1-22-2.5-79.5T902 506zM310 144v483H183V144h127zm416 361 27-33 33-40q-68-60-162.5-132.5T456 179l-53 84q78 51 167.5 117.5T726 505z"/><glyph glyph-name="uni53FD" unicode="叽" d="M459 399v337h343V57q0-25 6-33.5t25-8.5h9q14 0 20.5 9.5T870 58q1 15 2.5 82t2.5 86l87-17-6-186q-1-54-28-76t-84-22h-38q-50 0-73 23t-23 80v612H551V399q0-137-12.5-221t-47-150.5Q457-39 387-112l-79 56q67 71 97.5 125t42 126Q459 267 459 399zm-89 310V73H174V2H88v707h282zm-88-547v460H174V162h108z"/><glyph glyph-name="uni5401" unicode="吁" d="M399 723V67H184V-5H95v728h304zm556-304v-92H744V45q0-69-33-97T595-80H479l-18 93h115q45 0 60 12.5T651 74v253H430v92h221v221H457v91h458v-91H744V419h211zM312 156v480H184V156h128z"/><glyph glyph-name="uni5403" unicode="吃" d="M710 383H474v82l-34-42-60 58V67H184V-3H95v717h285V506q52 62 92 130 44 76 82 171l95-32q-21-52-44-99h335v-90H556q-34-58-77-114h368v-87Q718 263 652.5 195.5t-88-99Q542 65 542 48q-1-30 34-30h207q36 0 48 11t14 44q2 42 2 116l94-20q-2-31-4-69t-4-63q-3-41-16.5-64t-42-32.5Q846-69 795-69H543q-46 0-78 25.5T433 24q0 35 22.5 75.5t81 106Q595 271 710 383zM293 159v465H184V159h109z"/><glyph glyph-name="uni5404" unicode="各" d="m956 375-31-94q-170 32-297 75-65 22-124 49-178-82-435-137l-36 91q203 35 370 101l-4 2q-78 48-149 112-68-62-143-115l-54 70q80 55 158.5 133.5T336 810l97-27q-20-30-44-59h454v-82Q742 537 605 458q31-12 64-22 119-36 287-61zm-136-93V-93h-92v51H269v-51h-93v375h644zm-92-84H269V40h459v158zM462 525q20-11 41-22 134 64 211 139H318q-1-2-3-4 69-66 147-113z"/><glyph glyph-name="uni5406" unicode="吆" d="M389 706V56H185v-74H95v724h294zM959-53l-92-38q-12 32-31 76-156-8-249-16-102-8-154-19L399 52q22 10 33 18.5T460 97q72 78 180 242l14 20q-64-4-109-8-72-6-117-17l-34 98q19 7 30 15.5t22 23.5q38 52 93.5 153T625 795l88-38q-30-63-85-161.5T534 435l179 18q61 101 107 193l85-45q-69-134-179.5-300T546 56l252 21q-43 99-72 163l87 38L959-53zM297 148v465H185V148h112z"/><glyph glyph-name="uni5408" unicode="合" d="M827 309V-90h-95v45H266v-44h-97v398h658zM459 799h81q67-102 177.5-187T968 465l-48-91q-94 46-173 97v-58H248v55q-81-53-172-97l-43 93q136 61 250.5 151T459 799zm273-576H266V41h466v182zM500 695q-68-87-179-173-14-11-29-22h413q-124 89-205 195z"/><glyph glyph-name="uni5409" unicode="吉" d="M832 273v-374h-98v46H264v-46h-97v374h665zm48 181v-86H118v86h332v126H63v86h387v127h99V666h386v-86H549V454h331zM734 184H264V32h470v152z"/><glyph glyph-name="uni540A" unicode="吊" d="M823 772V462H536V359h348V97q0-44-12-67T830.5-3Q801-13 746-13H642l-18 88h95q30 0 45 5t20 16q5 11 5 32v141H536V-83h-89v352H199V-18h-94v377h342v103H161v310h662zM252 542h479v148H252V542z"/><glyph glyph-name="uni540C" unicode="同" d="M743 559v-82H245v82h498zm-52-173V63H297v323h394zM382 141h224v165H382V141zM892 36q0-50-12-76t-40.5-36.5Q811-87 758-87H641L624-2h104q30 0 44.5 5t20 18q5.5 13 5.5 38v600H189V-93H97v839h795V36z"/><glyph glyph-name="uni540D" unicode="名" d="m479 467-65-69-52 40-94 71q-61-48-129-90l-58 77q97 56 194.5 143T432 804l94-27q-27-39-59-77h408v-86Q739 463 549 355q-34-19-71-37h394V-90h-91v48H330v-48h-92v307q-78-27-165-52l-36 84q250 68 422 158.5T748 614H387q-13-13-28-27-9-9-19-17 75-54 139-103zm302-235H330V43h451v189z"/><glyph glyph-name="uni540E" unicode="后" d="M854 309V-93h-91v57H393v-57h-89v402h550zM157 476v243q169 4 360 18.5T859 774l23-92q-124-17-299-30t-338-20V515h689v-85H245q-1-112-11-190-11-86-41-163T106-87L23-30q57 81 85 148.5t38.5 148Q157 347 157 476zm606-251H393V49h370v176z"/><glyph glyph-name="uni540F" unicode="吏" d="M874 516V229H546q-2-100-40-161-1-2-1-3 57-20 124-34Q758 5 953-5l-28-91Q718-81 588-52 504-33 434-3q-29-19-65-35-98-42-286-77L42-25Q218 2 306 35q15 6 29 12-81 53-160 137l48 45h-96v287h328v90H74v84h381v101h91V690h381v-84H546v-90h328zM215 312h240v122H215V312zm570 0v122H546V312h239zM424 116q28 43 31 113H254q71-75 154-121l8-4 8 12z"/></font>
</defs>
</svg>
