<?xml version="1.0" standalone="no"?>
<!DOCTYPE svg PUBLIC "-//W3C//DTD SVG 1.1//EN" "http://www.w3.org/Graphics/SVG/1.1/DTD/svg11.dtd" >
<svg xmlns="http://www.w3.org/2000/svg" xmlns:xlink="http://www.w3.org/1999/xlink" version="1.1">
<metadata>
Created by FontForge 20201107 at Thu Sep 21 14:42:34 2023
 By 
Copyright(c) vivo Mobile Communication Co., Ltd. 
</metadata>
<defs>
<font id="vivoSansSC400" horiz-adv-x="1000" >
  <font-face 
    font-family="vivo Sans SC 400"
    font-weight="400"
    font-stretch="normal"
    units-per-em="1000"
    panose-1="2 0 5 0 0 0 0 0 0 0"
    ascent="850"
    descent="-150"
    x-height="505"
    cap-height="709"
    bbox="-56 -287 969 816"
    underline-thickness="50"
    underline-position="-125"
    unicode-range="U+0020-9F9F"
  />
<missing-glyph 
 />
    <glyph glyph-name=".notdef" 
 />
    <glyph glyph-name=".null" horiz-adv-x="0" 
 />
    <glyph glyph-name="nonmarkingreturn" horiz-adv-x="333" 
 />
    <glyph glyph-name="space" unicode=" " horiz-adv-x="276" 
 />
    <glyph glyph-name="exclam" unicode="!" horiz-adv-x="282" 
d="M103 158l-12 551h100l-12 -551h-76zM76 18q0 31 18 50q17 18 47 18q31 0 48 -18t17 -50q0 -31 -17 -49t-48 -18q-30 0 -47 18q-18 19 -18 49z" />
    <glyph glyph-name="quotedbl" unicode="&#x22;" horiz-adv-x="389" 
d="M77 477l-12 232h91l-12 -232h-67zM232 709h91l-12 -232h-68z" />
    <glyph glyph-name="numbersign" unicode="#" horiz-adv-x="666" 
d="M118 -37l32 192h-135l14 69h136l36 213h-139l14 71h140l34 201h81l-36 -201h147l35 201h80l-36 -201h130l-13 -71h-131l-37 -213h137l-15 -69h-135l-35 -192h-78l34 192h-146l-35 -192h-79zM244 224h147l38 213h-146z" />
    <glyph glyph-name="dollar" unicode="$" horiz-adv-x="544" 
d="M231 -103v95q-118 12 -192 83l34 70q89 -81 193 -81q66 0 105 29q41 31 41 87q0 42 -31 68q-32 27 -115 56q-103 35 -149 79q-48 46 -49 115q0 72 46 121q43 46 117 60v96h69v-91q97 -5 167 -56l-32 -68q-69 52 -146 52q-61 0 -100 -30q-38 -29 -38 -74q0 -44 33 -73
q31 -27 112 -55q110 -38 151 -76q46 -42 46 -113q0 -86 -57 -140q-52 -48 -136 -58v-96h-69z" />
    <glyph glyph-name="percent" unicode="%" horiz-adv-x="872" 
d="M153 -36l483 746h83l-482 -746h-84zM39 533q0 85 41 135q43 53 119 53q78 0 116 -50q34 -45 34 -128q0 -85 -40 -136q-42 -53 -115 -54q-75 0 -117 53q-38 48 -38 127zM115 537q0 -57 22 -86q20 -27 58 -27q43 0 63 34q17 29 17 79q0 49 -17 78q-20 35 -61 35t-63 -35
q-19 -30 -19 -78zM522 131q0 84 42 135q43 53 119 53t115 -51q35 -46 35 -128q0 -84 -40 -135q-42 -54 -115 -54q-77 -1 -118 52q-38 48 -38 128zM599 135q0 -114 80 -114q42 0 62 35q17 30 17 79t-16 77q-20 35 -61 35t-63 -35q-19 -31 -19 -77z" />
    <glyph glyph-name="ampersand" unicode="&#x26;" horiz-adv-x="872" 
d="M314 -49q-116 0 -187 59q-69 57 -69 148q0 73 42 130q46 62 138 100q-86 85 -85 165q0 76 53 123q51 45 132 45q80 0 133 -46q52 -45 52 -114q0 -125 -147 -199q135 -143 159 -171l30 -36q53 60 76 143q19 69 19 159v25h84v-18q0 -222 -132 -367q32 -35 66 -49
q28 -12 68 -13q37 0 58 10l21 -77q-37 -17 -86 -17q-54 0 -94 19q-42 20 -89 70q-106 -89 -242 -89zM146 172q0 -60 45 -97q48 -39 136 -39q104 0 178 61l-32 36q-12 14 -182 203q-145 -52 -145 -164zM238 559q0 -70 89 -147q114 58 117 139q0 45 -33 72q-31 25 -75 25
q-45 0 -72 -25q-26 -24 -26 -64z" />
    <glyph glyph-name="quotesingle" unicode="'" horiz-adv-x="222" 
d="M77 477l-12 232h91l-12 -232h-67z" />
    <glyph glyph-name="parenleft" unicode="(" horiz-adv-x="321" 
d="M72 261q0 281 160 482l53 -40q-135 -188 -135 -442q0 -258 136 -452l-54 -40q-160 211 -160 492z" />
    <glyph glyph-name="parenright" unicode=")" horiz-adv-x="321" 
d="M249 261q0 -281 -160 -492l-54 40q136 194 136 452q0 254 -135 442l53 40q160 -201 160 -482z" />
    <glyph glyph-name="asterisk" unicode="*" horiz-adv-x="464" 
d="M265 740v-137l129 43l21 -65l-127 -40l79 -110l-53 -40l-81 110l-80 -110l-54 40l79 109l-129 41l20 65l128 -42v136h68z" />
    <glyph glyph-name="plus" unicode="+" horiz-adv-x="650" 
d="M286 243h-216v75h216v217h78v-217h216v-75h-216v-218h-78v218z" />
    <glyph glyph-name="comma" unicode="," horiz-adv-x="243" 
d="M85 81l101 7l-82 -258l-68 -6z" />
    <glyph glyph-name="hyphen" unicode="-" horiz-adv-x="442" 
d="M61 296v79h320v-79h-320z" />
    <glyph glyph-name="period" unicode="." horiz-adv-x="263" 
d="M132 -47q-30 0 -48 18t-18 49t18 50q17 18 48 18t48 -18t17 -50q0 -31 -17 -49t-48 -18z" />
    <glyph glyph-name="slash" unicode="/" horiz-adv-x="456" 
d="M10 -131l356 871h80l-355 -871h-81z" />
    <glyph glyph-name="zero" unicode="0" horiz-adv-x="611" 
d="M306 -49q-120 0 -186 96q-67 98 -67 282q0 192 67 293q65 99 186 99q120 0 185 -99q67 -101 67 -293q0 -184 -67 -282q-66 -96 -185 -96zM148 329q0 -296 158 -296q156 0 156 296q0 311 -156 311q-158 0 -158 -311z" />
    <glyph glyph-name="one" unicode="1" horiz-adv-x="459" 
d="M227 -37v640l-161 -92v93l192 105h58v-746h-89z" />
    <glyph glyph-name="two" unicode="2" horiz-adv-x="559" 
d="M497 47v-82h-446v58l184 199q107 115 138 164q36 56 36 113q0 65 -38 103q-39 39 -105 39q-96 0 -148 -101l-67 41q35 72 94 108q55 34 127 34q97 0 161 -60t64 -155q0 -76 -43 -149q-40 -69 -148 -184l-119 -128h310z" />
    <glyph glyph-name="three" unicode="3" horiz-adv-x="558" 
d="M253 34q75 0 120 39q44 38 44 102q0 61 -46 99q-48 40 -129 40h-77v81h77q68 0 109 36q40 35 40 89q0 51 -39 85q-40 35 -102 35q-94 -2 -149 -87l-62 51q86 122 225 117q92 0 153 -52q62 -53 62 -135q0 -61 -31 -105q-33 -46 -94 -63q70 -19 111 -71q40 -51 40 -122
q0 -99 -71 -161q-70 -61 -182 -61q-137 0 -226 98l54 64q71 -79 173 -79z" />
    <glyph glyph-name="four" unicode="4" horiz-adv-x="610" 
d="M375 -37v142h-339v56l356 548h69v-522h98v-82h-96v-142h-88zM148 187h228v363z" />
    <glyph glyph-name="five" unicode="5" horiz-adv-x="579" 
d="M276 34q74 0 119 43q47 45 47 121q0 75 -48 120q-46 43 -112 43q-92 0 -141 -66l-67 21l31 393h381v-82h-301l-21 -235q47 47 139 47q94 0 160 -67q67 -68 67 -169q0 -113 -70 -182q-71 -70 -187 -70q-59 0 -116 25q-62 27 -106 79l54 64q37 -45 86 -67q40 -18 85 -18z
" />
    <glyph glyph-name="six" unicode="6" horiz-adv-x="600" 
d="M307 -49q-106 0 -176 66q-73 69 -73 177q0 55 14 102q15 51 51 109l185 304h96l-189 -302q45 32 113 32q98 -2 162 -66q64 -65 66 -171q0 -113 -73 -183q-71 -68 -176 -68zM147 195q0 -74 44 -118t116 -44q73 0 116 45q42 44 43 117q1 80 -42 125t-117 45t-117 -45
t-43 -125z" />
    <glyph glyph-name="seven" unicode="7" horiz-adv-x="564" 
d="M518 658l-290 -695h-91l282 664h-373v82h472v-51z" />
    <glyph glyph-name="eight" unicode="8" horiz-adv-x="593" 
d="M296 -49q-114 0 -180 63q-63 60 -63 155q0 63 32 114q35 55 100 83q-49 20 -78 64q-28 43 -28 97q0 84 61 139t156 55t157 -55q61 -54 61 -139q0 -54 -28 -97q-29 -44 -78 -64q65 -28 100 -83q32 -51 32 -114q0 -95 -63 -155q-66 -63 -181 -63zM142 174q0 -137 154 -141
q78 0 117 37q38 36 38 104q0 66 -38 105q-41 42 -117 42t-116 -42q-38 -39 -38 -105zM165 521q0 -54 34 -87q35 -34 97 -34q63 0 98 34q34 33 34 87q0 57 -34 91q-35 35 -98 35q-62 0 -97 -35q-34 -34 -34 -91z" />
    <glyph glyph-name="nine" unicode="9" horiz-adv-x="600" 
d="M294 721q105 0 175 -65q73 -68 73 -173q0 -55 -14 -99q-14 -43 -51 -107l-185 -314h-96l189 312q-45 -32 -113 -32q-94 0 -160 65q-68 67 -68 167q0 110 75 180q71 66 175 66zM134 482q-1 -77 44 -122q43 -43 116 -43q72 0 115 43q44 44 44 122q0 72 -44 115
q-43 42 -115 42t-116 -43q-43 -42 -44 -114z" />
    <glyph glyph-name="colon" unicode=":" horiz-adv-x="263" 
d="M132 -49q-30 0 -48 18t-18 49t18 50q17 18 48 18t48 -18t17 -50q0 -31 -17 -49t-48 -18zM66 450q0 31 18 49t48 18q31 0 48 -18t17 -49q0 -32 -17 -50t-48 -18t-48 18q-18 19 -18 50z" />
    <glyph glyph-name="semicolon" unicode=";" horiz-adv-x="301" 
d="M137 81l101 7l-82 -258l-68 -6zM113 450q0 31 18 49t48 18q31 0 48 -18t17 -49q0 -32 -17 -50t-48 -18t-48 18q-18 19 -18 50z" />
    <glyph glyph-name="less" unicode="&#x3c;" horiz-adv-x="650" 
d="M207 279l341 -181v-103l-446 253v65l446 253v-102l-341 -181v-4z" />
    <glyph glyph-name="equal" unicode="=" horiz-adv-x="650" 
d="M82 431h486v-77h-486v77zM82 130v76h486v-76h-486z" />
    <glyph glyph-name="greater" unicode="&#x3e;" horiz-adv-x="650" 
d="M102 464v102l446 -253v-65l-446 -253v103l340 181v4z" />
    <glyph glyph-name="question" unicode="?" horiz-adv-x="496" 
d="M16 584q29 68 86 103q55 34 126 34q95 0 157 -55q61 -54 61 -135q0 -59 -30 -107q-27 -44 -85 -86q-44 -35 -60 -66q-17 -33 -17 -88v-32h-78v38q0 72 20 115q18 39 62 73q55 42 77 72q26 35 26 75q0 51 -38 83t-95 32q-49 0 -85 -24q-37 -25 -55 -71zM152 14q0 27 18 45
q19 19 45 19t45 -19t19 -45t-19 -45q-18 -18 -45 -18t-45 18t-18 45z" />
    <glyph glyph-name="at" unicode="@" horiz-adv-x="952" 
d="M498 -158q-198 0 -318 96q-136 109 -136 318q5 210 127 329q140 135 343 136q179 0 285 -93q114 -100 114 -288q0 -133 -67 -220q-66 -85 -163 -85q-56 0 -82 28q-25 27 -18 68q-24 -44 -68 -67q-42 -23 -94 -21q-77 0 -125 49q-51 52 -51 143q4 133 75 206q80 81 179 82
q53 0 88 -24q31 -21 42 -55l18 61h69l-59 -300q-11 -57 -2 -81q9 -23 40 -23q58 0 97 59q43 65 43 178q0 158 -86 236q-82 74 -237 74q-164 0 -273 -108q-111 -110 -111 -280q0 -175 111 -264q97 -78 257 -78q132 3 221 42l22 -67q-112 -51 -241 -51zM328 253q0 -67 30 -106
q31 -41 88 -41q81 0 126 84q36 68 36 153q0 60 -31 93q-27 29 -66 29q-77 0 -130 -62q-53 -61 -53 -150z" />
    <glyph glyph-name="A" unicode="A" horiz-adv-x="696" 
d="M112 -37h-95l284 746h98l280 -746h-99l-73 203h-321zM214 243h265q-8 22 -16 45q-61 169 -115 339q-71 -214 -118 -339q-8 -23 -16 -45z" />
    <glyph glyph-name="B" unicode="B" horiz-adv-x="634" 
d="M92 709h256q96 0 152 -45q58 -47 58 -128q0 -63 -33 -108q-35 -47 -99 -67v-1q80 -10 124 -61q43 -49 43 -128q-2 -205 -269 -208h-232v746zM181 40h156q164 0 164 133q0 139 -178 139h-142v-272zM181 389h131q72 0 113 35t41 94q0 115 -146 115h-139v-244z" />
    <glyph glyph-name="C" unicode="C" horiz-adv-x="653" 
d="M404 -49q-149 0 -248 94q-110 104 -111 283q-1 181 109 289q107 105 281 105q97 0 186 -47l-31 -72q-72 38 -154 38q-133 0 -214 -78q-85 -82 -85 -222q0 -152 89 -236q78 -73 196 -73q93 0 168 36l30 -69q-94 -48 -216 -48z" />
    <glyph glyph-name="D" unicode="D" horiz-adv-x="748" 
d="M92 709h205q202 0 299 -88q100 -91 100 -285q0 -193 -107 -284q-104 -89 -317 -89h-180v746zM181 44h84q170 0 248 57q92 68 92 235q0 169 -85 236q-72 57 -235 57h-104v-585z" />
    <glyph glyph-name="E" unicode="E" horiz-adv-x="569" 
d="M92 709h424v-78h-335v-250h294v-78h-294v-261h348v-79h-437v746z" />
    <glyph glyph-name="F" unicode="F" horiz-adv-x="549" 
d="M92 709h426v-78h-337v-276h295v-79h-295v-313h-89v746z" />
    <glyph glyph-name="G" unicode="G" horiz-adv-x="720" 
d="M45 330q-1 174 113 284q113 108 291 108q100 0 187 -45l-32 -72q-73 35 -156 35q-136 0 -222 -82q-89 -84 -89 -222q0 -153 101 -236q86 -71 209 -71q67 0 129 20v226h-178v78h262v-345q-86 -57 -229 -57q-162 0 -267 91q-118 102 -119 288z" />
    <glyph glyph-name="H" unicode="H" horiz-adv-x="759" 
d="M92 709h89v-326h397v326h89v-746h-89v342h-397v-342h-89v746z" />
    <glyph glyph-name="I" unicode="I" horiz-adv-x="273" 
d="M92 709h89v-746h-89v746z" />
    <glyph glyph-name="J" unicode="J" horiz-adv-x="501" 
d="M211 -48q-76 0 -126 39q-54 42 -73 124l72 24q16 -58 49 -84q30 -24 78 -24q119 0 119 156v523h89v-522q0 -115 -55 -176q-54 -60 -153 -60z" />
    <glyph glyph-name="K" unicode="K" horiz-adv-x="648" 
d="M92 709h89v-355l323 355h113l-349 -370l365 -376h-128l-324 346v-346h-89v746z" />
    <glyph glyph-name="L" unicode="L" horiz-adv-x="563" 
d="M92 709h89v-666h357v-80h-446v746z" />
    <glyph glyph-name="M" unicode="M" horiz-adv-x="876" 
d="M462 186h-34l-151 212q-82 114 -98 149h-3q4 -87 4 -195v-389h-88v746h75l160 -230q66 -95 118 -178h2q62 104 113 181l151 227h73v-746h-89v386q0 111 4 198h-4q-27 -55 -94 -154z" />
    <glyph glyph-name="N" unicode="N" horiz-adv-x="773" 
d="M92 -37v746h73l279 -389q81 -113 149 -212h4q-5 94 -5 236v365h89v-746h-79l-222 308q-87 120 -198 282h-4q2 -89 2 -207v-383h-88z" />
    <glyph glyph-name="O" unicode="O" horiz-adv-x="796" 
d="M398 -49q-154 0 -251 101q-102 106 -102 284t105 285q99 101 248 101q150 0 249 -101q104 -106 104 -285t-101 -284q-97 -101 -252 -101zM139 336q0 -145 75 -227q70 -77 184 -77q115 0 185 77q74 82 74 227t-74 227q-71 78 -185 78q-113 0 -184 -78q-75 -83 -75 -227z
" />
    <glyph glyph-name="P" unicode="P" horiz-adv-x="599" 
d="M314 709q123 0 190 -60q64 -58 64 -161q0 -115 -76 -179q-72 -61 -193 -61h-118v-58v-227h-89v746h222zM181 324h107q185 3 186 159q0 150 -175 150h-118v-309z" />
    <glyph glyph-name="Q" unicode="Q" horiz-adv-x="796" 
d="M398 -49q-154 0 -251 101q-102 106 -102 284t105 285q99 101 248 101q150 0 249 -101q104 -106 104 -285q-4 -203 -121 -303l95 -121h-92l-63 80q-76 -41 -172 -41zM139 336q0 -145 75 -227q70 -77 184 -77q65 0 119 27l-123 155h96l86 -111q81 81 81 233q0 145 -74 227
q-71 78 -185 78q-113 0 -184 -78q-75 -83 -75 -227z" />
    <glyph glyph-name="R" unicode="R" horiz-adv-x="626" 
d="M92 709h204q141 0 205 -51q63 -50 63 -160q0 -158 -137 -206l178 -329h-106l-160 310q-32 -2 -49 -2h-109v-308h-89v746zM181 344h103q108 0 151 35q41 33 41 110q0 81 -42 114q-43 34 -148 34h-105v-293z" />
    <glyph glyph-name="S" unicode="S" horiz-adv-x="595" 
d="M286 -49q-67 0 -131 23q-67 24 -116 70l38 79q97 -91 214 -91q75 0 117 32q45 34 45 97q0 47 -34 76q-35 30 -128 62q-115 39 -165 87q-53 51 -54 128q-1 95 71 153q68 55 172 55q115 0 199 -63l-34 -75q-78 57 -163 57q-70 0 -112 -33q-41 -32 -41 -83q0 -48 37 -80
t123 -62q123 -42 169 -84q51 -46 51 -125q0 -107 -78 -168q-71 -55 -180 -55z" />
    <glyph glyph-name="T" unicode="T" horiz-adv-x="625" 
d="M21 630v79h583v-79h-251v-667h-89v667h-243z" />
    <glyph glyph-name="U" unicode="U" horiz-adv-x="722" 
d="M361 -50q-137 0 -206 72q-73 77 -73 239v448h91v-458q0 -119 45 -170q44 -50 143 -50t143 50q46 52 46 170v458h90v-448q0 -162 -73 -239q-69 -72 -206 -72z" />
    <glyph glyph-name="V" unicode="V" horiz-adv-x="689" 
d="M575 709h98l-270 -746h-112l-274 746h100l119 -333q72 -197 113 -333h3q31 104 109 333z" />
    <glyph glyph-name="W" unicode="W" horiz-adv-x="977" 
d="M867 709h90l-204 -746h-107l-153 639h-1l-165 -639h-106l-200 746h98l156 -647h1l164 647h102l162 -646h1z" />
    <glyph glyph-name="X" unicode="X" horiz-adv-x="648" 
d="M624 -37h-112l-193 302l-189 -302h-108l245 368l-245 378h113l190 -311l194 311h109l-253 -376z" />
    <glyph glyph-name="Y" unicode="Y" horiz-adv-x="639" 
d="M528 709h95l-260 -463v-283h-89v281l-257 465h99l128 -233q47 -85 76 -152h2q55 109 79 153z" />
    <glyph glyph-name="Z" unicode="Z" horiz-adv-x="633" 
d="M41 -37v45l420 621h-405v80h526v-45l-422 -620h427v-81h-546z" />
    <glyph glyph-name="bracketleft" unicode="[" horiz-adv-x="319" 
d="M68 -219v959h220v-80h-134v-801h134v-78h-220z" />
    <glyph glyph-name="backslash" unicode="\" horiz-adv-x="456" 
d="M446 -131h-81l-355 871h80z" />
    <glyph glyph-name="bracketright" unicode="]" horiz-adv-x="318" 
d="M250 -219h-219v78h134v801h-134v80h219v-959z" />
    <glyph glyph-name="asciicircum" unicode="^" horiz-adv-x="650" 
d="M323 629l-158 -342h-86l218 434h56l218 -434h-86l-158 342h-4z" />
    <glyph glyph-name="underscore" unicode="_" horiz-adv-x="460" 
d="M-3 -207v77h466v-77h-466z" />
    <glyph glyph-name="grave" unicode="`" horiz-adv-x="209" 
d="M136 597l-136 169h89l113 -169h-66z" />
    <glyph glyph-name="a" unicode="a" horiz-adv-x="526" 
d="M390 -37l-7 94q-8 -44 -52 -74q-46 -32 -113 -32q-82 0 -134 43q-53 44 -53 119q0 91 72 138q65 43 172 43q52 0 100 -15v10q0 79 -28 116q-31 41 -99 41q-73 0 -156 -46l-28 63q93 54 189 54q105 0 158 -63q50 -60 50 -169v-322h-71zM118 126q-1 -49 30 -75
q30 -26 86 -26q59 0 98 33q43 36 43 98v61q-42 14 -98 14q-70 0 -113 -26q-45 -28 -46 -79z" />
    <glyph glyph-name="b" unicode="b" horiz-adv-x="616" 
d="M573 241q-1 -139 -72 -217q-66 -73 -174 -73q-109 1 -175 84h-1l-6 -72h-70v777h85v-315q66 88 187 92q91 -1 158 -71q66 -71 68 -205zM154 214q0 -86 51 -140q49 -52 122 -52q72 0 112 53q41 55 41 162q0 95 -41 152t-111 57q-71 0 -122 -55q-52 -57 -52 -141v-36z" />
    <glyph glyph-name="c" unicode="c" horiz-adv-x="493" 
d="M328 446q-80 0 -134 -52q-60 -58 -60 -155q0 -95 50 -153q52 -60 143 -60q57 0 110 25l25 -61q-63 -39 -143 -39q-132 0 -206 79q-70 75 -70 198q0 130 83 211q80 78 202 78q82 0 139 -32l-29 -66q-49 27 -110 27z" />
    <glyph glyph-name="d" unicode="d" horiz-adv-x="620" 
d="M473 -37l-7 88q-22 -42 -70 -71q-49 -28 -115 -29q-103 0 -169 71q-70 76 -69 206q1 135 79 215q72 74 176 74q49 0 96 -24q42 -22 65 -54v301h86v-777h-72zM138 239q0 -100 43 -157t120 -57q72 0 116 49q47 52 47 142v36q0 92 -46 145q-44 50 -115 50q-76 0 -120 -54
q-45 -55 -45 -154z" />
    <glyph glyph-name="e" unicode="e" horiz-adv-x="555" 
d="M300 446q-64 0 -107 -39q-47 -42 -59 -121h305v3q-2 72 -41 115q-38 42 -98 42zM43 226q0 132 72 212q71 79 188 79q92 0 153 -64q66 -69 66 -187q0 -25 -3 -46h-389q0 -82 56 -140q57 -60 138 -56q81 0 142 41l28 -64q-69 -50 -183 -50q-120 0 -193 73q-75 75 -75 202z
" />
    <glyph glyph-name="f" unicode="f" horiz-adv-x="318" 
d="M94 375v57h-77v73h77v43q0 98 48 153q45 51 117 51q49 0 85 -21l-16 -72q-29 17 -56 17q-47 0 -68 -31q-23 -34 -23 -114v-26h124v-73h-124v-54v-415h-87v412z" />
    <glyph glyph-name="g" unicode="g" horiz-adv-x="616" 
d="M138 254q0 -95 43 -149t120 -54q71 0 116 47q47 49 47 134v34q0 87 -46 137q-44 48 -115 48q-76 0 -120 -51q-45 -52 -45 -146zM43 244q1 128 79 204q71 70 176 70q56 0 105 -27q46 -25 65 -61l7 74h72v-476q0 -147 -84 -221q-73 -64 -196 -64t-201 46l29 75
q78 -43 181 -43q82 0 129 43q55 50 55 152v51q-52 -80 -179 -86q-104 0 -169 67q-70 72 -69 196z" />
    <glyph glyph-name="h" unicode="h" horiz-adv-x="606" 
d="M75 -37v777h86v-333q22 49 70 79q50 31 113 31q91 0 142 -60q52 -61 52 -168v-326h-88v291q0 99 -30 144t-95 45q-73 0 -117 -51q-45 -52 -45 -138v-291h-88z" />
    <glyph glyph-name="i" unicode="i" horiz-adv-x="231" 
d="M72 -37v543h88v-543h-88zM52 677q0 28 17 45t44 17q28 0 45 -17t17 -45q0 -27 -17 -44t-45 -17q-27 0 -44 17t-17 44z" />
    <glyph glyph-name="j" unicode="j" horiz-adv-x="260" 
d="M-40 -159q41 -14 74 -14t45 19q13 20 13 73v585h88v-578q0 -93 -35 -136q-36 -43 -108 -42q-45 0 -93 15zM75 677q0 28 16 45t44 17t45 -17t17 -45q0 -27 -17 -44t-45 -17t-44 17t-16 44z" />
    <glyph glyph-name="k" unicode="k" horiz-adv-x="514" 
d="M162 -37h-87v777h87v-485l227 250h110l-247 -258l261 -284h-118l-233 265v-265z" />
    <glyph glyph-name="l" unicode="l" horiz-adv-x="237" 
d="M162 -37h-87v777h87v-777z" />
    <glyph glyph-name="m" unicode="m" horiz-adv-x="910" 
d="M72 -37v542h77l5 -109q21 52 63 85q47 36 107 36q58 0 101 -33q44 -33 63 -94q20 55 63 89q48 38 113 38q81 0 129 -59q49 -60 49 -161v-334h-88v300q5 180 -107 179q-62 0 -103 -49q-43 -52 -43 -139v-291h-88v300q0 94 -23 135q-25 44 -84 44q-62 0 -103 -49
q-43 -52 -43 -139v-291h-88z" />
    <glyph glyph-name="n" unicode="n" horiz-adv-x="603" 
d="M72 -37v542h77l5 -108q19 52 69 85q53 35 118 35q91 0 142 -60q52 -61 52 -168v-326h-88v291q0 99 -30 144t-95 45q-73 0 -117 -51q-45 -52 -45 -138v-291h-88z" />
    <glyph glyph-name="o" unicode="o" horiz-adv-x="606" 
d="M303 447q-81 0 -126 -60q-43 -57 -43 -153t43 -152q45 -59 126 -59q80 0 125 59q43 56 43 152t-43 153q-45 60 -125 60zM43 234q0 132 74 209q71 74 186 74q117 0 187 -74q73 -77 73 -209t-74 -209q-71 -74 -186 -74q-118 0 -188 74q-72 76 -72 209z" />
    <glyph glyph-name="p" unicode="p" horiz-adv-x="616" 
d="M573 241q-1 -139 -72 -217q-66 -73 -174 -73q-100 1 -165 71v-267h-87v750h71l7 -89h1q65 96 193 101q91 -1 158 -71q66 -71 68 -205zM154 214q0 -86 51 -140q49 -52 122 -52q72 0 112 53q41 55 41 162q0 95 -41 152t-111 57q-71 0 -122 -55q-52 -57 -52 -141v-36z" />
    <glyph glyph-name="q" unicode="q" horiz-adv-x="617" 
d="M138 239q0 -100 43 -157t120 -57q72 0 116 49q47 52 47 142v36q0 92 -46 145q-44 50 -115 50q-76 0 -120 -54q-45 -55 -45 -154zM43 228q1 135 79 215q72 74 176 74q55 0 105 -29q45 -26 65 -63l6 80h72v-750h-88v283q-25 -39 -70 -62q-48 -25 -107 -25q-103 0 -169 71
q-70 76 -69 206z" />
    <glyph glyph-name="r" unicode="r" horiz-adv-x="373" 
d="M342 422q-18 6 -39 6q-60 0 -102 -62q-41 -61 -41 -148v-255h-88v542h77l5 -130h1q17 69 65 108q42 34 90 34q27 0 49 -10z" />
    <glyph glyph-name="s" unicode="s" horiz-adv-x="454" 
d="M229 -49q-117 0 -193 60l31 70q76 -57 163 -57q97 4 97 75q1 34 -25 57q-27 25 -93 48q-74 26 -111 59q-44 40 -44 97q0 71 54 114t142 43q86 0 152 -48l-30 -69q-57 45 -123 45q-47 0 -75 -18q-31 -20 -31 -58q0 -30 26 -50q21 -16 79 -38q92 -34 130 -75q38 -40 36 -98
q-1 -73 -51 -115t-134 -42z" />
    <glyph glyph-name="t" unicode="t" horiz-adv-x="387" 
d="M99 652h87v-97v-50h161v-73h-161v-71v-185q0 -87 21 -120q20 -31 70 -31q41 0 78 15l16 -64q-50 -25 -113 -25q-79 0 -118 49q-41 52 -41 161v200v71h-84v73h84v50v97z" />
    <glyph glyph-name="u" unicode="u" horiz-adv-x="590" 
d="M518 506v-543h-73l-8 101q-18 -49 -66 -81q-48 -31 -114 -32q-90 0 -141 59t-51 161v335h88v-297q0 -94 28 -137q29 -45 95 -45q149 2 155 188v291h87z" />
    <glyph glyph-name="v" unicode="v" horiz-adv-x="543" 
d="M435 505h96l-218 -542h-89l-211 542h99l72 -201q55 -151 87 -244q58 160 88 240z" />
    <glyph glyph-name="w" unicode="w" horiz-adv-x="780" 
d="M354 505h84l67 -245q29 -90 59 -213q17 86 49 212l65 245h87l-153 -541h-103l-73 272q-30 110 -41 163q-9 -52 -41 -159l-86 -276h-102l-150 542h94l59 -231q33 -125 52 -231q34 130 64 225z" />
    <glyph glyph-name="x" unicode="x" horiz-adv-x="529" 
d="M10 -37l196 267l-196 275h104l152 -221l149 221h103l-201 -280l200 -262h-105l-154 211l-143 -211h-105z" />
    <glyph glyph-name="y" unicode="y" horiz-adv-x="528" 
d="M421 505h94l-209 -542l-24 -58q-37 -92 -88 -131q-41 -31 -97 -31q-34 0 -64 10l15 77q30 -9 53 -9q37 0 58 21q22 23 52 94q2 4 3 8l-201 561h99l71 -203q55 -159 81 -259q28 98 84 254z" />
    <glyph glyph-name="z" unicode="z" horiz-adv-x="492" 
d="M26 -37v51l186 248q63 82 125 165h-299v78h416v-49l-178 -238q-66 -89 -133 -177h318v-78h-435z" />
    <glyph glyph-name="braceleft" unicode="{" horiz-adv-x="349" 
d="M301 -234q-78 18 -115 60q-38 44 -38 121v172q0 103 -81 107v70q81 4 81 110v162q0 77 38 122q37 44 115 61l18 -72q-46 -14 -66 -42q-21 -29 -21 -79v-162q0 -109 -77 -133v-2q77 -26 77 -134v-163q0 -59 19 -86t68 -42z" />
    <glyph glyph-name="bar" unicode="|" horiz-adv-x="301" 
d="M112 -287v1066h77v-1066h-77z" />
    <glyph glyph-name="braceright" unicode="}" horiz-adv-x="349" 
d="M30 -164q50 15 69 42t19 86v163q0 109 76 134v2q-76 24 -76 133v162q0 51 -21 79q-20 28 -67 43l18 72q79 -18 116 -62t37 -122v-162q0 -106 81 -110v-70q-81 -5 -81 -107v-172q0 -78 -37 -121t-116 -61z" />
    <glyph glyph-name="asciitilde" unicode="~" horiz-adv-x="650" 
d="M309 245q-68 29 -104 29q-60 0 -112 -50l-18 66q58 58 132 58q54 0 135 -34q62 -28 107 -28q55 0 109 51l17 -65q-46 -59 -131 -59q-63 0 -135 32z" />
    <glyph glyph-name="uni4E00" unicode="&#x4e00;" 
d="M56 327v85h888v-85h-888z" />
    <glyph glyph-name="uni4E01" unicode="&#x4e01;" 
d="M581 648v-611q0 -68 -32 -91t-127 -23h-157l-13 86h151q55 0 73 13t18 52v574h-427v80h865v-80h-351z" />
    <glyph glyph-name="uni4E03" unicode="&#x4e03;" 
d="M442 400v-300q0 -62 25 -86t89 -24h141q59 0 83 19q22 18 31 68q11 60 16 129l85 -28q-8 -60 -23 -142q-12 -68 -53 -97q-42 -29 -131 -29h-172q-95 0 -136 41t-41 132v305l-284 -40l-11 80l295 42v324h86v-312l486 68l11 -80z" />
    <glyph glyph-name="uni4E07" unicode="&#x4e07;" 
d="M407 651q0 -10 -8 -151q-1 -19 -2 -37h430l-21 -402q-4 -79 -42 -105t-149 -26h-146l-12 78h149q70 0 94 17q24 16 26 66l14 296h-350q-18 -162 -76 -269q-60 -111 -192 -219l-61 63q136 106 189 215q53 108 64 281q6 82 10 193h-253v76h859v-76h-523z" />
    <glyph glyph-name="uni4E08" unicode="&#x4e08;" 
d="M479 199q95 115 99 321q1 6 1 18h-503v77h505q1 89 1 179h82q0 -23 -2 -179h262v-77h-264q0 -14 -1 -20q-5 -121 -32 -208q-28 -93 -84 -160q136 -93 400 -146l-39 -85q-275 64 -420 170q-119 -102 -376 -189l-48 77q249 77 360 165q-114 109 -204 314l69 34
q83 -191 194 -291z" />
    <glyph glyph-name="uni4E09" unicode="&#x4e09;" 
d="M124 632v82h752v-82h-752zM70 -31v82h862v-82h-862zM167 316v80h668v-80h-668z" />
    <glyph glyph-name="uni4E0A" unicode="&#x4e0a;" 
d="M502 34h436v-80h-874v80h352v760h86v-283h363v-79h-363v-398z" />
    <glyph glyph-name="uni4E0B" unicode="&#x4e0b;" 
d="M504 649v-745h-87v745h-351v79h869v-79h-431zM832 206q-144 100 -312 204l50 67q163 -98 315 -197z" />
    <glyph glyph-name="uni4E0D" unicode="&#x4e0d;" 
d="M885 146q-120 100 -296 230l51 57q145 -102 304 -220zM480 465h60v-564h-84v534q-140 -166 -351 -308l-51 71q160 103 271 214q109 109 184 238h-417v77h831v-77h-318q-58 -100 -125 -185z" />
    <glyph glyph-name="uni4E0E" unicode="&#x4e0e;" 
d="M301 662h623v-75h-631l-14 -147h595l-22 -380q-4 -83 -46 -111q-41 -28 -158 -28h-172l-12 80h176q75 0 102 18q26 18 29 71l16 276h-596l40 434l83 -1zM60 155v76h645v-76h-645z" />
    <glyph glyph-name="uni4E11" unicode="&#x4e11;" 
d="M795 29h142v-74h-875v74h209l31 292h-177v74h185l29 272h-217v74h710zM731 395l15 272h-324l-29 -272h338zM727 321h-342l-31 -292h357z" />
    <glyph glyph-name="uni4E13" unicode="&#x4e13;" 
d="M613 33q112 -44 164 -65l-44 -75q-261 115 -539 227l37 65q69 -27 300 -119q92 76 210 176h-536v68q32 60 56 114h-200v70h232q36 85 49 118h-227v69h254q27 71 44 124l90 -5q-24 -66 -45 -119h430v-69h-458q-32 -80 -49 -118h559v-70h-590q-23 -51 -55 -113h551v-79
q-116 -101 -233 -199z" />
    <glyph glyph-name="uni4E14" unicode="&#x4e14;" 
d="M818 18h123v-72h-883v72h124v730h636v-730zM736 18v172h-472v-172h472zM736 260v171h-472v-171h472zM736 501v175h-472v-175h472z" />
    <glyph glyph-name="uni4E16" unicode="&#x4e16;" 
d="M806 493v-321h-378v321h-172v-477h664v-74h-742v551h-113v75h113v185h78v-185h172v224h78v-224h222v225h78v-225h130v-75h-130zM728 245v248h-222v-248h222z" />
    <glyph glyph-name="uni4E18" unicode="&#x4e18;" 
d="M699 35h239v-76h-876v76h140v680q312 6 623 43l23 -78q-309 -29 -566 -38v-209h612v-75h-195v-323zM619 35v323h-337v-323h337z" />
    <glyph glyph-name="uni4E19" unicode="&#x4e19;" 
d="M542 531h332v-507q0 -64 -30 -85q-29 -21 -118 -21h-115l-11 75h120q46 0 61 11t15 43v413h-257q-5 -54 -16 -96q58 -49 241 -213l-57 -59q-150 147 -210 202q-54 -113 -214 -223l-55 64q125 81 176 154q48 68 57 171h-256v-552h-78v623h338q2 84 2 136h-404v73h875v-73
h-394z" />
    <glyph glyph-name="uni4E1A" unicode="&#x4e1a;" 
d="M656 31h280v-77h-871v77h280v758h78v-758h155v758h78v-758zM231 210q-60 172 -140 377l69 25q88 -220 144 -375zM761 210l-71 31q77 164 153 369l71 -27q-78 -205 -153 -373z" />
    <glyph glyph-name="uni4E1B" unicode="&#x4e1b;" 
d="M344 546q58 -58 166 -168l-53 -60q-38 45 -126 139q-21 -107 -69 -196q-46 -85 -135 -184l-61 56q109 119 153 224q44 104 54 265q5 111 6 172l78 -1q-2 -70 -4 -108v-2q-2 -47 -5 -94q-2 -28 -4 -43zM69 -54v78h865v-78h-865zM693 664q21 -197 78 -316q54 -113 170 -212
l-60 -63q-90 85 -140 172q-52 89 -76 205q-26 -110 -79 -202q-56 -99 -149 -189l-61 57q123 112 178 231q52 114 62 281q6 90 6 165h78q-1 -50 -7 -129z" />
    <glyph glyph-name="uni4E1C" unicode="&#x4e1c;" 
d="M890 -42q-132 126 -230 209l52 54q90 -71 234 -203zM110 -55l-57 58q124 109 221 224l63 -49q-117 -132 -227 -233zM573 294v-276q0 -64 -30 -85t-119 -21h-103l-12 78h106q47 0 62 11t15 44v249h-358v80q61 87 136 219h-200v75h239q34 63 65 134l87 -11
q-24 -51 -61 -123h531v-75h-572q-68 -125 -134 -224h267v166h81v-166h321v-75h-321z" />
    <glyph glyph-name="uni4E1D" unicode="&#x4e1d;" 
d="M759 493q40 51 83 113l69 -39q-146 -192 -288 -340q89 1 269 7l-5 -70q-215 -9 -370 -10l-15 65q42 23 69 52q63 66 135 155q-72 -3 -216 -5l-15 67q35 16 61 48q84 105 176 254l75 -31q-133 -187 -204 -271q57 1 176 5zM361 495q60 89 77 117l71 -37
q-168 -236 -271 -349q144 6 218 11l-4 -71q-183 -12 -326 -17l-16 67q40 18 72 53q53 56 131 160q-108 -5 -214 -6l-15 68q29 14 57 48q86 106 169 253l76 -31q-111 -167 -197 -270q116 2 172 4zM65 -53v75h870v-75h-870z" />
    <glyph glyph-name="uni4E22" unicode="&#x4e22;" 
d="M777 -33q-212 -9 -647 -23l-15 69q42 17 88 54q77 62 164 160h-304v71h398v149h-335v70h335v148q-93 -4 -334 -11l-15 71q414 8 753 30l19 -71q-192 -11 -344 -16v-151h335v-70h-335v-149h398v-71h-466q-101 -109 -213 -205q200 4 450 14q-53 55 -111 111l59 41
q139 -130 247 -240l-63 -48q-24 25 -64 67z" />
    <glyph glyph-name="uni4E24" unicode="&#x4e24;" 
d="M645 333q77 -77 155 -163l-48 -59q-57 70 -128 147q-38 -112 -127 -222l-58 50q76 88 109 170q32 81 40 202v6h-178q-3 -56 -12 -104q51 -44 115 -104l-43 -61q-47 49 -90 90q-34 -112 -126 -227l-56 51q68 80 101 165q32 81 40 190h-148v-554h-74v623h224q1 47 1 133
h-277v71h873v-71h-272q-1 -67 -3 -133h221v-517q0 -59 -28 -79t-111 -20h-99l-10 69h99q45 0 60 11t15 43v424h-148q-4 -65 -17 -131zM416 666q-1 -67 -3 -133h178q2 84 2 133h-177z" />
    <glyph glyph-name="uni4E25" unicode="&#x4e25;" 
d="M652 419h278v-69h-715v-89q0 -122 -19 -198q-21 -83 -77 -167l-66 45q53 74 70 142q16 62 16 179v157h230v258h-289v70h852v-70h-280v-258zM579 419v258h-137v-258h137zM250 459q-40 57 -109 146l58 40q68 -84 112 -144zM763 454l-55 45q65 74 114 143l60 -39
q-83 -107 -119 -149z" />
    <glyph glyph-name="uni4E27" unicode="&#x4e27;" 
d="M686 410l-51 50q81 74 145 143l56 -46q-71 -74 -150 -147zM300 411q-43 50 -136 145l56 45q92 -92 139 -142zM655 115q98 -66 288 -112l-37 -76q-211 58 -323 147q-112 88 -178 246h-124v-310q97 30 222 76l11 -76q-150 -54 -308 -103l-31 71q30 19 30 54v288h-142v69
h398v236h-364v69h364v109h76v-109h365v-69h-365v-236h399v-69h-449q46 -98 111 -159q147 81 218 132l51 -56q-103 -64 -212 -122z" />
    <glyph glyph-name="uni4E2A" unicode="&#x4e2a;" 
d="M457 -100v554h84v-554h-84zM471 796h62q130 -231 420 -396l-50 -74q-257 161 -401 371q-150 -219 -399 -371l-50 74q287 163 418 396z" />
    <glyph glyph-name="uni4E2B" unicode="&#x4e2b;" 
d="M457 -98v542h84v-542h-84zM370 481q-157 145 -277 243l55 61q125 -100 283 -236zM623 482l-57 64q129 98 281 239l62 -62q-163 -149 -286 -241z" />
    <glyph glyph-name="uni4E2D" unicode="&#x4e2d;" 
d="M808 221h-268v-326h-81v326h-268v-59h-79v454h347v187h81v-187h348v-452h-80v57zM808 295v247h-268v-247h268zM459 295v247h-268v-247h268z" />
    <glyph glyph-name="uni4E30" unicode="&#x4e30;" 
d="M540 120v-220h-82v220h-390v74h390v158h-305v74h305v152h-356v74h356v147h82v-147h358v-74h-358v-152h306v-74h-306v-158h391v-74h-391z" />
    <glyph glyph-name="uni4E32" unicode="&#x4e32;" 
d="M814 72h-275v-174h-78v174h-273v-42h-76v309h349v94h-309v260h309v107h78v-107h309v-260h-309v-94h351v-309h-76v42zM814 138v135h-275v-135h275zM772 499v128h-233v-128h233zM461 138v135h-273v-135h273zM461 499v128h-233v-128h233z" />
    <glyph glyph-name="uni4E34" unicode="&#x4e34;" 
d="M264 -100v897h71v-897h-71zM102 -14v717h65v-717h-65zM831 -30h-332v-67h-67v474h467v-474h-68v67zM831 36v275h-134v-275h134zM634 36v275h-135v-275h135zM579 664h361v-67h-396q-48 -87 -121 -176l-58 50q129 146 188 332l79 -14q-21 -57 -53 -125zM722 402
q-84 83 -130 125l49 46q71 -60 133 -122z" />
    <glyph glyph-name="uni4E38" unicode="&#x4e38;" 
d="M420 629h292v-566q0 -42 13 -57t44 -15h25q36 0 52 15q14 13 19 46q10 70 14 146l71 -20q-8 -112 -18 -165q-9 -56 -38 -79q-30 -24 -90 -24h-57q-62 0 -89 31q-26 30 -26 102v509h-215q-2 -40 -3 -59q-6 -116 -20 -192q124 -66 176 -95l-39 -76q-50 30 -158 91
q-29 -90 -89 -162q-55 -66 -171 -156l-57 67q109 79 162 141q57 67 83 150q-124 69 -204 110l36 65q90 -46 186 -96q11 67 16 162l2 50h-246v77h249q3 105 3 172h82q-4 -157 -5 -172z" />
    <glyph glyph-name="uni4E39" unicode="&#x4e39;" 
d="M814 283v-251q0 -66 -31 -88t-123 -22h-120l-11 76h119q51 0 68 12t17 49v224h-442q-7 -126 -36 -213q-29 -85 -93 -174l-73 48q63 80 88 148q27 74 34 191h-150v76h152v36v358h601v-394h129v-76h-129zM733 359v320h-440v-286v-34h440zM553 411q-57 69 -144 165l55 43
q90 -93 150 -160z" />
    <glyph glyph-name="uni4E3A" unicode="&#x4e3a;" 
d="M415 570q1 7 1 15q8 86 11 216h84q-6 -136 -13 -217q0 -7 -1 -14h390l-21 -508q-4 -82 -42 -109q-39 -27 -154 -27h-151l-12 80h156q72 0 97 17t27 69l16 402h-314q-23 -200 -94 -323q-79 -136 -266 -274l-59 69q175 125 249 244q68 110 89 284h-318v76h325zM283 598
q-29 36 -127 139l55 48q56 -52 133 -133zM652 169q-39 45 -149 152l54 49q115 -105 155 -145z" />
    <glyph glyph-name="uni4E3B" unicode="&#x4e3b;" 
d="M557 630h338v-76h-354v-216h316v-76h-316v-237h390v-77h-862v77h391v237h-315v76h315v216h-354v76h366q-32 101 -53 156l83 17q31 -87 55 -173z" />
    <glyph glyph-name="uni4E3D" unicode="&#x4e3d;" 
d="M114 -98v674h338v-574q0 -53 -25 -71t-99 -18h-70l-10 68h79q32 0 43 8t11 31v488h-196v-606h-71zM541 -98v674h347v-577q0 -52 -24 -69t-97 -17h-75l-9 63h80q32 0 43 8t11 31v493h-205v-606h-71zM65 671v72h870v-72h-870zM302 166q-33 72 -102 208l55 24
q67 -126 105 -206zM739 169q-49 102 -107 212l56 24q43 -78 108 -210z" />
    <glyph glyph-name="uni4E3E" unicode="&#x4e3e;" 
d="M258 607q-54 82 -102 151l68 29q42 -56 102 -148zM498 620q-33 71 -84 162l71 21q47 -78 86 -158zM713 582h219v-67h-257q91 -144 271 -215l-36 -71q-216 99 -313 286h-190q-54 -95 -126 -164t-187 -135l-40 70q192 93 272 229h-255v67h555q70 96 144 214l73 -36
q-75 -107 -130 -178zM539 74v-175h-76v175h-366v67h366v119h-198v65h198v132h76v-132h197v-65h-197v-119h365v-67h-365z" />
    <glyph glyph-name="uni4E43" unicode="&#x4e43;" 
d="M376 663q-2 -71 -6 -158q-12 -218 -61 -342q-54 -135 -189 -262l-58 71q122 113 169 225q46 108 57 303q4 72 6 163h-191v75h703v-74l-125 -212h224l-20 -389q-4 -81 -44 -108q-39 -27 -153 -27h-158l-12 79h164q72 0 97 17t27 69l14 288h-233v72l122 210h-333z" />
    <glyph glyph-name="uni4E45" unicode="&#x4e45;" 
d="M591 333q115 -226 353 -344l-52 -82q-229 129 -347 355q-149 -208 -429 -363l-52 76q225 115 361 271q128 146 185 337h-272q-69 -121 -169 -230l-59 60q162 169 238 386l87 -10q-26 -71 -57 -131h324v-74q-46 -143 -111 -251z" />
    <glyph glyph-name="uni4E48" unicode="&#x4e48;" 
d="M802 -12q-331 -18 -655 -33l-17 73q48 22 90 61q103 93 235 248q140 164 229 300l76 -51q-235 -319 -480 -547q314 14 471 22q-98 140 -141 198l64 41q167 -220 249 -336l-72 -49q-24 36 -49 73zM122 295l-58 65q113 86 218 205q98 111 173 231l75 -45
q-88 -131 -190 -247q-109 -123 -218 -209z" />
    <glyph glyph-name="uni4E49" unicode="&#x4e49;" 
d="M510 551q-40 92 -103 224l69 27q45 -88 108 -220zM562 178q5 -5 11 -8q133 -106 367 -177l-46 -84q-252 90 -393 212q-137 -118 -395 -221l-47 79q244 85 381 199q-170 179 -268 517l75 28q91 -323 253 -488q176 183 244 492l81 -20q-77 -333 -263 -529z" />
    <glyph glyph-name="uni4E4B" unicode="&#x4e4b;" 
d="M571 623h292v-80q-236 -247 -553 -440q7 -7 13 -14q42 -41 93 -57q50 -16 138 -16h387l-13 -77h-390q-109 0 -175 27q-62 26 -115 89q-27 33 -57 -1q-54 -59 -104 -126l-36 87q60 68 102 107q38 41 70 41q15 0 28 -6q286 176 502 390h-626v76h360q-30 79 -65 159l80 19
q27 -61 69 -178z" />
    <glyph glyph-name="uni4E4C" unicode="&#x4e4c;" 
d="M60 111v68h665v-68h-665zM463 704h351l-10 -166q-2 -66 -37 -90t-127 -23h-148l-10 66h153q52 0 71 13t21 50l5 81h-460v-284h628q-7 -148 -15 -295q-5 -83 -44 -110q-40 -28 -156 -28h-152l-11 73h161q72 0 97 17t27 69q3 75 10 205h-624v422h188q14 35 38 99l87 -9
q-26 -56 -43 -90z" />
    <glyph glyph-name="uni4E4D" unicode="&#x4e4d;" 
d="M482 130v-230h-83v686h-99q-79 -130 -186 -239l-61 60q172 169 269 396l84 -10q-31 -72 -64 -133h589v-74h-449v-151h394v-74h-394v-156h426v-75h-426z" />
    <glyph glyph-name="uni4E4E" unicode="&#x4e4e;" 
d="M299 383q-73 98 -145 181l55 48q114 -130 151 -176zM701 382l-57 49q82 96 152 189l63 -44q-121 -150 -158 -194zM547 267v-246q0 -64 -30 -86q-31 -22 -121 -22h-122l-11 76h118q51 0 68 12t17 49v217h-405v74h405v322q-99 -3 -345 -10l-13 72q384 6 764 30l17 -72
q-113 -7 -342 -17v-325h392v-74h-392z" />
    <glyph glyph-name="uni4E4F" unicode="&#x4e4f;" 
d="M115 644l-11 74q384 6 778 31l11 -73q-309 -19 -778 -32zM305 76q43 -40 94 -55q50 -15 140 -15h401l-13 -75h-399q-113 0 -172 22q-58 21 -108 80q-29 35 -54 5q-67 -73 -106 -123l-36 85q82 82 116 109q29 29 56 29q15 0 28 -10q270 121 483 260h-597v71h345
q-39 92 -66 148l79 12q27 -59 69 -160h288v-82q-237 -162 -548 -301z" />
    <glyph glyph-name="uni4E50" unicode="&#x4e50;" 
d="M559 318v-302q0 -61 -29 -82q-28 -20 -114 -20h-104l-12 79h108q41 0 55 10t14 39v276h-357l49 404q329 2 673 38l23 -76q-314 -28 -624 -34l-34 -258h270v196h82v-196h339v-74h-339zM120 -48l-62 53q116 113 212 255l67 -41q-102 -147 -217 -267zM877 -42
q-63 80 -214 257l59 43q117 -129 221 -251z" />
    <glyph glyph-name="uni4E52" unicode="&#x4e52;" 
d="M152 -104l-49 63q148 81 282 187l56 -54q-138 -108 -289 -196zM706 240h234v-72h-879v72h149v493q325 6 609 38l24 -74q-283 -26 -554 -34v-145h611v-72h-194v-206zM628 240v206h-339v-206h339z" />
    <glyph glyph-name="uni4E53" unicode="&#x4e53;" 
d="M704 238h235v-70h-875v70h146v494q326 6 608 38l25 -74q-280 -26 -554 -34v-145h610v-70h-195v-209zM627 238v209h-338v-209h338zM835 -103q-166 114 -277 184l47 57q139 -84 279 -177z" />
    <glyph glyph-name="uni4E54" unicode="&#x4e54;" 
d="M627 -96v348h76v-348h-76zM175 -108l-60 53q106 52 145 97q38 43 46 120q6 56 6 91h76q-2 -54 -7 -95q-10 -95 -51 -149q-44 -58 -155 -117zM521 526h400v-70h-322q97 -157 346 -204l-32 -77q-159 44 -246 107q-89 64 -145 174h-28q-42 -91 -135 -159q-97 -71 -265 -130
l-37 73q146 44 230 96q81 50 123 120h-328v70h360q19 56 27 143q-218 -6 -331 -8l-12 71q339 1 736 23l14 -71q-105 -5 -328 -13q-11 -82 -27 -145z" />
    <glyph glyph-name="uni4E56" unicode="&#x4e56;" 
d="M536 509v-611h-73v611h-397v66h397v101q-163 -6 -336 -9l-9 66q376 5 743 24l12 -64q-110 -6 -337 -15v-103h401v-66h-401zM712 258v-81q0 -32 13 -45q12 -12 44 -12h39q31 0 44 10t18 36q6 31 11 74l60 -21q-10 -68 -15 -89q-9 -40 -34 -58t-73 -18h-66q-59 0 -84 25
q-26 26 -26 86v294h69v-134q99 40 175 84l37 -57q-82 -43 -212 -94zM286 132q-97 -27 -207 -51l-18 70q97 18 225 49v104h-201v63h201v92h69v-419h-69v92z" />
    <glyph glyph-name="uni4E58" unicode="&#x4e58;" 
d="M537 211v-313h-74v311q-56 -86 -140 -150q-83 -64 -223 -130l-41 68q159 68 250 141q92 74 154 185v215h-395v62h395v88q-173 -4 -335 -6l-13 61q433 4 748 20l16 -61q-106 -4 -342 -12v-90h398v-62h-398v-212q68 -121 165 -196q93 -72 240 -122l-37 -72
q-258 102 -368 275zM717 352v-42q0 -33 13 -46t44 -13h42q31 0 45 10q13 10 18 34q5 17 11 60l53 -18q-6 -45 -13 -75q-9 -36 -32 -52q-24 -17 -69 -17h-71q-56 0 -82 26t-26 84v196h67v-89q93 27 178 63l26 -54q-85 -33 -204 -67zM282 239q-87 -22 -200 -44l-14 63
q118 20 214 43v73h-193v60h193v65h67v-311h-67v51z" />
    <glyph glyph-name="uni4E59" unicode="&#x4e59;" 
d="M295 -80q-197 0 -197 140q0 82 95 176q208 198 469 421h-532v79h659v-82q-332 -276 -535 -472q-67 -67 -67 -114q0 -73 129 -70h332q91 0 128 25q33 22 40 74q10 66 16 155l84 -24q-14 -124 -25 -178q-14 -71 -62 -100q-49 -30 -158 -30h-376z" />
    <glyph glyph-name="uni4E5D" unicode="&#x4e5d;" 
d="M412 603h294v-541q0 -41 14 -56q13 -14 45 -14h27q32 0 47 14q14 13 19 44q11 75 14 148l74 -21q-8 -100 -19 -165q-9 -55 -38 -78q-30 -24 -91 -24h-59q-62 0 -89 31t-27 105v480h-215q-2 -36 -3 -53q-8 -208 -67 -330q-60 -123 -227 -242l-56 67q155 109 208 215
q54 106 60 292q2 24 3 51h-244v77h247q5 130 5 197h83q0 -67 -5 -197z" />
    <glyph glyph-name="uni4E5E" unicode="&#x4e5e;" 
d="M328 -80q-83 1 -127 31q-40 28 -42 75q0 63 63 117q137 108 372 253h-377v72h525l1 -76q-259 -153 -442 -283q-51 -38 -51 -70q2 -46 108 -46h314q81 0 115 23q30 20 37 71q5 32 11 117l81 -20q-7 -65 -20 -140q-11 -66 -55 -94q-48 -30 -155 -30h-358zM321 679h587v-74
h-636q-59 -82 -145 -168l-52 64q138 129 220 300l85 -15q-32 -63 -59 -107z" />
    <glyph glyph-name="uni4E5F" unicode="&#x4e5f;" 
d="M256 424v-322q0 -70 24 -93q23 -22 91 -22h353q68 0 95 17q25 16 34 61q10 54 15 118l77 -21q-7 -72 -21 -138q-12 -62 -54 -89q-43 -26 -130 -25h-390q-95 0 -134 38t-39 134v322l-110 -27l-11 74l121 29v216h79v-196l211 51v250h78v-230l313 76l-14 -346
q-2 -61 -32 -82t-117 -21h-84l-11 73h90q46 0 62 11q15 11 17 44l11 229l-235 -59v-389h-78v370z" />
    <glyph glyph-name="uni4E60" unicode="&#x4e60;" 
d="M491 -71l-12 82h157q79 0 105 19q25 18 27 75l15 545h-669v78h756l-19 -655q-2 -86 -44 -115t-163 -29h-153zM123 54l-33 87q303 106 613 224l16 -86q-308 -121 -596 -225zM480 350q-153 101 -264 168l47 62q89 -52 270 -163z" />
    <glyph glyph-name="uni4E61" unicode="&#x4e61;" 
d="M746 312l2 3q30 68 55 150l79 -20q-23 -80 -56 -155q-63 -149 -216 -240q-157 -93 -494 -154l-36 79q266 45 409 106q142 61 214 159q-179 -13 -537 -35l-18 73q59 16 89 34q138 80 272 176q-246 -10 -362 -14l-14 66q37 10 66 30q153 104 295 236l81 -37
q-128 -111 -287 -222q313 12 317 12q92 69 170 140l79 -43q-258 -214 -520 -367q72 3 412 23z" />
    <glyph glyph-name="uni4E66" unicode="&#x4e66;" 
d="M769 361h135l-14 -252q-4 -68 -36 -90t-127 -22h-122l-11 73h124q55 0 74 13t21 53l8 149h-354v-386h-80v386h-321v76h321v194h-263v74h263v170h80v-170h320zM689 361l14 194h-236v-194h222zM876 574q-130 99 -199 150l49 55q85 -61 199 -144z" />
    <glyph glyph-name="uni4E70" unicode="&#x4e70;" 
d="M831 472l-75 21l69 179h-728v72h809v-70zM432 451q-87 55 -205 121l37 56q137 -72 207 -115zM352 294q-107 66 -214 124l37 58q108 -57 216 -121zM616 267h317v-74h-335q-9 -25 -17 -40q208 -101 343 -172l-43 -72q-242 134 -339 184q-97 -124 -421 -197l-39 78
q199 44 297 94q96 49 133 125h-444v74h468q6 30 9 63q16 128 16 291h81q-3 -183 -18 -294q-4 -40 -8 -60z" />
    <glyph glyph-name="uni4E71" unicode="&#x4e71;" 
d="M716 -84q-55 0 -82 30t-27 93v750h76v-730q0 -39 14 -54q13 -14 43 -14h52q34 0 48 13t19 49q10 68 13 158l72 -20q-6 -98 -16 -165q-8 -59 -37 -84q-30 -26 -90 -26h-85zM419 -23h-243v-66h-73v399h158v147h-201v69h201v146q-54 -3 -169 -7l-12 70q208 5 414 24l16 -69
q-108 -10 -174 -13v-151h203v-69h-203v-147h156v-399h-73v66zM419 44v199h-243v-199h243z" />
    <glyph glyph-name="uni4E73" unicode="&#x4e73;" 
d="M449 462l-57 24q48 93 81 169l62 -23q-7 -15 -86 -170zM145 487q-27 66 -58 135l62 17q29 -67 57 -133zM298 503q-27 85 -44 139l61 12q25 -72 44 -137zM86 675l-14 70q237 5 467 23l10 -69q-224 -13 -463 -24zM737 -80q-65 0 -94 30t-29 99v739h75v-727q-3 -69 65 -68
h37q35 0 51 14q17 15 21 54q8 70 11 168l71 -17q-9 -124 -16 -181q-7 -60 -38 -86q-31 -25 -95 -25h-59zM356 152v-139q0 -56 -26 -75t-105 -19h-80l-10 69h86q37 0 49 9t12 35v113q-72 -8 -216 -20l-8 76q143 11 224 19v64l144 105h-329v68h430v-68q-85 -65 -171 -129v-33
q97 9 200 21l-5 -74q-65 -8 -195 -22z" />
    <glyph glyph-name="uni4E7E" unicode="&#x4e7e;" 
d="M299 560h131v-348h-131v-91h161v-64h-161v-156h-70v156h-168v64h168v91h-133v348h133v84h-160v64h160v91h70v-91h157v-64h-157v-84zM366 270v91h-206v-91h206zM366 414v88h-206v-88h206zM623 676h312v-71h-344q-31 -67 -86 -155l-59 47q91 136 142 301l79 -9
q-17 -51 -44 -113zM606 -80q-49 0 -79 30q-28 28 -29 72q-2 55 33 103q86 116 230 268h-230v70h330v-74q-147 -144 -264 -293q-23 -32 -21 -61q2 -44 57 -44h142q42 0 62 20q19 19 25 64q9 71 12 122l69 -22q-11 -109 -15 -136q-9 -60 -41 -90q-33 -29 -96 -29h-185z" />
    <glyph glyph-name="uni4E86" unicode="&#x4e86;" 
d="M263 -77l-12 80h138q53 0 70 12t17 50v384l305 213h-688v74h799v-88l-332 -237v-374q0 -68 -32 -91t-127 -23h-138z" />
    <glyph glyph-name="uni4E88" unicode="&#x4e88;" 
d="M586 413h320v-74l-78 -199l-78 28q36 93 68 172h-270v-312q0 -67 -32 -90t-126 -23h-129l-11 77h125q55 0 73 13t18 52v283h-390v73h395q-106 87 -213 174l49 54q87 -71 173 -141q79 54 247 171h-576v74h688v-85q-157 -112 -300 -208q38 -32 47 -39z" />
    <glyph glyph-name="uni4E89" unicode="&#x4e89;" 
d="M762 381v108h-239v-108h239zM762 206v109h-239v-109h239zM361 720h371v-58l-103 -108h207v-173h107v-66h-107v-231h-74v57h-239v-121q0 -64 -30 -85t-119 -21h-112l-11 72h113q48 0 65 12q16 12 16 46v97h-307v65h307v109h-385v66h385v108h-263v50q-46 -38 -71 -56
l-45 57q164 121 264 266l85 -12q-28 -41 -54 -74zM306 657q-54 -59 -106 -103h336l95 103h-325z" />
    <glyph glyph-name="uni4E8B" unicode="&#x4e8b;" 
d="M855 194v-173h-73v49h-244v-55q0 -61 -28 -81t-114 -20h-111l-9 63h111q46 0 61 11t15 43v39h-349v53h349v71h-402v54h402v70h-344v53h344v62h-300v172h300v62h-399v56h399v80h75v-80h396v-56h-396v-62h300v-172h-300v-62h317v-123h86v-54h-86zM782 123v71h-244v-71h244z
M782 248v70h-244v-70h244zM766 482v74h-228v-74h228zM463 482v74h-228v-74h228z" />
    <glyph glyph-name="uni4E8C" unicode="&#x4e8c;" 
d="M140 602v84h722v-84h-722zM74 -3v84h852v-84h-852z" />
    <glyph glyph-name="uni4E8E" unicode="&#x4e8e;" 
d="M560 340v-313q0 -66 -31 -88t-123 -22h-139l-12 81h137q49 0 66 12t17 47v283h-411v79h411v239h-341v78h737v-78h-311v-239h377v-79h-377z" />
    <glyph glyph-name="uni4E8F" unicode="&#x4e8f;" 
d="M330 444l-40 -147h543l-20 -232q-5 -73 -39 -104q-43 -38 -171 -36h-183l-12 80h195q70 0 96 17q25 16 30 66l14 136h-540v65l44 155h-185v73h878v-73h-610zM145 661v75h716v-75h-716z" />
    <glyph glyph-name="uni4E91" unicode="&#x4e91;" 
d="M146 657v78h708v-78h-708zM780 -1q-323 -15 -655 -27l-17 75q45 24 81 65q106 113 198 266h-321v77h871v-77h-446q-116 -179 -247 -322q320 10 480 17q-74 98 -136 176l64 41q143 -175 254 -319l-70 -49q-18 25 -56 77z" />
    <glyph glyph-name="uni4E92" unicode="&#x4e92;" 
d="M776 28h158v-74h-867v74h628l9 150h-523l67 480h-147v73h799v-73h-571l-20 -141h495zM708 249l12 197h-421l-28 -197h437z" />
    <glyph glyph-name="uni4E94" unicode="&#x4e94;" 
d="M800 26h143v-76h-883v76h202l57 330h-203v74h215l40 232h-274v75h806v-75h-447l-40 -232h384v-404zM719 26v330h-316l-57 -330h373z" />
    <glyph glyph-name="uni4E95" unicode="&#x4e95;" 
d="M735 235v-329h-81v329h-291q-8 -118 -52 -192q-43 -73 -150 -150l-64 56q100 70 139 131q38 60 45 155h-220v75h223v5v216h-193v75h193v193h81v-193h289v193h81v-193h178v-75h-178v-221h208v-75h-208zM654 310v221h-289v-213v-8h289z" />
    <glyph glyph-name="uni4E9A" unicode="&#x4e9a;" 
d="M655 30h282v-75h-873v75h281v634h-254v75h819v-75h-255v-634zM577 30v634h-154v-634h154zM232 167q-63 165 -141 353l65 26q85 -193 146 -350zM757 166l-66 31q82 167 156 349l68 -28q-83 -198 -158 -352z" />
    <glyph glyph-name="uni4E9B" unicode="&#x4e9b;" 
d="M78 -57v72h845v-72h-845zM161 134v70h676v-70h-676zM394 399q72 11 143 22l-1 -72q-232 -41 -465 -72l-12 77q50 6 80 10v347h71v-338q80 11 112 16v412h72v-163h136v-64h-136v-175zM653 514v-85q0 -38 14 -52q13 -13 49 -13h74q37 0 52 12t20 43q6 46 10 98l68 -23
q-7 -63 -15 -111q-10 -46 -40 -67t-86 -21h-110q-59 0 -84 28t-25 93v385h73v-210q130 66 218 130l42 -63q-103 -68 -260 -144z" />
    <glyph glyph-name="uni4EA1" unicode="&#x4ea1;" 
d="M601 612h336v-78h-666v-500h615v-79h-698v579h-127v78h450q-30 74 -72 167l81 24q22 -48 81 -191z" />
    <glyph glyph-name="uni4EA2" unicode="&#x4ea2;" 
d="M119 -99l-51 69q61 35 97 68q39 35 59 73q36 69 36 218v124h437v-401q0 -37 14 -51q13 -13 44 -13h38q53 -3 62 55q9 52 12 98l75 -20q-3 -37 -17 -112q-8 -50 -38 -74q-31 -25 -87 -25h-73q-57 0 -84 29q-28 30 -28 94v344h-273v-70q2 -149 -44 -238q-46 -88 -179 -168z
M570 662h353v-76h-842v76h400q-37 86 -55 125l82 20q37 -84 62 -145z" />
    <glyph glyph-name="uni4EA4" unicode="&#x4ea4;" 
d="M568 671h357v-76h-849v76h402q-15 40 -48 114l82 19q28 -67 56 -133zM565 126q125 -87 372 -142l-40 -80q-256 64 -396 168q-131 -98 -402 -174l-36 80q246 60 374 148q-82 80 -160 221l70 36q74 -133 154 -206q84 77 145 211l75 -35q-73 -144 -156 -227zM123 289l-46 70
q151 86 283 203l55 -60q-138 -118 -292 -213zM876 303q-124 91 -286 199l49 60q163 -105 286 -189z" />
    <glyph glyph-name="uni4EA5" unicode="&#x4ea5;" 
d="M640 140q80 -48 262 -164l-44 -69q-133 94 -280 186q-164 -116 -414 -199l-44 70q244 75 399 179q151 102 276 273l62 -41q-104 -140 -217 -235zM562 424q57 60 104 132l64 -38q-113 -159 -254 -259q-140 -99 -366 -180l-40 70q268 86 419 208q-171 -9 -342 -15l-14 61
q43 13 67 34q79 67 167 167h-290v71h406q-24 70 -45 122l80 15q30 -82 48 -137h356v-71h-455q-99 -106 -191 -189q143 4 286 9z" />
    <glyph glyph-name="uni4EA6" unicode="&#x4ea6;" 
d="M119 157l-67 37q66 113 125 265l70 -28q-64 -159 -128 -274zM674 572v-549q0 -59 -28 -79t-110 -20h-103l-11 77h101q44 0 58 10t14 41v520h-166q-2 -109 -5 -161q-4 -189 -60 -299t-207 -218l-60 60q144 100 194 193q48 90 55 265q4 99 5 160h-277v75h413
q-21 59 -53 140l82 18q31 -81 56 -158h361v-75h-259zM877 150q-84 162 -149 274l65 34q61 -99 151 -267z" />
    <glyph glyph-name="uni4EA7" unicode="&#x4ea7;" 
d="M684 420h231v-72h-684v-79q0 -123 -22 -200q-23 -82 -88 -172l-67 49q59 76 80 147q20 67 20 181v146h194q-45 72 -90 142l77 26q33 -53 102 -168h161q56 86 107 172l74 -34q-46 -71 -95 -138zM581 693h355v-72h-844v72h401q-11 32 -39 98l86 11q19 -45 41 -109z" />
    <glyph glyph-name="uni4EA8" unicode="&#x4ea8;" 
d="M300 -93l-10 69h125q40 0 53 9t13 38v117l237 76h-615v65h764v-71l-307 -108v-101q0 -56 -26 -75q-27 -19 -106 -19h-128zM567 702h363v-66h-861v66h410q-15 36 -41 91l84 14q15 -32 45 -105zM816 353h-633v210h633v-210zM741 413v90h-483v-90h483z" />
    <glyph glyph-name="uni4EA9" unicode="&#x4ea9;" 
d="M779 -31h-557v-65h-78v596h713v-596h-78v65zM779 39v164h-241v-164h241zM779 269v161h-241v-161h241zM464 39v164h-242v-164h242zM464 269v161h-242v-161h242zM564 677h369v-72h-866v72h413q-32 88 -41 110l79 18q14 -37 46 -128z" />
    <glyph glyph-name="uni4EAB" unicode="&#x4eab;" 
d="M740 437v81h-484v-81h484zM813 380h-631v195h631v-195zM559 705h372v-63h-862v63h403q-12 33 -35 88l86 11q20 -50 36 -99zM556 85v-84q0 -56 -26 -75t-105 -19h-125l-9 64h121q39 0 52 9t13 37v68h-419v62h419v35l215 71h-550v60h693v-61l-279 -99v-6h384v-62h-384z" />
    <glyph glyph-name="uni4EAC" unicode="&#x4eac;" 
d="M101 -50l-43 66q147 81 245 161l48 -56q-116 -89 -250 -171zM890 -41q-136 89 -245 154l44 59q128 -75 243 -146zM563 678h372v-70h-868v70h411q-31 86 -43 115l82 17q30 -81 46 -132zM476 232h-303v283h657v-283h-274v-225q0 -58 -27 -77t-107 -19h-92l-11 71h93
q38 0 51 9t13 37v204zM752 301v145h-501v-145h501z" />
    <glyph glyph-name="uni4EAD" unicode="&#x4ead;" 
d="M731 456v76h-462v-76h462zM806 401h-612v186h612v-186zM564 127v-122q0 -55 -26 -74t-104 -19h-117l-9 64h111q40 0 53 9t13 38v104h-297v61h624v-61h-248zM82 170v164h838v-164h-73v101h-692v-101h-73zM554 717h375v-63h-857v63h395q-27 73 -29 78l86 9q9 -24 30 -87z
" />
    <glyph glyph-name="uni4EAE" unicode="&#x4eae;" 
d="M796 397h-594v187h594v-187zM722 451v79h-445v-79h445zM87 179v151h827v-151h-73v89h-681v-89h-73zM106 -104l-40 65q137 27 182 65q42 35 42 111v60h387v-170q0 -31 12 -43t43 -12h58q34 0 50 12q14 11 19 37q6 30 11 90l70 -19q-9 -66 -15 -100q-9 -44 -37 -63t-87 -19
h-96q-55 0 -80 24q-24 23 -24 76v126h-237q0 -13 -1 -26q-4 -88 -57 -134q-56 -48 -200 -80zM554 715h374v-63h-856v63h396l-30 80l87 11q15 -46 29 -91z" />
    <glyph glyph-name="uni4EB2" unicode="&#x4eb2;" 
d="M671 463h266v-69h-388v-119h351v-67h-351v-193q0 -61 -29 -82t-115 -21h-90l-11 72h97q41 0 55 10t14 39v175h-369v67h369v119h-406v69h270q-64 97 -82 123l69 28q53 -73 100 -151h161q57 80 103 151l73 -25q-21 -32 -87 -126zM558 694h336v-68h-787v68h367
q-14 46 -35 102l81 13q34 -102 38 -115zM875 -48q-138 97 -239 162l45 57q47 -30 239 -155zM117 -52l-43 65q124 76 227 163l52 -52q-129 -109 -236 -176z" />
    <glyph glyph-name="uni4EBA" unicode="&#x4eba;" 
d="M534 681q18 -262 114 -418q95 -155 292 -268l-59 -77q-165 108 -253 228q-89 122 -125 293q-34 -166 -123 -288q-90 -124 -267 -243l-52 74q206 132 293 277q78 131 95 336q7 75 7 197h83q-1 -36 -5 -111z" />
    <glyph glyph-name="uni4EBF" unicode="&#x4ebf;" 
d="M528 -80q-176 2 -177 126q0 71 62 162q145 202 353 441h-368v75h470v-80q-76 -81 -210 -247q-125 -154 -175 -225q-47 -68 -47 -112q0 -34 25 -50q26 -16 85 -16h188q63 0 90 23q26 22 32 80q9 83 11 139l78 -21l-16 -162q-11 -68 -51 -100q-42 -33 -126 -33h-224z
M264 577v-675h-78v524q-46 -80 -102 -157l-41 77q145 194 224 454l78 -22q-31 -92 -81 -201z" />
    <glyph glyph-name="uni4EC0" unicode="&#x4ec0;" 
d="M694 391v-490h-82v490h-262v79h262v326h82v-326h251v-79h-251zM276 564v-661h-78v520q-51 -82 -111 -154l-43 69q155 203 241 458l80 -21q-45 -122 -89 -211z" />
    <glyph glyph-name="uni4EC1" unicode="&#x4ec1;" 
d="M270 577v-678h-79v527q-44 -77 -103 -159l-44 77q150 201 231 456l78 -22q-35 -102 -83 -201zM400 602v80h501v-80h-501zM352 -23v80h591v-80h-591z" />
    <glyph glyph-name="uni4EC5" unicode="&#x4ec5;" 
d="M676 171q91 -90 271 -189l-48 -74q-183 109 -276 204q-109 -111 -287 -213l-49 72q179 97 282 201q-125 152 -184 434l70 21q54 -259 167 -397q66 82 110 186q41 97 72 239h-450v73h532v-69q-36 -164 -83 -275q-50 -119 -127 -213zM253 574v-672h-77v522
q-43 -75 -93 -141l-38 77q137 189 214 440l74 -21q-33 -101 -80 -205z" />
    <glyph glyph-name="uni4EC6" unicode="&#x4ec6;" 
d="M542 -99v896h80v-896h-80zM884 241q-175 177 -254 250l55 52q29 -27 257 -244zM278 578v-676h-78v534q-55 -90 -112 -161l-41 72q150 202 236 450l79 -22q-38 -104 -84 -197z" />
    <glyph glyph-name="uni4EC7" unicode="&#x4ec7;" 
d="M247 566v-664h-76v508q-41 -75 -86 -139l-37 77q128 200 196 445l79 -22q-35 -113 -76 -205zM541 605h231v-570q0 -25 10 -36q9 -10 31 -10h12q20 0 28 10t13 38q9 57 11 156l74 -20q-8 -121 -15 -167q-8 -52 -33 -74q-24 -22 -74 -22h-35q-51 0 -75 26q-25 27 -25 85
v509h-155q0 -15 -1 -30q-6 -231 -46 -348q-42 -124 -162 -249l-51 69q103 106 140 216q38 110 43 313q1 14 1 29h-134v75h136q3 109 3 192h77q0 -42 -4 -192z" />
    <glyph glyph-name="uni4ECA" unicode="&#x4eca;" 
d="M476 799h60q134 -207 425 -359l-37 -75q-269 152 -418 337q-149 -185 -418 -337l-37 75q291 152 425 359zM521 336q-45 66 -115 156l59 43q68 -83 121 -152zM552 -106l-67 45q133 157 231 283h-563v75h663v-74q-89 -117 -264 -329z" />
    <glyph glyph-name="uni4ECB" unicode="&#x4ecb;" 
d="M183 -106l-61 60q98 73 132 143q34 69 37 200v122h80q0 -41 -2 -121q-2 -151 -40 -234q-39 -85 -146 -170zM624 -96v516h80v-516h-80zM472 796h62q129 -226 418 -387l-48 -73q-253 152 -401 357q-148 -205 -401 -357l-48 73q289 161 418 387z" />
    <glyph glyph-name="uni4ECD" unicode="&#x4ecd;" 
d="M250 580v-678h-76v519q-38 -72 -90 -149l-39 73q131 208 199 450l78 -22q-33 -102 -72 -193zM534 657q0 -57 -2 -149q-3 -225 -42 -356t-146 -255l-64 57q98 116 133 230q34 111 40 329q2 86 2 144h-95v74h483v-77l-98 -206h163l-14 -407q-2 -69 -34 -91
q-33 -23 -128 -23h-116l-11 75h119q55 0 73 13q19 13 20 52l11 309h-165v74l95 207h-224z" />
    <glyph glyph-name="uni4ECE" unicode="&#x4ece;" 
d="M677 650q19 -251 79 -397q58 -142 190 -270l-55 -73q-102 107 -158 214q-57 109 -84 256q-26 -136 -84 -244q-62 -116 -180 -234l-63 62q147 140 207 277q57 130 68 334q6 97 6 217h80q-2 -70 -6 -142zM318 501l2 2q101 -110 192 -212l-53 -64q-124 148 -150 178
q-16 -142 -61 -259q-44 -115 -127 -236l-67 58q100 142 139 268t49 337q6 144 6 217h80q-4 -123 -8 -245z" />
    <glyph glyph-name="uni4ED1" unicode="&#x4ed1;" 
d="M305 187v-115q0 -45 23 -65q24 -21 78 -21h249q55 0 79 18q23 17 29 61q7 42 13 117l79 -21q-7 -69 -21 -138q-12 -61 -50 -87t-122 -26h-277q-83 0 -121 37q-39 38 -39 119v376h80v-178q234 76 428 172l38 -74q-222 -96 -466 -175zM474 799h64q131 -202 416 -348
l-42 -71q-259 143 -406 325q-147 -182 -406 -325l-42 71q285 146 416 348z" />
    <glyph glyph-name="uni4ED3" unicode="&#x4ed3;" 
d="M232 464h523l-8 -217q-2 -62 -32 -83t-118 -21h-126l-11 71h126q49 0 66 12q16 12 18 47l5 120h-379v-318q0 -49 21 -70t71 -21h299q54 0 79 17q24 16 33 56q10 43 19 111l76 -24q-19 -105 -25 -129q-14 -56 -52 -80q-40 -25 -119 -25h-335q-74 0 -110 37t-36 114v393
q-51 -32 -120 -70l-42 72q143 70 255 163q105 87 167 180h62q62 -93 167 -180q112 -93 255 -163l-42 -72q-266 143 -411 322q-107 -132 -276 -242z" />
    <glyph glyph-name="uni4ED4" unicode="&#x4ed4;" 
d="M709 312v-291q0 -61 -29 -82q-28 -20 -114 -20h-119l-11 75h119q45 0 60 11t15 43v264h-295v77h295v89l172 185h-388v75h486v-81l-191 -204v-64h236v-77h-236zM256 572v-670h-76v522q-45 -78 -91 -140l-44 74q141 197 211 441l80 -24q-34 -105 -80 -203z" />
    <glyph glyph-name="uni4ED5" unicode="&#x4ed5;" 
d="M684 32h240v-75h-564v75h244v402h-265v74h265v284h80v-284h260v-74h-260v-402zM267 571v-670h-76v528q-46 -79 -106 -162l-41 76q148 197 233 456l77 -21q-34 -98 -87 -207z" />
    <glyph glyph-name="uni4ED6" unicode="&#x4ed6;" 
d="M242 564v-663h-73v515q-43 -79 -87 -143l-38 74q135 209 202 450l77 -19q-32 -101 -81 -214zM666 490v-395h-73v373l-149 -44v-346q0 -58 20 -78q19 -19 74 -19h210q57 0 82 17q22 15 30 57q11 53 17 106l69 -25q-9 -69 -22 -123q-13 -57 -48 -80t-107 -23h-259
q-77 0 -109 33q-31 32 -31 111v347l-75 -22l-12 73l87 25v222h74v-200l149 43v255h73v-233l231 67l-13 -354q-2 -46 -23 -61q-22 -15 -87 -15h-63l-10 66h59q33 0 44 8t12 31l8 231z" />
    <glyph glyph-name="uni4ED7" unicode="&#x4ed7;" 
d="M754 622h176v-76h-177q-1 -7 -1 -20q-1 -241 -103 -383q105 -86 293 -149l-40 -79q-194 74 -304 167q-87 -90 -265 -182l-49 71q176 86 256 168q-112 122 -165 334l71 22q51 -189 144 -296q83 121 84 333v14h-348v76h350q2 118 2 173h78q0 -53 -2 -173zM250 563v-661h-77
v509q-40 -72 -89 -138l-39 71q142 211 209 455l76 -23q-33 -109 -80 -213z" />
    <glyph glyph-name="uni4ED8" unicode="&#x4ed8;" 
d="M535 166q-80 110 -168 217l59 42q61 -70 173 -211zM809 516v-493q0 -64 -30 -86q-31 -22 -121 -22h-124l-11 76h123q50 0 67 12t17 48v465h-395v75h395v199h79v-199h125v-75h-125zM258 564v-663h-78v515q-47 -78 -94 -140l-40 76q144 204 215 448l82 -22
q-38 -115 -85 -214z" />
    <glyph glyph-name="uni4ED9" unicode="&#x4ed9;" 
d="M241 568v-666h-73v517q-43 -77 -86 -141l-38 78q131 205 201 443l76 -21q-33 -102 -80 -210zM824 -31h-459v630h74v-558h154v750h75v-750h156v557h75v-688h-75v59z" />
    <glyph glyph-name="uni4EDF" unicode="&#x4edf;" 
d="M694 315v-415h-81v415h-265v77h265v254q-40 -3 -208 -13l-14 77q265 10 503 35l15 -76q-86 -8 -215 -18v-259h252v-77h-252zM265 581v-682h-79v529q-53 -92 -100 -153l-42 74q144 206 219 450l79 -22q-28 -88 -77 -196z" />
    <glyph glyph-name="uni4EE3" unicode="&#x4ee3;" 
d="M817 573q-46 44 -153 140l49 49q81 -65 157 -134zM606 426q19 -219 75 -335q47 -101 108 -101q45 0 61 63q13 49 23 127l70 -25q-11 -69 -28 -138q-28 -109 -120 -109q-114 0 -182 141q-63 119 -84 368l-199 -24l-10 78l203 24v2q-10 135 -15 301h77q7 -182 15 -294
l323 38l7 -77zM262 565v-664h-78v520q-42 -71 -101 -146l-39 73q144 194 225 447l78 -23q-39 -110 -85 -207z" />
    <glyph glyph-name="uni4EE4" unicode="&#x4ee4;" 
d="M476 799h60q137 -206 425 -351l-38 -73q-271 151 -417 329q-146 -178 -417 -329l-38 73q288 145 425 351zM522 371q-49 61 -118 142l58 41q62 -69 124 -137zM570 27l112 -68l-52 -66q-165 111 -392 250l44 57q65 -38 220 -131q86 76 224 203h-572v72h678v-79
q-166 -154 -262 -238z" />
    <glyph glyph-name="uni4EE5" unicode="&#x4ee5;" 
d="M150 -32l-55 65q18 18 25 35t7 42v649h81v-649q124 85 236 170l37 -77q-146 -109 -331 -235zM750 218q77 -86 196 -231l-65 -62q-58 78 -171 220q-86 -132 -298 -248l-51 71q208 108 285 228t84 330q6 103 6 248h82q-3 -145 -8 -250q-11 -193 -60 -306zM483 511
q-64 127 -133 248l67 36q49 -79 139 -243z" />
    <glyph glyph-name="uni4EEA" unicode="&#x4eea;" 
d="M627 557q-55 139 -90 217l70 22q46 -106 92 -211zM680 169q95 -95 264 -184l-47 -77q-169 99 -270 201q-105 -107 -289 -210l-47 73q182 98 282 198q-105 135 -166 347q-15 54 -39 161l75 17q9 -51 34 -153q52 -192 149 -314q111 136 165 352q10 41 27 129l75 -16
q-16 -78 -31 -137q-59 -233 -182 -387zM254 565v-665h-76v515q-44 -78 -92 -142l-41 69q143 213 214 453l75 -23q-35 -106 -80 -207z" />
    <glyph glyph-name="uni4EEC" unicode="&#x4eec;" 
d="M485 607q-53 74 -109 147l63 41q62 -75 113 -141zM370 -92v677h80v-677h-80zM634 -86l-12 78h117q47 0 62 11q16 11 16 45v603h-218v74h299v-709q0 -61 -29 -82q-28 -20 -114 -20h-121zM243 577v-677h-76v516q-41 -78 -82 -139l-37 78q127 205 190 441l77 -20
q-34 -110 -72 -199z" />
    <glyph glyph-name="uni4EF0" unicode="&#x4ef0;" 
d="M603 -101v811h297v-583q0 -50 -24 -67t-94 -17h-64l-10 69h62q35 0 46 8q12 8 12 33v489h-152v-743h-73zM362 13l-34 66q25 19 25 44v585q117 29 203 71l42 -65q-83 -36 -172 -59v-528q69 34 127 69l23 -72q-100 -56 -214 -111zM235 576v-674h-73v509q-34 -68 -79 -137
l-35 70q116 209 181 457l74 -16q-33 -119 -68 -209z" />
    <glyph glyph-name="uni4EF2" unicode="&#x4ef2;" 
d="M589 279v257h-163v-257h163zM831 279v257h-165v-257h165zM831 207h-165v-306h-77v306h-163v-58h-73v460h236v188h77v-188h237v-459h-72v57zM241 575v-674h-73v521q-40 -75 -85 -143l-40 73q129 208 197 449l78 -19q-37 -116 -77 -207z" />
    <glyph glyph-name="uni4EF6" unicode="&#x4ef6;" 
d="M703 210v-311h-77v311h-318v75h318v226h-171q-29 -86 -64 -161l-73 30q77 149 119 354l76 -15q-21 -87 -35 -134h148v214h77v-214h214v-74h-214v-226h244v-75h-244zM247 567v-668h-76v511q-39 -71 -86 -141l-39 75q132 205 200 449l76 -20q-32 -107 -75 -206z" />
    <glyph glyph-name="uni4EF7" unicode="&#x4ef7;" 
d="M594 793h58q84 -199 303 -340l-39 -74q-193 136 -293 305q-100 -169 -293 -305l-39 74q219 141 303 340zM374 -105l-63 55q80 73 108 146t28 205v121h79v-126q0 -145 -32 -229t-120 -172zM707 -91v512h80v-512h-80zM249 579v-677h-77v515q-46 -84 -86 -143l-39 75
q132 213 198 450l77 -21q-34 -106 -73 -199z" />
    <glyph glyph-name="uni4EFB" unicode="&#x4efb;" 
d="M688 27h235v-75h-560v75h247v282h-272v76h272v256q-152 -10 -226 -14l-12 78q303 10 525 39l16 -76q-93 -9 -225 -21v-262h257v-76h-257v-282zM260 577v-678h-77v526q-46 -80 -97 -148l-40 71q140 207 213 449l78 -20q-29 -92 -77 -200z" />
    <glyph glyph-name="uni4EFD" unicode="&#x4efd;" 
d="M913 375q-103 85 -162 173q-61 90 -102 219l68 23q72 -216 227 -335zM327 358l-37 72q145 136 216 340l71 -26q-82 -223 -250 -386zM553 334q-5 -151 -51 -246q-46 -96 -161 -189l-56 59q104 78 146 159q43 84 46 217h-90v73h443l-14 -367q-3 -70 -36 -93t-130 -23h-101
l-11 72h105q56 0 75 13q20 13 21 53l11 272h-197zM243 556v-655h-76v510q-30 -52 -82 -127l-40 75q133 190 207 436l77 -19q-39 -121 -86 -220z" />
    <glyph glyph-name="uni4EFF" unicode="&#x4eff;" 
d="M704 645h239v-72h-392q-2 -45 -4 -134q-1 -4 -1 -13h330l-15 -387q-2 -67 -35 -90t-127 -23h-103l-11 76h114q51 0 68 12q18 12 19 48l12 293h-254q-8 -159 -45 -252q-38 -95 -137 -204l-67 52q102 105 136 191q33 84 39 252q3 167 3 179h-138v72h281q-19 60 -50 142
l85 17q31 -88 53 -159zM259 578v-677h-76v520q-46 -84 -94 -149l-41 70q135 199 209 455l75 -23q-34 -105 -73 -196z" />
    <glyph glyph-name="uni4F01" unicode="&#x4f01;" 
d="M476 797h62q127 -193 421 -343l-46 -72q-273 148 -406 324q-133 -176 -406 -324l-46 72q294 150 421 343zM568 21h347v-73h-834v73h134v353h78v-353h196v492h79v-193h253v-71h-253v-228z" />
    <glyph glyph-name="uni4F0A" unicode="&#x4f0a;" 
d="M791 512v162h-215q0 -81 -1 -162h216zM791 282v163h-217q0 -20 -1 -39q0 -62 -5 -124h223zM867 445v-300h-76v70h-230q-16 -104 -63 -174q-45 -68 -145 -144l-58 57q88 65 128 120q43 59 59 141h-156v67h165q4 40 6 131q0 21 1 32h-201v67h202q1 81 1 162h-142v67h509
v-229h78v-67h-78zM238 561v-657h-74v507q-37 -66 -80 -131l-40 74q129 198 198 444l77 -20q-34 -111 -81 -217z" />
    <glyph glyph-name="uni4F0D" unicode="&#x4f0d;" 
d="M779 23v331h-224l-43 -331h267zM855 23h88v-71h-648v71h139l43 331h-129v71h139l31 237h-173v71h566v-71h-315l-31 -237h290v-402zM242 585v-685h-75v519q-39 -76 -81 -140l-42 74q122 200 189 446l76 -20q-32 -107 -67 -194z" />
    <glyph glyph-name="uni4F0E" unicode="&#x4f0e;" 
d="M686 99q89 -57 256 -117l-40 -74q-183 72 -280 140q-112 -81 -289 -151l-42 72q165 64 267 131q-90 83 -164 228l64 32q70 -135 163 -214q111 93 176 232h-449v69h240v140h-255v68h255v145h77v-145h267v-68h-267v-140h215v-74q-78 -169 -194 -274zM252 569v-668h-77v517
q-38 -67 -89 -139l-40 78q138 191 211 444l74 -21q-35 -114 -79 -211z" />
    <glyph glyph-name="uni4F0F" unicode="&#x4f0f;" 
d="M837 576q-62 66 -125 132l50 45q88 -84 129 -126zM642 519h290v-72h-286q22 -154 93 -265q70 -110 202 -201l-57 -73q-112 86 -176 178q-65 94 -98 220q-31 -118 -94 -213q-65 -98 -181 -195l-54 68q135 101 201 217q65 112 79 264h-245v72h250q4 95 4 281h80
q-2 -148 -8 -281zM255 562v-660h-75v521q-46 -77 -95 -142l-38 76q140 187 217 442l79 -23q-36 -106 -88 -214z" />
    <glyph glyph-name="uni4F10" unicode="&#x4f10;" 
d="M661 163q11 -30 19 -48q57 -128 118 -128q34 0 48 50q15 50 29 144l70 -24q-15 -93 -31 -151q-28 -101 -111 -101q-110 0 -189 165q-13 27 -20 48q-92 -59 -232 -122l-44 71q144 58 251 126q-32 118 -46 271l-184 -21l-7 72l186 21v4q-7 106 -10 257h78q2 -143 9 -252
l325 36l5 -70l-325 -38q11 -133 37 -233q115 84 208 201l58 -48q-113 -137 -242 -230zM804 599q-58 54 -141 120l46 52q85 -65 144 -116zM268 567v-664h-76v520q-49 -84 -102 -152l-41 73q145 196 228 453l75 -23q-40 -112 -84 -207z" />
    <glyph glyph-name="uni4F11" unicode="&#x4f11;" 
d="M668 524q50 -142 111 -235t167 -187l-50 -70q-167 163 -242 363v-495h-76v494q-81 -204 -250 -371l-52 69q111 103 176 201q65 97 112 231h-238v73h252v199h76v-199h265v-73h-251zM251 565v-664h-76v518q-44 -73 -90 -137l-38 77q140 194 213 442l74 -20
q-33 -108 -83 -216z" />
    <glyph glyph-name="uni4F17" unicode="&#x4f17;" 
d="M348 338q84 -74 171 -155l-49 -61q-60 61 -135 133q-34 -193 -223 -346l-58 60q110 90 159 175t60 207q8 84 10 120h77q-2 -37 -5 -74q-4 -38 -7 -59zM477 798h58q127 -195 414 -337l-44 -70q-259 136 -399 312q-140 -176 -399 -312l-44 70q287 142 414 337zM694 402
q19 -146 76 -244q56 -96 173 -181l-56 -68q-178 140 -220 320q-44 -189 -236 -332l-55 62q121 89 176 183q54 92 65 222q4 61 7 113l75 -1q-1 -31 -5 -74z" />
    <glyph glyph-name="uni4F18" unicode="&#x4f18;" 
d="M733 -90q-59 0 -86 29q-26 28 -26 90v412h76v-396q0 -32 12 -45t44 -13h40q32 0 47 14t19 50q8 62 12 137l71 -25q-7 -93 -16 -147q-10 -55 -39 -80q-30 -26 -88 -26h-66zM808 593q-51 46 -144 121l48 52q78 -60 147 -116zM499 554q1 14 1 28q3 71 5 215h76
q-1 -83 -5 -216q0 -14 -1 -27h349v-72h-352q-11 -191 -61 -316q-53 -131 -179 -267l-59 60q115 120 164 236q47 113 58 287h-181v72h185zM249 559v-657h-75v516q-43 -74 -89 -136l-38 76q145 209 210 440l79 -24q-40 -117 -87 -215z" />
    <glyph glyph-name="uni4F19" unicode="&#x4f19;" 
d="M429 343q-74 155 -118 239l65 29q10 -19 122 -234zM791 344l-65 39q77 123 135 231l67 -33q-58 -106 -137 -237zM647 547q20 -205 88 -331q67 -126 210 -236l-55 -74q-115 99 -175 190q-63 95 -94 224q-27 -125 -90 -221q-65 -99 -190 -201l-54 70q161 123 222 249
q56 116 63 314q5 163 5 268h78q-2 -121 -8 -252zM257 570v-669h-75v525q-49 -83 -98 -150l-39 75q150 207 218 450l78 -23q-37 -110 -84 -208z" />
    <glyph glyph-name="uni4F1A" unicode="&#x4f1a;" 
d="M478 797h56q138 -194 421 -336l-45 -70q-257 138 -404 314q-147 -176 -404 -314l-45 70q283 142 421 336zM260 408v71h481v-71h-481zM754 -37q-196 -10 -588 -26l-15 69q30 12 67 43q64 57 149 165h-279v71h825v-71h-450q-93 -115 -181 -200q201 6 412 15
q-23 24 -100 108l56 42q118 -120 222 -228l-61 -51q-28 31 -57 63z" />
    <glyph glyph-name="uni4F1E" unicode="&#x4f1e;" 
d="M477 800h58q139 -192 423 -324l-44 -71q-257 128 -408 307q-151 -179 -408 -307l-44 71q284 132 423 324zM539 105v-206h-79v206h-383v73h383v377h79v-377h386v-73h-386zM317 244q-32 40 -128 148l56 47q55 -55 134 -143zM667 243l-55 53q77 73 141 145l61 -51
q-75 -79 -147 -147z" />
    <glyph glyph-name="uni4F1F" unicode="&#x4f1f;" 
d="M622 250v-350h-77v350h-248v69h248v114h-197v69h197v110h-225v68h225v120h77v-120h280v-68h-280v-110h246v-69h-246v-114h283l-9 -207q-3 -64 -33 -85t-119 -21h-67l-11 72h84q44 0 58 10t15 41l4 121h-205zM248 582v-679h-74v518q-39 -76 -88 -148l-42 74
q126 200 198 451l75 -19q-31 -104 -69 -197z" />
    <glyph glyph-name="uni4F20" unicode="&#x4f20;" 
d="M255 576v-674h-74v521q-46 -84 -95 -151l-39 70q136 204 207 455l75 -19q-33 -107 -74 -202zM702 29q66 -34 131 -67l-42 -67q-262 142 -420 219l37 62q88 -43 225 -113q58 60 158 167h-370v68q14 42 36 114h-144v68h164q18 62 32 120h-152v68h169q14 59 30 130l82 -4
q-6 -26 -31 -126h305v-68h-323q-22 -80 -34 -120h387v-68h-406q-3 -11 -35 -115h387v-73q-105 -111 -186 -195z" />
    <glyph glyph-name="uni4F24" unicode="&#x4f24;" 
d="M536 411v5q3 39 5 134h78l-6 -136v-3h286l-15 -369q-3 -69 -35 -91q-33 -23 -129 -23h-113l-12 78h119q56 0 75 13q20 14 21 54l10 267h-212q-9 -137 -63 -235t-192 -201l-58 59q129 93 178 173q46 75 58 204h-194v71h199zM518 676h421v-71h-460q-54 -90 -111 -160
l-57 54q115 135 179 301l79 -16q-24 -57 -51 -108zM252 572v-671h-76v512q-38 -72 -87 -142l-43 70q133 207 203 457l78 -19q-31 -105 -75 -207z" />
    <glyph glyph-name="uni4F26" unicode="&#x4f26;" 
d="M603 794h58q104 -201 303 -330l-42 -68q-186 129 -290 297q-104 -168 -290 -297l-42 68q200 130 303 330zM501 185v-121q0 -46 17 -63q18 -18 64 -18h135q43 0 64 18q20 17 26 54q7 46 14 123l75 -22q-7 -73 -19 -140q-10 -54 -45 -80q-36 -26 -103 -26h-172
q-70 0 -101 33t-31 105v393h76v-179q169 72 287 162l47 -62q-141 -98 -334 -177zM254 575v-673h-76v521q-41 -75 -91 -145l-39 77q136 199 206 445l79 -22q-34 -103 -79 -203z" />
    <glyph glyph-name="uni4F2A" unicode="&#x4f2a;" 
d="M440 584q-23 33 -96 125l54 38q62 -73 100 -122zM716 170q-74 92 -124 148l54 43q123 -141 128 -146zM528 556q1 11 1 23q2 40 9 219h79q-9 -196 -10 -219q0 -12 -1 -23h297l-14 -515q-1 -68 -34 -91t-128 -23h-123l-11 76h124q56 0 75 13t20 53l11 415h-222
q-18 -196 -75 -321t-187 -258l-59 61q121 119 174 231q54 115 69 287h-205v72h210zM246 575v-675h-75v517q-45 -84 -86 -143l-41 76q130 203 198 451l78 -20q-36 -117 -74 -206z" />
    <glyph glyph-name="uni4F2F" unicode="&#x4f2f;" 
d="M816 357v231h-355v-231h355zM816 52v234h-355v-234h355zM816 -19h-355v-78h-78v756h163q22 70 40 142l86 -9q-21 -67 -43 -133h265v-755h-78v77zM245 566v-666h-76v511q-41 -74 -83 -132l-43 72q134 198 204 451l77 -20q-32 -107 -79 -216z" />
    <glyph glyph-name="uni4F30" unicode="&#x4f30;" 
d="M804 42v239h-347v-239h347zM804 -32h-347v-68h-76v454h210v186h-267v74h267v185h78v-185h272v-74h-272v-186h211v-454h-76v68zM249 570v-668h-75v518q-40 -72 -90 -145l-41 74q134 197 213 452l74 -20q-37 -113 -81 -211z" />
    <glyph glyph-name="uni4F34" unicode="&#x4f34;" 
d="M794 496l-65 36q53 72 120 183l64 -33q-43 -74 -119 -186zM460 500q-66 110 -112 183l63 31q66 -101 113 -179zM667 151v-251h-78v251h-274v73h274v148h-241v72h241v354h78v-354h244v-72h-244v-148h275v-73h-275zM253 568v-668h-76v518q-42 -73 -92 -144l-39 78
q141 203 212 449l75 -22q-33 -106 -80 -211z" />
    <glyph glyph-name="uni4F36" unicode="&#x4f36;" 
d="M585 794h60q104 -198 307 -328l-38 -73q-186 132 -299 306q-113 -174 -299 -306l-38 73q206 131 307 328zM627 372q-42 62 -98 139l58 37q49 -60 103 -139zM666 33l118 -78l-49 -61q-188 130 -358 240l45 56q94 -59 181 -116q81 84 179 190h-441v71h536v-73
q-98 -111 -211 -229zM247 569v-666h-74v518q-40 -70 -86 -140l-41 74q129 196 209 446l76 -19q-37 -111 -84 -213z" />
    <glyph glyph-name="uni4F38" unicode="&#x4f38;" 
d="M586 425v152h-159v-152h159zM586 210v151h-159v-151h159zM821 425v152h-160v-152h160zM821 210v151h-160v-151h160zM821 143h-160v-244h-75v244h-159v-57h-73v558h232v154h75v-154h233v-558h-73v57zM236 553v-652h-74v500q-43 -75 -79 -127l-38 73q128 199 198 453
l75 -19q-37 -125 -82 -228z" />
    <glyph glyph-name="uni4F3A" unicode="&#x4f3a;" 
d="M645 -87l-11 76h105q47 0 62 11q16 11 16 45v630h-453v71h529v-731q0 -61 -29 -82q-28 -20 -114 -20h-105zM326 494v69h429v-69h-429zM632 140v177h-197v-177h197zM703 75h-339v307h339v-307zM243 573v-673h-74v512q-42 -80 -85 -143l-38 73q127 200 190 456l78 -19
q-35 -117 -71 -206z" />
    <glyph glyph-name="uni4F3C" unicode="&#x4f3c;" 
d="M788 176q75 -82 164 -183l-54 -65q-31 40 -146 181q-71 -106 -227 -211l-52 63q170 109 233 216q66 112 72 340q4 152 4 252h75q-2 -141 -6 -255q-7 -216 -63 -338zM622 510q-7 15 -114 235l63 31q53 -99 119 -231zM384 39l-44 65q27 28 27 67v552h74v-552q91 61 179 127
l33 -70q-147 -109 -269 -189zM243 578v-677h-74v515q-35 -69 -85 -142l-38 73q124 193 192 453l74 -18q-32 -109 -69 -204z" />
    <glyph glyph-name="uni4F43" unicode="&#x4f43;" 
d="M592 386v265h-154v-265h154zM592 50v267h-154v-267h154zM820 386v265h-155v-265h155zM820 50v267h-155v-267h155zM820 -21h-382v-76h-75v819h532v-818h-75v75zM241 568v-668h-74v510q-41 -77 -81 -135l-41 73q126 200 192 452l79 -20q-34 -111 -75 -212z" />
    <glyph glyph-name="uni4F46" unicode="&#x4f46;" 
d="M240 554v-654h-75v503q-37 -66 -80 -128l-39 77q128 198 198 444l79 -21q-41 -127 -83 -221zM880 166h-493v577h493v-577zM802 237v182h-337v-182h337zM802 490v182h-337v-182h337zM311 -48v72h632v-72h-632z" />
    <glyph glyph-name="uni4F4D" unicode="&#x4f4d;" 
d="M498 94q-54 207 -108 375l74 22q37 -121 111 -375zM694 627h228v-73h-585v73h274q-30 96 -51 155l80 17q26 -77 54 -172zM714 21h229v-74h-630v74h321q82 233 149 474l80 -23q-102 -316 -149 -451zM253 574v-675h-76v519q-41 -76 -89 -143l-42 73q135 204 206 453l76 -24
q-30 -98 -75 -203z" />
    <glyph glyph-name="uni4F4E" unicode="&#x4f4e;" 
d="M638 434v7q-5 87 -7 220q-96 -7 -187 -12v-215h194zM576 57q20 -24 93 -124l-62 -42q-28 45 -89 131q-46 -27 -140 -79l-38 63q29 26 29 70v641q246 9 525 42l21 -71q-105 -12 -210 -21q2 -129 7 -229v-4h223v-69h-218q15 -213 68 -310q27 -57 51 -57q13 0 20 10t13 39
q10 44 17 123l70 -22q-11 -84 -20 -125q-11 -56 -36 -80q-22 -22 -60 -22q-78 -1 -124 104q-29 64 -46 137q-19 82 -28 203h-198v-306q86 48 161 98l25 -66q-36 -22 -54 -34zM246 567v-666h-73v519q-38 -68 -90 -140l-40 71q137 199 208 449l74 -21q-33 -107 -79 -212z" />
    <glyph glyph-name="uni4F4F" unicode="&#x4f4f;" 
d="M703 629h218v-73h-242v-217h217v-73h-217v-244h263v-73h-613v73h271v244h-221v73h221v217h-245v73h265q-19 69 -51 157l80 14q18 -53 54 -171zM263 573v-671h-76v523q-46 -81 -99 -153l-42 72q144 204 223 456l77 -20q-38 -110 -83 -207z" />
    <glyph glyph-name="uni4F50" unicode="&#x4f50;" 
d="M700 23h240v-71h-605v71h289v280h-165q-63 -110 -145 -210l-55 58q164 198 237 420h-172v71h193q20 69 37 157l78 -9q-21 -93 -37 -148h341v-71h-362q-36 -113 -78 -197h404v-71h-200v-280zM248 563v-662h-77v510q-39 -70 -85 -130l-39 69q132 195 206 447l75 -22
q-39 -121 -80 -212z" />
    <glyph glyph-name="uni4F51" unicode="&#x4f51;" 
d="M804 45v271h-304v-271h304zM505 387h374v-484h-75v71h-304v-71h-75v361q-51 -71 -111 -137l-42 70q159 176 242 372h-184v73h213q27 74 48 158l78 -8q-19 -72 -47 -150h316v-73h-344q-40 -98 -89 -182zM239 550v-650h-75v506q-40 -68 -79 -123l-42 75q131 187 211 440
l76 -20q-42 -123 -91 -228z" />
    <glyph glyph-name="uni4F53" unicode="&#x4f53;" 
d="M670 552q95 -253 274 -403l-39 -80q-185 183 -269 421v-342h151v-69h-151v-179h-73v179h-150v69h150v337q-82 -235 -264 -427l-43 78q100 94 164 194q60 93 110 222h-212v69h245v177h73v-177h270v-69h-236zM239 556v-654h-74v503q-38 -68 -81 -129l-39 73
q127 199 199 450l76 -18q-36 -120 -81 -225z" />
    <glyph glyph-name="uni4F55" unicode="&#x4f55;" 
d="M868 654v-624q0 -67 -32 -90t-126 -23h-117l-11 73h117q55 0 73 13t18 52v599h-441v72h593v-72h-74zM670 138h-296v390h296v-390zM601 205v256h-158v-256h158zM250 576v-673h-74v526q-39 -69 -92 -145l-42 75q135 193 210 439l75 -20q-36 -112 -77 -202z" />
    <glyph glyph-name="uni4F59" unicode="&#x4f59;" 
d="M119 -63l-49 63q105 74 221 195l55 -53q-115 -116 -227 -205zM554 236v-228q0 -61 -28 -81t-114 -20h-90l-11 73h93q41 0 55 10t14 39v207h-379v72h379v122h-210v70h479v-70h-188v-122h355v-72h-355zM876 -54q-129 112 -229 189l47 55q67 -49 232 -179zM480 800h54
q129 -184 424 -313l-43 -73q-265 125 -408 294q-145 -167 -408 -290l-43 73q286 124 424 309z" />
    <glyph glyph-name="uni4F5B" unicode="&#x4f5b;" 
d="M469 402h-91l-16 -131h105q2 56 2 91v40zM648 467v137h-110v-137h110zM648 271v131h-110v-55q0 -28 -2 -76h112zM818 467v137h-101v-137h101zM717 669h168v-267h-168v-131h203l-7 -191q-2 -46 -23 -61t-86 -15h-48l-9 63h53q28 0 38 7t11 27l2 105h-134v-295h-69v295
h-118q-13 -102 -57 -171q-42 -65 -137 -137l-51 60q87 60 124 112q39 54 51 136h-168l27 261h150v137h-156v65h156v130h69v-130h110v129h69v-129zM227 570v-668h-70v509q-37 -74 -75 -133l-37 72q114 197 177 449l73 -14q-26 -106 -68 -215z" />
    <glyph glyph-name="uni4F5C" unicode="&#x4f5c;" 
d="M630 115v-214h-77v677h-65q-59 -124 -128 -217l-53 58q117 159 185 383l79 -16q-33 -92 -51 -135h423v-73h-313v-158h262v-72h-262v-161h290v-72h-290zM257 577v-674h-75v519q-42 -78 -94 -151l-41 69q132 200 209 461l76 -20q-33 -108 -75 -204z" />
    <glyph glyph-name="uni4F60" unicode="&#x4f60;" 
d="M385 43l-71 33q78 146 134 313l70 -22q-49 -148 -133 -324zM871 43q-41 107 -129 321l69 22q55 -129 134 -315zM453 -86l-11 73h91q38 0 51 9t13 37v486h78v-510q0 -57 -27 -76t-106 -19h-89zM517 666h408v-69l-64 -167l-74 19l59 144h-362q-45 -94 -104 -182l-61 50
q106 154 164 337l79 -13q-22 -64 -45 -119zM254 562v-661h-76v509q-45 -79 -90 -140l-42 72q138 201 212 459l79 -21q-35 -112 -83 -218z" />
    <glyph glyph-name="uni4F63" unicode="&#x4f63;" 
d="M590 502v175h-162v-175h162zM590 261v174h-162v-90q0 -58 -1 -84h163zM826 502v175h-165v-175h165zM826 261v174h-165v-174h165zM826 194h-165v-257h-71v257h-166q-7 -94 -27 -158q-19 -60 -65 -138l-62 49q53 86 69 162q17 78 17 240v397h541v-748q0 -50 -24 -67
t-94 -17h-64l-10 66h65q34 0 45 8t11 32v174zM237 570v-668h-71v515q-44 -83 -82 -138l-38 73q125 204 188 449l77 -19q-32 -111 -74 -212z" />
    <glyph glyph-name="uni4F69" unicode="&#x4f69;" 
d="M286 -94l-53 57q45 87 61 175q16 90 16 260v353h535v-441q0 -208 5 -264q5 -59 24 -59q14 0 20 38q8 58 10 138l55 -13q-3 -58 -13 -138q-13 -98 -72 -98q-38 0 -59 27q-21 28 -28 89q-7 68 -7 279v377h-406v-291q0 -193 -17 -287t-71 -202zM605 377v-468h-58v468h-64
v-357h-58v414h122v100h-135v59h327v-59h-134v-100h123v-349q0 -34 -16 -46q-17 -12 -65 -12h-19l-9 63h22q18 0 24 4t6 17v266h-66zM211 574v-672h-64v505q-27 -63 -62 -123l-38 71q105 190 153 442l67 -13q-22 -106 -56 -210z" />
    <glyph glyph-name="uni4F6C" unicode="&#x4f6c;" 
d="M766 473h171v-68h-242q-85 -75 -197 -144v-88q188 62 337 141l41 -63q-156 -78 -378 -147v-51q0 -41 19 -58t65 -17h149q42 0 62 15q19 15 26 51q9 53 13 99l75 -22q-7 -56 -18 -108q-11 -54 -43 -78q-34 -25 -99 -25h-192q-135 -5 -134 119v187q-56 -31 -126 -65l-31 72
q182 77 320 182h-297v68h231v133h-161v67h161v124h76v-124h157v-67h-157v-133h70q109 101 194 236l66 -38q-77 -116 -158 -198zM237 546v-645h-75v499q-36 -63 -80 -123l-36 75q134 198 204 447l75 -17q-36 -121 -88 -236z" />
    <glyph glyph-name="uni4F6F" unicode="&#x4f6f;" 
d="M738 624h176v-69h-247v-144h212v-68h-212v-153h268v-69h-268v-221h-76v221h-269v69h269v153h-211v68h211v144h-242v69h309q82 121 114 177l73 -25q-54 -82 -107 -152zM517 635q-38 61 -95 141l67 26q31 -43 94 -135zM259 574v-674h-75v524q-50 -87 -97 -152l-42 72
q140 198 217 457l77 -21q-34 -104 -80 -206z" />
    <glyph glyph-name="uni4F70" unicode="&#x4f70;" 
d="M808 283v181h-342v-181h342zM808 36v179h-342v-179h342zM808 -33h-342v-67h-77v633h168q18 86 27 131h-227v70h577v-70h-265q-16 -66 -32 -131h248v-631h-77v65zM247 575v-675h-76v518q-42 -76 -84 -139l-41 75q129 192 203 445l74 -19q-35 -111 -76 -205z" />
    <glyph glyph-name="uni4F73" unicode="&#x4f73;" 
d="M673 448h257v-70h-592v70h257v141h-218v69h218v134h78v-134h220v-69h-220v-141zM673 10h267v-70h-611v70h266v155h-221v69h221v103h78v-103h226v-69h-226v-155zM256 573v-673h-77v524q-43 -75 -90 -138l-42 71q137 196 214 442l78 -19q-36 -105 -83 -207z" />
    <glyph glyph-name="uni4F7F" unicode="&#x4f7f;" 
d="M895 249h-238q-9 -121 -62 -192q113 -60 343 -79l-31 -73q-244 29 -364 101q-71 -57 -225 -110l-45 66q141 44 206 90q-57 49 -113 131l51 40q54 -77 113 -124q42 53 50 150h-233v274h236q1 31 1 99h-266v65h266v112h76v-112h273v-65h-273q0 -68 -1 -99h236v-274z
M823 313v147h-164v-136v-11h164zM583 313v14v133h-164v-147h164zM234 560v-657h-73v501q-36 -69 -78 -129l-36 73q124 204 186 452l77 -19q-33 -118 -76 -221z" />
    <glyph glyph-name="uni4F84" unicode="&#x4f84;" 
d="M661 8h278v-69h-630v69h279v156h-234v68h234v118h73v-118h237v-68h-237v-156zM811 400q-161 -6 -451 -16l-13 62q30 15 52 40q67 73 135 178h-180v69h558v-69h-287q-89 -127 -161 -210q200 6 302 11q-40 56 -81 112l58 36q89 -116 175 -235l-64 -41q-41 61 -43 63z
M242 560v-660h-73v514q-46 -80 -85 -136l-40 74q136 203 206 450l76 -21q-38 -117 -84 -221z" />
    <glyph glyph-name="uni4F88" unicode="&#x4f88;" 
d="M640 505q103 61 176 145h-282q-74 -71 -175 -137l-46 54q169 104 261 233l79 -13q-25 -36 -59 -75h308v-66q-87 -115 -216 -192q-132 -78 -340 -135l-35 65q154 37 265 88q-53 48 -103 90l53 39q63 -51 114 -96zM664 101q100 65 175 166h-258q-95 -88 -231 -165l-39 61
q192 101 293 228l79 -14q-12 -16 -38 -46h277v-68q-91 -143 -229 -229q-143 -89 -371 -138l-35 65q191 40 315 104q-22 20 -106 93l52 38q42 -33 116 -95zM250 561v-660h-75v517q-39 -68 -90 -139l-39 72q139 196 214 448l78 -17q-41 -117 -88 -221z" />
    <glyph glyph-name="uni4F8B" unicode="&#x4f8b;" 
d="M509 281q26 79 40 195h-122q-42 -140 -124 -270l-39 65q105 176 141 408h-88v65h326v-65h-172q-14 -89 -27 -139h170v-36q-17 -208 -77 -338q-62 -134 -206 -266l-49 55q140 124 200 255q-28 25 -105 88l40 54q36 -26 92 -71zM680 127v545h64v-545h-64zM687 -83l-11 72
h94q39 0 52 9t13 37v756h68v-784q0 -54 -25 -72t-101 -18h-90zM229 574v-674h-68v513q-31 -66 -76 -141l-37 74q114 198 178 455l71 -13q-33 -123 -68 -214z" />
    <glyph glyph-name="uni4F8D" unicode="&#x4f8d;" 
d="M512 28q-39 44 -126 133l54 45q40 -38 130 -128zM667 482h276v-68h-631v68h278v127h-229v67h229v122h77v-122h228v-67h-228v-127zM798 230v-214q0 -62 -29 -83t-117 -21h-104l-11 72h106q47 0 62 11q16 11 16 45v190h-397v67h397v79h77v-79h138v-67h-138zM254 578v-677
h-76v527q-41 -72 -94 -146l-38 78q132 185 210 441l77 -21q-35 -106 -79 -202z" />
    <glyph glyph-name="uni4F97" unicode="&#x4f97;" 
d="M455 506v65h322v-65h-322zM685 157v181h-139v-181h139zM747 93h-263v309h263v-309zM329 -98v844h574v-735q0 -59 -28 -79t-111 -20h-90l-10 69h98q41 0 55 10t14 39v648h-430v-776h-72zM226 566v-666h-72v505q-34 -66 -70 -124l-39 72q115 196 177 447l74 -21
q-33 -118 -70 -213z" />
    <glyph glyph-name="uni4F9B" unicode="&#x4f9b;" 
d="M792 278h148v-72h-642v72h151v256h-115v71h115v192h76v-192h191v192h76v-192h118v-71h-118v-256zM716 278v256h-191v-256h191zM875 -93q-43 45 -203 208l56 49q97 -91 206 -202zM356 -99l-59 56q107 90 206 205l62 -45q-110 -125 -209 -216zM248 571v-673h-77v521
q-42 -73 -87 -134l-38 77q135 189 206 437l77 -19q-41 -120 -81 -209z" />
    <glyph glyph-name="uni4F9D" unicode="&#x4f9d;" 
d="M637 569q29 -152 68 -246q85 66 162 135l48 -58q-71 -56 -183 -137q71 -138 213 -242l-50 -67q-122 92 -195 216q-74 126 -113 314q-34 -67 -81 -131v-337q76 36 148 80l21 -67q-128 -72 -233 -122l-39 62q32 29 32 71v228q-61 -66 -141 -129l-37 67q196 148 297 363
h-241v69h280q-29 83 -54 148l72 18q30 -78 57 -166h266v-69h-297zM243 564v-663h-73v515q-44 -78 -86 -135l-38 69q129 192 201 447l74 -20q-33 -110 -78 -213z" />
    <glyph glyph-name="uni4FA0" unicode="&#x4fa0;" 
d="M779 368l-55 37q56 69 111 146l57 -35q-70 -98 -113 -148zM453 372q-48 77 -99 144l56 33q42 -51 102 -141zM664 255q33 -98 102 -165q67 -65 178 -113l-43 -70q-208 97 -279 270q-33 -81 -102 -146q-72 -68 -195 -131l-46 68q130 61 200 129q71 69 93 158h-264v69h274
q4 36 6 131l2 142h-243v68h243v131l75 -1q0 -80 -1 -130h237v-68h-237q-2 -98 -3 -146q-2 -79 -7 -127h282v-69h-272zM246 563v-661h-74v513q-43 -74 -88 -138l-39 73q135 209 206 449l76 -20q-36 -114 -81 -216z" />
    <glyph glyph-name="uni4FA3" unicode="&#x4fa3;" 
d="M823 35v211h-394v-211h394zM823 -32h-394v-67h-76v412h546v-412h-76v67zM791 492v183h-332v-183h332zM865 425h-480v317h480v-317zM238 561v-662h-76v506q-41 -73 -79 -128l-40 74q127 195 202 449l75 -20q-39 -122 -82 -219z" />
    <glyph glyph-name="uni4FA5" unicode="&#x4fa5;" 
d="M725 211v-179q0 -30 11 -42t41 -12h34q28 0 41 11t17 38q5 37 7 86l66 -21q-4 -57 -10 -92q-8 -46 -35 -68t-78 -22h-67q-52 0 -76 25q-25 26 -25 80v196h-117q-4 -128 -50 -193q-47 -67 -174 -123l-49 64q115 46 155 96q41 52 45 156h-165v65h630v-65h-201zM679 456
q59 -60 116 -60q42 0 60 37q16 32 32 83l55 -36q-15 -50 -35 -89q-34 -63 -107 -63q-108 0 -192 95q-122 -54 -278 -90l-28 66q138 29 264 78q-38 56 -67 126l-178 -27l-11 65l166 25q-19 56 -37 131l76 5q15 -64 35 -125l332 50l10 -63l-317 -49q26 -55 62 -107
q99 46 193 107l41 -46q-101 -69 -192 -113zM237 560v-659h-72v508q-34 -64 -80 -133l-39 73q128 198 196 450l75 -18q-39 -127 -80 -221z" />
    <glyph glyph-name="uni4FA6" unicode="&#x4fa6;" 
d="M642 165q226 -150 298 -201l-46 -61q-126 91 -276 196q-32 -63 -99 -110t-189 -93l-41 69q167 57 227 118q60 62 65 158q5 46 5 155h73q0 -95 -5 -157q-3 -39 -12 -74zM633 523h246v-400h-74v331h-370v-334h-73v403h195v277h76v-102h297v-66h-297v-109zM241 549v-651h-74
v511q-30 -51 -82 -125l-42 74q133 182 216 444l76 -20q-42 -123 -94 -233z" />
    <glyph glyph-name="uni4FA7" unicode="&#x4fa7;" 
d="M297 178v573h325v-573h-59v507h-207v-507h-59zM696 126v579h58v-579h-58zM709 -83l-10 68h78q36 0 47 8q12 8 12 34v765h65v-794q0 -49 -23 -65t-91 -16h-78zM210 563v-663h-65v506q-35 -74 -62 -119l-38 73q108 185 166 439l66 -20q-31 -118 -67 -216zM475 171
q117 -111 186 -179l-50 -54q-97 102 -157 162q-22 -54 -63 -101q-38 -44 -108 -98l-43 60q70 52 110 98q40 45 57 101q22 73 21 201v240h61v-244q0 -115 -14 -186z" />
    <glyph glyph-name="uni4FA8" unicode="&#x4fa8;" 
d="M716 -92v344h73v-344h-73zM380 -105l-65 44q80 55 109 102q27 43 33 119q2 12 4 93h72q0 -71 -2 -97q-5 -89 -35 -142q-32 -57 -116 -119zM699 465q67 -138 247 -203l-35 -70q-115 54 -178 115q-63 62 -102 158h-8q-33 -86 -97 -149q-68 -66 -199 -134l-40 67
q108 49 169 100t90 116h-223v66h246q14 56 17 138q-66 -3 -214 -7l-8 67q267 5 514 24l9 -67q-123 -10 -227 -14q-6 -79 -19 -141h289v-66h-231zM238 558v-657h-71v516q-43 -76 -85 -138l-40 70q132 203 203 450l76 -21q-34 -112 -83 -220z" />
    <glyph glyph-name="uni4FA9" unicode="&#x4fa9;" 
d="M580 794h60q102 -183 305 -308l-39 -70q-188 127 -296 284q-107 -157 -296 -284l-39 70q203 125 305 308zM407 407v67h396v-67h-396zM801 -38q-155 -9 -478 -23l-14 66q35 15 64 46q60 63 123 166h-196v68h612v-68h-324q-78 -116 -156 -204q214 8 321 14q-20 27 -88 116
l60 35q154 -196 183 -235l-63 -42q-22 30 -44 61zM249 567v-666h-73v523q-43 -74 -92 -142l-38 73q136 201 209 445l78 -18q-38 -111 -84 -215z" />
    <glyph glyph-name="uni4FAE" unicode="&#x4fae;" 
d="M642 121q-43 38 -110 91l38 42q59 -42 114 -85zM655 354q-52 45 -109 90l40 42q81 -61 110 -86zM860 338h85v-64h-87l-5 -166h72v-64h-73l-1 -24q-2 -66 -32 -87q-31 -22 -123 -22h-113l-11 66h123q50 0 67 12t18 48v7h-434l24 230h-81v64h88l23 227q-27 -34 -74 -83
l-27 72q107 112 167 248l76 -8q-18 -41 -39 -78h420v-63h-457q-27 -42 -61 -83h461zM788 338l5 168h-327l-17 -168h339zM787 274h-345l-17 -166h357zM237 566v-665h-71v522q-37 -69 -83 -135l-38 73q128 190 201 438l73 -19q-38 -118 -82 -214z" />
    <glyph glyph-name="uni4FAF" unicode="&#x4faf;" 
d="M827 572h113v-64h-640v64h451l9 110h-381v64h463zM665 153q30 -65 95 -107q66 -43 185 -73l-32 -68q-120 35 -188 79q-68 45 -106 114q-32 -62 -101 -110q-70 -49 -194 -91l-42 66q131 40 198 84q66 45 86 106h-272v65h285q1 4 1 9q4 33 6 110h-150q-36 -55 -69 -93
l-57 40q86 93 128 198l70 -10q-16 -35 -35 -71h416v-64h-230q-1 -61 -8 -119h288v-65h-274zM238 563v-662h-71v513q-37 -69 -82 -137l-38 74q125 199 193 448l75 -19q-37 -121 -77 -217z" />
    <glyph glyph-name="uni4FB5" unicode="&#x4fb5;" 
d="M795 630v69h-449v58h520v-304h-530v58h459v68h-426v51h426zM291 240v145h629v-143h-70v85h-489v-87h-70zM682 39q94 -37 248 -65l-31 -69q-191 42 -290 91q-110 -57 -296 -100l-30 69q164 36 253 75q-68 49 -127 136l40 23h-76v59h463v-63q-67 -97 -154 -156zM608 75
q81 48 144 124h-278q59 -79 134 -124zM231 556v-655h-71v502q-29 -56 -76 -128l-38 72q123 202 186 451l73 -19q-30 -113 -74 -223z" />
    <glyph glyph-name="uni4FBF" unicode="&#x4fbf;" 
d="M893 209h-244q-13 -97 -62 -159q120 -56 355 -73l-30 -72q-253 27 -379 94q-72 -53 -226 -103l-39 64q137 38 202 80q-59 43 -116 116l51 43q60 -73 119 -113q41 47 53 123h-230v385h238q1 27 1 89h-258v64h603v-64h-274q0 -45 -1 -89h237v-385zM825 270v103h-169v-56
q0 -24 -1 -47h170zM825 430v103h-169v-103h169zM585 533h-169v-103h169v103zM584 270q1 25 1 51v52h-169v-103h168zM236 570v-670h-70v513q-46 -89 -83 -144l-38 73q125 204 187 455l73 -19q-29 -108 -69 -208z" />
    <glyph glyph-name="uni4FC3" unicode="&#x4fc3;" 
d="M801 489v189h-352v-189h352zM450 207q41 -151 150 -185v398h-224v327h499v-327h-201v-155h235v-69h-235v-187q8 -1 25 -1h246l-12 -71h-239q-105 0 -168 38q-62 37 -98 122q-29 -97 -106 -201l-56 56q64 82 89 157q26 80 33 225l72 -1q-2 -55 -10 -126zM239 547v-647h-74
v497q-37 -69 -81 -129l-37 73q131 201 201 457l74 -19q-34 -120 -83 -232z" />
    <glyph glyph-name="uni4FC4" unicode="&#x4fc4;" 
d="M865 575q-47 51 -124 126l48 44q53 -48 129 -122zM744 132q2 -10 3 -14q29 -131 79 -131q13 0 22 11q8 11 15 39q12 51 19 128l64 -25q-9 -72 -23 -136q-11 -51 -34 -74t-63 -23q-98 0 -142 171q-64 -51 -132 -94l-43 65q82 46 157 112q-17 102 -26 292h-159v-157
q59 13 117 26l3 -69l-120 -30v-223q0 -52 -24 -69t-97 -17h-68l-11 73h70q36 0 47 8q12 8 12 34v178q-64 -15 -129 -27l-17 75q69 11 146 27v171h-140v67h140v127q-30 -4 -105 -13l-14 70q162 16 281 41l15 -69q-41 -8 -106 -18v-138h157q-8 251 -8 280h75q0 -121 6 -280
h233v-67h-231q6 -129 17 -231q79 83 134 175l60 -44q-78 -123 -180 -221zM226 572v-672h-72v510q-28 -57 -71 -125l-38 72q112 188 176 443l74 -13q-29 -111 -69 -215z" />
    <glyph glyph-name="uni4FCA" unicode="&#x4fca;" 
d="M325 310l-36 59q105 51 222 130l40 -50q-120 -83 -226 -139zM910 322q-127 71 -231 125l36 52q142 -71 225 -119zM827 540q-80 -5 -480 -22l-14 63q24 9 55 33q97 78 186 190l78 -29q-112 -113 -199 -187q105 3 315 11q-43 42 -87 85l51 37q123 -113 200 -189l-55 -43
q-15 16 -50 51zM687 63q96 -46 256 -80l-34 -72q-180 47 -286 108q-107 -65 -306 -123l-35 69q176 44 277 97q-65 51 -115 123q-40 -41 -95 -85l-49 49q144 110 223 243l70 -13q-30 -48 -46 -70h293v-67q-64 -109 -153 -179zM622 100q82 56 138 146h-261q-4 -5 -9 -10
q54 -84 132 -136zM249 556v-653h-74v514q-40 -68 -90 -136l-40 76q143 197 222 443l74 -21q-44 -123 -92 -223z" />
    <glyph glyph-name="uni4FCF" unicode="&#x4fcf;" 
d="M823 358v115h-382v-115h382zM823 178v114h-382v-114h382zM823 112h-382v-209h-74v638h226v259h76v-259h228v-529q0 -59 -27 -78t-109 -19h-98l-10 68h98q44 0 58 10t14 41v78zM463 582q-67 83 -118 142l54 41q84 -92 122 -138zM795 578l-52 48q78 80 126 139l54 -44
q-83 -95 -128 -143zM234 569v-670h-73v512q-36 -69 -78 -136l-38 72q123 210 185 451l78 -20q-31 -104 -74 -209z" />
    <glyph glyph-name="uni4FD0" unicode="&#x4fd0;" 
d="M671 122v548h65v-548h-65zM687 -82l-10 70h91q40 0 54 10q13 9 13 38v753h68v-780q0 -55 -25 -73t-102 -18h-89zM427 315q-52 -138 -133 -241l-34 77q105 128 160 298h-134v66h141v152q-80 -6 -116 -8l-12 68q137 9 304 27l15 -67q-89 -11 -123 -14v-158h130v-66h-130
v-76q69 -62 137 -123l-34 -64q-31 32 -103 102v-386h-68v413zM226 573v-673h-68v516q-35 -72 -76 -136l-38 72q117 197 175 447l74 -12q-29 -114 -67 -214z" />
    <glyph glyph-name="uni4FD7" unicode="&#x4fd7;" 
d="M764 30v192h-303v-192h303zM362 516l-53 53q108 98 200 212l57 -44q-102 -126 -204 -221zM873 531q-82 81 -216 204l53 47q128 -111 216 -197zM839 282v-383h-75v63h-303v-63h-75v382q-37 -25 -70 -45l-40 65q106 59 184 137q74 74 124 169h58q50 -95 124 -169
q78 -78 184 -137l-40 -65q-44 27 -71 46zM828 290q-125 91 -215 226q-90 -135 -215 -226h430zM237 559v-659h-74v513q-42 -75 -82 -131l-37 72q133 201 204 447l75 -21q-37 -112 -86 -221z" />
    <glyph glyph-name="uni4FD8" unicode="&#x4fd8;" 
d="M422 477q-39 77 -70 135l67 19q35 -67 70 -133zM610 490q-17 54 -51 144l67 16q50 -134 53 -143zM804 472l-62 28q51 76 87 150l65 -27q-56 -97 -90 -151zM346 665l-12 69q290 7 570 28l14 -69q-286 -20 -572 -28zM669 155v-144q0 -60 -28 -80t-112 -20h-94l-11 71h98
q43 0 57 10t14 41v122h-298v69h298v48l169 109h-408v66h525v-66l-210 -134v-23h272v-69h-272zM240 578v-678h-74v524q-34 -64 -83 -139l-36 73q127 205 188 440l78 -18q-34 -109 -73 -202z" />
    <glyph glyph-name="uni4FDD" unicode="&#x4fdd;" 
d="M796 509v176h-356v-176h356zM870 442h-504v310h504v-310zM698 253q77 -133 247 -220l-41 -70q-180 108 -250 252v-313h-75v312q-89 -155 -262 -261l-47 64q94 54 154 108q58 53 108 128h-240v67h287v95h75v-95h284v-67h-240zM236 566v-663h-73v504q-38 -72 -79 -132
l-37 70q125 209 186 453l75 -19q-31 -110 -72 -213z" />
    <glyph glyph-name="uni4FDE" unicode="&#x4fde;" 
d="M433 296v89h-219v-89h219zM433 148v92h-219v-92h219zM433 92h-219v-188h-69v541h357v-447q0 -50 -23 -67q-24 -17 -94 -17h-69l-9 62h73q31 0 42 8t11 30v78zM607 76v336h68v-336h-68zM643 -87l-10 69h91q40 0 53 9t13 38v424h71v-445q0 -57 -27 -76t-106 -19h-85z
M702 574v-54h-403v48q-94 -53 -210 -100l-32 71q273 101 421 260h54q148 -159 421 -260l-32 -71q-123 49 -219 106zM690 581q-105 63 -185 141q-80 -78 -185 -141h370z" />
    <glyph glyph-name="uni4FE1" unicode="&#x4fe1;" 
d="M362 317v64h526v-64h-526zM362 465v64h526v-64h-526zM685 683h256v-67h-625v67h283q-28 77 -40 106l82 11q10 -24 44 -117zM813 21v147h-376v-147h376zM813 -44h-376v-57h-73v334h522v-333h-73v56zM236 566v-666h-73v511q-42 -78 -79 -133l-38 72q124 201 190 450l76 -19
q-30 -105 -76 -215z" />
    <glyph glyph-name="uni4FE9" unicode="&#x4fe9;" 
d="M834 167l-38 -43q-18 26 -91 131q-28 -106 -91 -211l-51 41q111 163 113 381h-125q-2 -38 -10 -101q59 -59 94 -99l-32 -57q-71 84 -74 88q-26 -117 -95 -232l-46 40v-202h-71v629h174q1 47 1 135h-182v69h623v-69h-193q-1 -36 -1 -135h166v-530q0 -53 -25 -71t-100 -18
h-80l-10 65h84q36 0 48 9t12 34v146zM834 182v284h-97q-4 -72 -15 -137q92 -120 112 -147zM554 667q0 -88 -1 -135h124q1 47 1 135h-124zM490 466h-102v-351q51 85 74 161q24 82 28 190zM223 566v-666h-71v501q-35 -71 -69 -124l-38 73q113 196 173 450l74 -14
q-29 -114 -69 -220z" />
    <glyph glyph-name="uni4FED" unicode="&#x4fed;" 
d="M589 794h58q95 -183 302 -308l-38 -70q-192 128 -293 288q-101 -160 -293 -288l-38 70q207 125 302 308zM763 16h159v-69h-616v69h388q68 186 110 323l70 -20q-45 -131 -111 -303zM606 106q-14 63 -58 232l66 11q29 -105 58 -229zM430 63q-36 124 -80 247l66 17
q26 -76 81 -245zM412 406v67h409v-67h-409zM247 556v-654h-75v510q-41 -70 -85 -133l-41 74q137 197 214 446l78 -20q-45 -126 -91 -223z" />
    <glyph glyph-name="uni4FEE" unicode="&#x4fee;" 
d="M410 -101l-30 62q311 78 511 223l41 -53q-211 -151 -522 -232zM459 61l-31 59q220 65 391 181l38 -50q-192 -124 -398 -190zM463 209l-31 57q167 48 299 132l39 -45q-141 -85 -307 -144zM300 51v595h67v-595h-67zM736 493q83 -41 209 -65l-24 -66q-150 36 -245 90
q-99 -59 -259 -107l-28 61q142 41 226 86q-55 42 -101 100q-32 -39 -80 -85l-42 53q118 112 175 242l75 -11q-17 -35 -42 -77h284v-63q-67 -98 -148 -158zM674 527q74 49 129 125h-243q-4 -6 -8 -11q55 -71 122 -114zM224 578v-676h-71v507q-37 -75 -68 -126l-37 69
q105 187 168 448l72 -13q-25 -101 -64 -209z" />
    <glyph glyph-name="uni4FEF" unicode="&#x4fef;" 
d="M688 127q-40 83 -86 165l53 26q31 -55 88 -162zM861 382v-369q0 -59 -28 -79t-110 -20h-72l-10 69h78q44 0 59 11t15 42v346h-194v66h194v134h68v-134h77v-66h-77zM553 429v-526h-69v398q-26 -42 -51 -77l-42 39q-5 -110 -25 -189q-19 -75 -62 -168l-55 58q43 91 58 173
q16 86 16 231v320h286q-18 63 -31 106l80 9q24 -85 31 -115h251v-68h-547v-254q0 -57 -1 -82q100 134 156 315l66 -23q-30 -82 -61 -147zM222 562v-662h-72v498q-30 -60 -66 -120l-38 71q123 226 173 451l74 -15q-29 -111 -71 -223z" />
    <glyph glyph-name="uni4FF1" unicode="&#x4ff1;" 
d="M860 175h84v-63h-657v63h85v578h488v-578zM786 175v89h-341v-89h341zM786 319v89h-341v-89h341zM786 463v87h-341v-87h341zM786 605v86h-341v-86h341zM895 -100q-91 62 -220 141l38 54q139 -82 220 -136zM329 -103l-35 61q112 55 221 136l44 -53q-136 -97 -230 -144z
M242 567v-666h-73v515q-42 -75 -87 -140l-37 72q131 201 201 451l73 -19q-33 -109 -77 -213z" />
    <glyph glyph-name="uni4FFA" unicode="&#x4ffa;" 
d="M845 419v-330h-218v-62q0 -31 15 -44t50 -13h105q35 0 51 11q17 12 22 41q7 35 12 82l64 -20q-5 -49 -15 -92q-10 -44 -38 -63q-29 -19 -87 -19h-136q-60 0 -86 25t-26 78v76h-148v-53h-68v369q-15 -10 -47 -30l-41 60q145 77 221 182h-164v62h201q28 54 46 121l74 -9
q-21 -66 -44 -112h324v-62h-200q72 -109 233 -168l-33 -63q-47 21 -67 33zM803 443q-105 68 -165 174h-84q-61 -98 -159 -174h163v98h69v-98h176zM777 239h-150v-93h150v93zM777 293v93h-150v-93h150zM558 146v93h-148v-93h148zM558 386h-148v-93h148v93zM238 569v-667h-71
v512q-43 -82 -82 -139l-38 73q123 197 191 450l72 -19q-30 -108 -72 -210z" />
    <glyph glyph-name="uni500D" unicode="&#x500d;" 
d="M682 678h229v-66h-574v66h268q-33 80 -46 112l74 19q25 -63 49 -131zM750 431h192v-67h-636v67h188q-32 54 -86 137l61 29q39 -58 105 -166h91q53 73 106 166l71 -27q-39 -61 -92 -139zM800 23v178h-354v-178h354zM800 -42h-354v-58h-73v366h501v-366h-74v58zM233 558
v-658h-73v502q-36 -68 -77 -128l-36 73q124 205 185 452l77 -19q-34 -121 -76 -222z" />
    <glyph glyph-name="uni5012" unicode="&#x5012;" 
d="M683 129v546h64v-546h-64zM693 -82l-11 71h89q38 0 51 9t13 37v759h68v-785q0 -55 -26 -73q-25 -18 -102 -18h-82zM579 422q-92 -7 -293 -17l-13 55q26 20 40 41q51 82 92 171h-111v65h338v-65h-152q-59 -115 -112 -199q59 2 182 10q-27 57 -52 106l53 21
q56 -104 109 -212l-58 -26q-4 9 -23 50zM493 48q100 12 150 19l-2 -71q-203 -28 -370 -43l-8 72q102 9 161 16v161h-134v64h134v108h69v-108h130v-64h-130v-154zM221 596v-696h-68v523q-31 -71 -71 -141l-38 71q102 189 164 449l71 -12q-27 -106 -58 -194z" />
    <glyph glyph-name="uni5014" unicode="&#x5014;" 
d="M819 294v143h63v-203h-169v-224h131v158h65v-267h-65v48h-390v219h65v-158h129v224h-168v204h63v-144h105v193h65v-193h106zM834 572v115h-420v-115h420zM414 508v-95q0 -185 -21 -293q-21 -106 -78 -221l-63 44q52 103 71 198q19 98 19 269v342h563v-244h-491zM226 570
v-669h-71v505q-29 -61 -71 -128l-38 72q118 212 174 450l75 -16q-26 -100 -69 -214z" />
    <glyph glyph-name="uni5018" unicode="&#x5018;" 
d="M771 573l-50 47q51 53 126 139l53 -44q-12 -14 -129 -142zM466 575q-51 61 -126 142l51 42q73 -74 128 -137zM685 144v162h-134v-162h134zM747 83h-257v284h257v-284zM656 532h246v-525q0 -58 -27 -77t-107 -19h-87l-10 67h93q40 0 54 10q13 9 13 38v438h-425v-560h-70
v628h246v266h74v-266zM233 562v-662h-72v509q-41 -77 -77 -129l-37 73q124 195 190 447l73 -19q-32 -112 -77 -219z" />
    <glyph glyph-name="uni5019" unicode="&#x5019;" 
d="M832 578h105v-64h-536v64h360q8 70 10 112h-315v63h390zM301 61v603h65v-603h-65zM715 162q58 -131 232 -189l-40 -66q-170 70 -231 199q-31 -66 -97 -116t-181 -93l-38 64q125 44 187 92q59 45 77 109h-225v63h235q1 5 1 11q2 31 4 111h-118q-29 -53 -61 -92l-58 34
q73 86 108 201l66 -10q-16 -48 -26 -70h351v-63h-191q-2 -56 -5 -111q0 -6 -1 -11h236v-63h-225zM219 569v-668h-68v509q-38 -76 -71 -128l-36 72q109 191 170 447l72 -13q-30 -118 -67 -219z" />
    <glyph glyph-name="uni501A" unicode="&#x501a;" 
d="M661 703h253v-64h-263q-11 -29 -12 -32q37 -15 256 -107l-33 -59q-127 60 -257 116q-59 -66 -236 -119l-33 61q112 29 167 62q52 31 70 78h-236v64h250q5 42 5 95h74q-2 -65 -5 -95zM858 366v-354q0 -60 -28 -80t-112 -20h-104l-10 70h110q44 0 58 10q15 11 15 42v332
h-489v64h645v-64h-85zM664 40h-307v251h307v-251zM425 101h171v129h-171v-129zM244 564v-664h-71v518q-42 -77 -88 -139l-37 73q131 203 198 448l77 -19q-32 -105 -79 -217z" />
    <glyph glyph-name="uni501F" unicode="&#x501f;" 
d="M794 175v101h-350v-101h350zM794 20v98h-350v-98h350zM794 -44h-350v-56h-75v439h500v-439h-75v56zM709 492v123h-182v-123h182zM784 492h155v-65h-638v65h152v123h-120v65h120v116h74v-116h182v116h75v-116h131v-65h-131v-123zM238 560v-661h-74v506q-41 -74 -80 -129
l-37 71q123 202 190 453l77 -17q-29 -106 -76 -223z" />
    <glyph glyph-name="uni5021" unicode="&#x5021;" 
d="M789 608v89h-337v-89h337zM789 464v88h-337v-88h337zM862 403h-483v355h483v-355zM826 163v98h-411v-98h411zM826 9v98h-411v-98h411zM826 -53h-411v-48h-73v424h558v-424h-74v48zM236 564v-663h-73v505q-38 -73 -77 -130l-38 73q119 192 185 448l76 -18
q-33 -117 -73 -215z" />
    <glyph glyph-name="uni5026" unicode="&#x5026;" 
d="M770 619l-49 40q60 63 100 118l54 -36q-68 -81 -105 -122zM448 623q-50 65 -95 114l51 36q54 -57 97 -112zM767 266l-5 -118q-2 -46 -25 -62t-88 -16h-73l-8 54h73q31 0 43 8t13 30l4 63h-227v-173q0 -42 18 -60t65 -18h163q43 0 64 14q18 12 25 41q8 33 15 84l67 -23
q-12 -65 -20 -96q-11 -44 -44 -64t-97 -20h-195q-130 0 -130 127v186q-44 -35 -118 -84l-37 65q157 89 227 190h-192v62h227q20 41 32 86v2h-225v62h239q14 82 22 191l73 -1q-6 -102 -22 -190h276v-62h-289l-1 -4q-10 -37 -28 -84h348v-62h-195q72 -108 205 -163l-33 -67
q-84 43 -147 102zM747 286q-49 50 -79 108h-110q-34 -59 -83 -108h272zM225 557v-657h-71v499q-36 -71 -73 -126l-36 73q120 207 176 454l76 -17q-29 -117 -72 -226z" />
    <glyph glyph-name="uni502A" unicode="&#x502a;" 
d="M874 255h-148v-209q0 -36 13 -50q11 -12 40 -12h31q30 0 44 13q13 13 18 46q5 38 8 96l63 -23q-4 -59 -12 -113q-7 -48 -36 -71q-29 -22 -84 -22h-51q-58 0 -83 27t-25 89v229h-105q0 -15 -2 -45q-6 -108 -51 -174q-47 -69 -165 -137l-48 60q107 60 145 111t43 140
q2 28 2 45h-131v464q119 25 222 66l32 -64q-116 -40 -181 -53v-140h160v-63h-160v-145h388v145h-161v63h161v142h-171v65h244v-480zM236 580v-679h-73v515q-37 -75 -81 -141l-36 71q122 214 182 451l75 -19q-27 -97 -67 -198z" />
    <glyph glyph-name="uni503A" unicode="&#x503a;" 
d="M638 108q148 -69 295 -144l-37 -64q-116 65 -284 151q-34 -52 -103 -89q-72 -38 -199 -68l-33 69q160 34 228 79q56 37 67 98q8 40 8 97h74q-1 -14 -2 -27q-3 -45 -8 -75q-3 -14 -6 -27zM351 68v267h521v-260h-73v202h-375v-209h-73zM653 462h286v-56h-649v56h289v73
h-235v55h235v72h-259v56h259v83h74v-83h265v-56h-265v-72h232v-55h-232v-73zM229 574v-675h-72v507q-37 -72 -73 -129l-38 72q118 205 174 451l75 -13q-28 -112 -66 -213z" />
    <glyph glyph-name="uni503C" unicode="&#x503c;" 
d="M795 421v83h-356v-83h356zM795 280v85h-356v-85h356zM795 138v87h-356v-87h356zM795 -3v85h-356v-85h356zM868 -3h74v-63h-657v63h81v568h213v85h-257v62h257v89h75v-89h269v-62h-269v-85h214v-568zM231 564v-661h-73v505q-31 -60 -75 -129l-39 69q121 200 191 453
l74 -19q-33 -110 -78 -218z" />
    <glyph glyph-name="uni503E" unicode="&#x503e;" 
d="M730 169q83 -78 214 -205l-48 -57q-95 102 -187 193q-47 -113 -215 -204l-45 62q139 70 184 145q46 75 46 207q1 28 1 129h67q0 -99 -1 -129q-3 -89 -16 -141zM746 682q-11 -54 -26 -117h182v-441h-65v377h-249v-379h-66v443h127q15 69 23 117h-184v66h446v-66h-188z
M386 468v-356q41 25 92 64l26 -62q-84 -60 -174 -114l-36 58q24 21 24 70v652h68v-248h92v-64h-92zM223 580v-679h-69v512q-39 -79 -68 -128l-37 67q102 184 169 450l67 -13q-26 -108 -62 -209z" />
    <glyph glyph-name="uni5047" unicode="&#x5047;" 
d="M524 521v164h-137v-164h137zM387 103v-202h-69v848h269v-292h-200v-112h176v-64h-176v-114h186v-64h-186zM826 526v155h-192v66h259v-287h-263v66h196zM792 79q57 -56 158 -107l-40 -65q-106 63 -164 121q-70 -69 -191 -133l-41 64q121 58 188 120q-58 76 -93 204l59 22
q30 -107 80 -176q58 75 82 187h-240v67h311v-63q-33 -145 -109 -241zM223 589v-689h-69v515q-32 -70 -70 -136l-37 68q107 196 163 451l70 -16q-26 -104 -57 -193z" />
    <glyph glyph-name="uni504F" unicode="&#x504f;" 
d="M830 539v107h-438v-107h438zM845 129h-91v-185h-55v185h-89v-185h-55v185h-90v-227h-62v488h504v-407q0 -42 -17 -56t-68 -14h-41l-9 58h39q20 0 27 7t7 27v124zM845 188v140h-91v-140h91zM699 328h-89v-140h89v140zM667 708h230v-229h-505v-37q0 -165 -20 -273
q-25 -138 -92 -259l-43 62q52 102 69 195q18 95 18 271v270h268q-9 36 -25 87l75 10q8 -26 25 -97zM555 328h-90v-140h90v140zM224 561v-661h-69v504q-29 -59 -71 -127l-37 73q114 197 179 451l72 -16q-36 -128 -74 -224z" />
    <glyph glyph-name="uni505A" unicode="&#x505a;" 
d="M500 86v223h-132v-223h132zM470 373h95v-351h-197v-48h-66v399h97v176h-122v65h122v182h71v-182h121v-65h-121v-176zM800 143q48 -77 144 -166l-42 -70q-89 84 -143 168q-60 -87 -164 -179l-46 63q112 100 170 186q-56 117 -76 290q-19 -38 -44 -78l-32 68
q88 161 134 374l72 -9q-24 -93 -49 -165h217v-66h-44q-15 -259 -97 -416zM760 218q59 124 71 341h-132q-2 -6 -4 -11q14 -214 65 -330zM221 586v-685h-69v519q-35 -75 -69 -133l-39 69q104 183 169 443l70 -14q-25 -94 -62 -199z" />
    <glyph glyph-name="uni505C" unicode="&#x505c;" 
d="M854 400h-477v185h477v-185zM784 455v75h-338v-75h338zM667 709h267v-59h-622v59h279q-17 61 -25 82l76 9q9 -29 25 -91zM676 146v-152q0 -49 -23 -65t-91 -16h-101l-9 63h96q33 0 44 8t11 31v131h-215v58h452v-58h-164zM233 581v-679h-72v514q-39 -79 -79 -141l-36 73
q122 204 182 452l71 -19q-25 -92 -66 -200zM295 190v147h638v-147h-70v88h-498v-88h-70z" />
    <glyph glyph-name="uni5065" unicode="&#x5065;" 
d="M826 574v81h-105v-81h105zM826 518h-105v-80h105v80zM887 518v-136h-166v-76h178v-56h-178v-79h195v-56h-195v-97h-65v97h-165v56h165v79h-145v56h145v76h-134v56h134v80h-167v56h167v81h-130v56h130v89h65v-89h166v-137h52v-56h-52zM415 99q45 -52 109 -75
q66 -24 171 -24h245l-11 -67h-240q-111 0 -185 27q-69 25 -119 78q-38 -67 -104 -140l-39 59q63 72 99 138q-50 74 -80 196l51 30q21 -93 59 -158q30 84 41 215h-135v65l136 212h-127v63h198v-67l-134 -210h125v-34q-12 -195 -60 -308zM213 573v-671h-66v509
q-32 -69 -64 -123l-38 65q105 187 164 448l68 -12q-25 -103 -64 -216z" />
    <glyph glyph-name="uni5076" unicode="&#x5076;" 
d="M587 595v99h-154v-99h154zM587 444v99h-154v-99h154zM810 595v99h-155v-99h155zM810 444v99h-155v-99h155zM754 75q-187 -16 -314 -21l-4 60q77 2 151 6v124h-188v-343h-69v402h257v85h-223v362h515v-362h-224v-85h260v-306q0 -52 -24 -69t-97 -17h-94l-9 58h95
q36 0 48 9t12 34v232h-191v-120q26 1 80 5q-16 42 -24 64l48 12q17 -41 63 -164l-51 -15q-5 17 -17 49zM235 567v-667h-71v519q-40 -73 -79 -132l-40 72q126 193 193 442l74 -19q-32 -110 -77 -215z" />
    <glyph glyph-name="uni5077" unicode="&#x5077;" 
d="M534 299v87h-139v-87h139zM534 154v90h-139v-90h139zM534 99h-139v-196h-63v540h266v-462q0 -43 -20 -57t-80 -14h-48l-9 62h48q27 0 36 6t9 26v95zM674 69v341h59v-341h-59zM689 -90l-10 65h74q35 0 46 8q12 8 12 33v435h65v-455q0 -52 -24 -69t-96 -17h-67zM760 565
v-49h-301v46q-65 -52 -150 -100l-40 63q208 108 316 273h52q108 -165 316 -273l-40 -63q-80 44 -153 103zM746 576q-75 62 -135 140q-60 -78 -135 -140h270zM230 548v-648h-70v506q-35 -64 -77 -128l-36 72q127 204 195 451l76 -18q-40 -127 -88 -235z" />
    <glyph glyph-name="uni507F" unicode="&#x507f;" 
d="M775 604l-52 44q63 63 109 117l55 -40q-41 -48 -112 -121zM456 608q-40 50 -101 117l52 39q68 -68 106 -113zM396 348v66h440v-66h-440zM656 589h269v-172h-73v107h-468v-106h-73v171h269v205h76v-205zM819 -45q-474 -21 -481 -21l-13 61q35 16 65 45q58 57 118 138h-204
v66h626v-66h-331q-90 -113 -150 -171q157 5 314 12q-42 46 -84 93l53 38q133 -137 191 -202l-59 -45q-22 26 -45 52zM235 568v-666h-72v505q-31 -63 -78 -138l-39 72q120 205 185 454l75 -18q-31 -105 -71 -209z" />
    <glyph glyph-name="uni5080" unicode="&#x5080;" 
d="M861 83q-85 -7 -179 -12l-11 43q13 12 22 26q27 41 63 124l52 -18q-42 -81 -69 -125q68 4 101 6q-10 23 -31 65l44 19q49 -91 66 -133l-44 -26q-1 2 -14 31zM576 463h-160v-116h144q11 51 16 116zM579 523v16q0 69 1 100h-164v-116h163zM812 523v116h-162q0 -78 -1 -100
v-16h163zM812 347v116h-167q-5 -71 -14 -116h181zM592 216h61v-179q0 -37 13 -50t50 -13h86q35 0 51 12q15 12 20 41l2 14l61 -15q-2 -16 -5 -31q-9 -44 -35 -64q-28 -21 -84 -21h-112q-60 0 -87 26q-28 27 -28 89v174q-69 -153 -263 -302l-52 60q114 82 177 156
q65 76 96 168h-196v424h170q11 30 33 97l81 -9q-18 -44 -37 -88h287v-424h-266q-8 -31 -23 -65zM239 569v-668h-71v514q-42 -78 -84 -142l-35 73q132 220 190 454l73 -17q-34 -117 -73 -214z" />
    <glyph glyph-name="uni5085" unicode="&#x5085;" 
d="M576 447v70h-165v-70h165zM576 327v69h-165v-69h165zM812 447v70h-165v-70h165zM812 327v69h-165v-69h165zM838 697h89v-57h-280v-67h233v-349h-68v52h-165v-56h-71v56h-165v-64h-68v361h233v67h-267v57h267v101h71v-101h125q-18 50 -35 87l64 8q11 -26 37 -95zM814 110
v-102q0 -59 -28 -79t-111 -20h-93l-10 65h101q42 0 56 10t14 40v86h-460v58h460v53h71v-53h129v-58h-129zM531 -26q-79 32 -173 67l26 58q133 -49 172 -64zM233 578v-677h-71v514q-37 -76 -78 -140l-35 71q120 214 178 454l72 -17q-28 -105 -66 -205z" />
    <glyph glyph-name="uni5088" unicode="&#x5088;" 
d="M492 405v127h-111v-127h111zM666 590v101h-109v-101h109zM666 405v127h-109v-127h109zM842 405v127h-111v-127h111zM731 590h172v-243h-583v243h172v101h-185v61h617v-61h-193v-101zM676 186q87 -107 269 -171l-38 -68q-178 78 -259 186v-232h-73v232q-94 -115 -266 -192
l-42 63q187 75 280 182h-257v60h285v69h73v-69h290v-60h-262zM233 585v-683h-71v512q-41 -82 -79 -139l-37 74q116 199 177 450l68 -16q-26 -109 -58 -198z" />
    <glyph glyph-name="uni508D" unicode="&#x508d;" 
d="M677 337h263v-62h-419q0 -35 -6 -87h339l-13 -158q-5 -66 -38 -88t-125 -22h-108l-9 63h121q50 0 68 12t20 48l5 83h-272q-19 -72 -65 -126q-44 -51 -128 -104l-53 59q108 64 147 128q40 66 44 192h-155v62h309q-25 55 -43 90l69 14q17 -34 49 -104zM748 520h168v-139
h-69v77h-462v-78h-68v140h170q-33 52 -57 85l71 16q21 -29 66 -101h102q45 67 65 102l74 -16q-4 -6 -60 -86zM671 703h240v-63h-578v63h259q-16 41 -37 89l74 12q15 -36 42 -101zM231 579v-677h-72v513q-36 -74 -75 -135l-37 71q119 207 180 450l72 -19q-29 -105 -68 -203z
" />
    <glyph glyph-name="uni50A3" unicode="&#x50a3;" 
d="M887 -40q-79 46 -233 129l35 55q145 -74 231 -121zM309 -29l-33 61q118 55 233 118l20 -60q-108 -63 -220 -119zM454 -88l-9 63h69q31 0 41 7t10 29v315h70v-333q0 -49 -23 -65q-22 -16 -90 -16h-68zM229 561v-660h-71v504q-28 -55 -75 -130l-36 74q125 207 183 450
l74 -18q-34 -119 -75 -220zM742 379q75 -103 202 -156l-29 -62q-63 31 -110 66q-51 -34 -110 -67l-35 53q45 25 95 57q-45 45 -83 109h-141q-34 -56 -89 -109q44 -27 88 -53l-33 -56q-47 31 -102 67q-40 -35 -107 -80l-35 59q134 84 198 172h-166v59h202q17 34 31 76h-179
v58h195q9 46 14 76h-230v59h237q3 33 7 92h74q-2 -37 -8 -92h273v-59h-281q-5 -30 -14 -76h268v-58h-283q-11 -36 -29 -76h369v-59h-189z" />
    <glyph glyph-name="uni50A8" unicode="&#x50a8;" 
d="M816 181v106h-207v-106h207zM816 18v105h-207v-105h207zM387 579q-35 82 -77 169l62 23q27 -54 79 -166zM352 -58l-42 49q22 25 22 57v389h-73v64h139v-436q34 28 72 66l34 -56q-73 -70 -152 -133zM685 625v-121h39q81 92 151 220l57 -32q-60 -107 -125 -188h133v-61
h-186q-45 -49 -102 -97h231v-444h-67v57h-207v-57h-67v361q-29 -21 -84 -56l-26 65q137 77 234 171h-204v61h155v121h-115v61h115v115h68v-115h116v-61h-116zM221 579v-680h-68v515q-30 -63 -70 -130l-38 71q107 188 165 447l73 -12q-24 -104 -62 -211z" />
    <glyph glyph-name="uni50AC" unicode="&#x50ac;" 
d="M833 645v116h71v-177h-544v177h71v-116h164v153h72v-153h166zM468 465h190q-23 59 -37 88l69 14q20 -46 43 -102h195v-58h-219v-92h201v-58h-201v-91h201v-58h-201v-96h230v-58h-496v-54h-71v407q-36 -50 -79 -97l-36 68q110 115 177 288l75 -12q-13 -31 -41 -89zM443 12
h195v96h-195v-96zM443 166h195v91h-195v-91zM443 315h195v92h-195v-92zM233 572v-673h-73v511q-31 -62 -76 -132l-37 71q122 209 181 451l76 -17q-33 -118 -71 -211z" />
    <glyph glyph-name="uni50B2" unicode="&#x50b2;" 
d="M806 151q51 -85 141 -172l-41 -74q-86 88 -138 174q-55 -92 -147 -181l-47 61q100 94 156 193q-53 119 -72 285q-9 -18 -19 -35l-54 42q88 160 130 358l71 -11q-19 -81 -45 -156h202v-66h-46q-14 -247 -91 -418zM768 230q52 132 64 339h-114q-2 -5 -11 -26
q15 -200 61 -313zM406 260h180l-8 -240q-2 -52 -26 -69t-97 -17h-55l-10 67h65q35 0 46 8t12 33l6 160h-116q-7 -95 -33 -163q-25 -66 -79 -138l-51 57q55 72 75 135q21 64 23 172q1 23 1 78h-73v59h146v86h-113v58h113v85h-129v59h129v109l70 1v-110h126v-59h-126v-85h102
v-58h-102v-86h129v-59h-203q0 -39 -2 -83zM220 575v-674h-69v507q-36 -73 -68 -126l-38 71q106 188 166 447l71 -12q-26 -110 -62 -213z" />
    <glyph glyph-name="uni50BB" unicode="&#x50bb;" 
d="M316 209l-36 52q110 52 208 110l40 -41q-99 -61 -212 -121zM909 223q-89 47 -218 105l32 44q118 -50 214 -97zM677 549q53 -29 113 -65l-34 -44q-19 13 -130 78q-85 -50 -156 -80l-29 46q71 31 133 64q-93 51 -120 66l31 40q60 -31 141 -76q72 46 115 80l38 -37
q-46 -36 -102 -72zM892 377h-546v340h176q17 51 27 86l80 -9q-16 -42 -31 -77h294v-340zM822 432v230h-406v-230h406zM691 34q96 -38 253 -60l-32 -65q-184 34 -289 86q-116 -57 -309 -97l-34 61q175 36 274 76q-57 41 -103 99q-46 -37 -109 -76l-41 50q146 83 233 187
l66 -15q-22 -27 -42 -47h279v-58q-63 -86 -146 -141zM622 68q77 42 134 110h-254q-1 -2 -3 -3q55 -67 123 -107zM239 566v-666h-72v515q-40 -76 -83 -140l-39 71q126 202 196 454l76 -20q-36 -115 -78 -214z" />
    <glyph glyph-name="uni50CF" unicode="&#x50cf;" 
d="M663 536q-6 -52 -22 -90h186v90h-164zM631 133q-124 -124 -329 -205l-30 58q218 79 346 207q-10 30 -22 54q-110 -106 -287 -169l-29 54q183 59 291 156q-12 18 -31 38q-82 -58 -235 -113l-31 55q185 54 254 123h-183v148q-10 -8 -21 -16l-45 51q142 101 213 229l77 -11
q-26 -42 -42 -65h267v-53l-74 -83h176v-200h-286q-14 -16 -22 -24q48 -50 75 -103q124 70 190 116l41 -52q-41 -27 -108 -65q24 -86 59 -142q35 -55 97 -106l-43 -62q-124 110 -166 280q-24 -13 -49 -26q19 -61 19 -154q0 -75 -33 -108q-35 -35 -112 -35h-78l-9 59h82
q45 0 63 18q20 20 20 70q0 46 -5 76zM595 536h-181v-90h154q19 36 27 90zM484 671q-36 -42 -77 -80h228l73 80h-224zM231 569v-667h-72v508q-32 -65 -75 -131l-37 72q117 199 181 449l75 -15q-31 -113 -72 -216z" />
    <glyph glyph-name="uni50DA" unicode="&#x50da;" 
d="M235 568v-663h-69v512q-39 -77 -84 -144l-38 73q127 201 192 452l73 -18q-31 -107 -74 -212zM777 333v77h-338v-77h338zM884 -64q-101 87 -167 140l45 48q151 -119 169 -134zM323 -66l-49 50q93 72 160 144l52 -41q-79 -84 -163 -153zM845 388v-235h-195v-152
q0 -54 -25 -72t-101 -18h-68l-9 63h78q33 0 44 8t11 31v140h-209v232q-35 -22 -67 -39l-36 56q96 50 149 92q-49 38 -99 77l42 43q48 -34 104 -79q48 50 77 115h-221v58h241q12 44 18 95l74 -4q-9 -48 -21 -91h291v-58h-248q36 -69 84 -117q49 33 109 81l44 -45
q-33 -26 -108 -76q58 -45 143 -77l-31 -62q-45 20 -71 34zM777 208v75h-338v-75h338zM733 465q-76 68 -124 175q-43 -101 -127 -175h251z" />
    <glyph glyph-name="uni50E7" unicode="&#x50e7;" 
d="M728 452l-46 31q55 71 79 110l47 -30q-40 -56 -80 -111zM790 146v88h-355v-88h355zM790 5v88h-355v-88h355zM790 -53h-355v-47h-72v391h499v-391h-72v47zM582 421v204h-193v-204h193zM839 421v204h-194v-204h194zM497 455q-24 39 -78 111l46 28q40 -53 78 -110zM746 684
h159v-322h-582v322h158q-40 62 -66 97l68 26q55 -79 83 -123h103q43 65 73 120l75 -17q-32 -49 -71 -103zM229 571v-671h-71v511q-37 -75 -78 -137l-36 72q117 196 183 451l72 -18q-34 -116 -70 -208z" />
    <glyph glyph-name="uni50F3" unicode="&#x50f3;" 
d="M747 223l-40 44q80 57 123 95l43 -41q-63 -53 -126 -98zM468 224q-49 44 -113 98l42 39q69 -54 117 -95zM904 375h-584v229h172v89h-183v60h617v-60h-194v-89h172v-229zM843 433v113h-111v-113h111zM671 155q92 -97 275 -153l-37 -66q-181 69 -264 169v-204h-68v205
q-91 -104 -267 -178l-40 62q186 68 282 165h-262v60h287v139h68v-139h290v-60h-264zM667 546h-110v-113h110v113zM667 604v89h-110v-89h110zM492 546h-111v-113h111v113zM232 586v-684h-71v511q-38 -80 -78 -138l-36 73q112 197 174 450l68 -16q-25 -104 -57 -196z" />
    <glyph glyph-name="uni50F5" unicode="&#x50f5;" 
d="M575 555v57h-171v-57h171zM575 460v58h-171v-58h171zM813 555v57h-173v-57h173zM813 460v58h-173v-58h173zM881 419h-545v234h545v-234zM575 171v57h-172v-57h172zM575 75v57h-172v-57h172zM813 171v57h-173v-57h173zM813 75v57h-173v-57h173zM881 33h-546v237h546v-237z
M306 706v48h615v-48h-615zM276 321v47h662v-47h-662zM267 -18h673v-49h-673v49zM222 574v-672h-69v512q-31 -66 -69 -126l-38 73q113 195 171 438l70 -12q-26 -107 -65 -213z" />
    <glyph glyph-name="uni50FB" unicode="&#x50fb;" 
d="M513 497v188h-137v-188h137zM520 44v210h-100v-210h100zM698 424q-26 68 -61 153l57 19q49 -119 62 -153zM820 684h104v-64h-305v64h130q-13 54 -31 110l70 10q11 -37 32 -120zM830 398h110v-64h-133v-147h119v-64h-119v-224h-70v224h-120v64h120v147h-133v64h163
q54 123 81 198l60 -19q-63 -147 -78 -179zM367 315h214v-334h-161v-62h-61v345q-23 -128 -92 -271l-39 66q47 98 66 192q19 95 19 237v258h264v-310h-202v-16q-1 -50 -8 -105zM220 587v-686h-68v518q-31 -68 -71 -135l-36 72q105 187 165 445l70 -13q-25 -102 -60 -201z" />
    <glyph glyph-name="uni5112" unicode="&#x5112;" 
d="M683 401v37h146v-37h-146zM685 490v37h133v-37h-133zM397 401v37h137v-37h-137zM722 153v-226h-59v226h-106v-227h-60v227h-106v-250h-65v304h199q16 60 19 76h-257v55h647v-55h-318q-5 -21 -22 -76h303v-222q0 -46 -21 -61t-85 -15h-46l-8 57h49q27 0 36 6t9 26v155
h-109zM403 490v37h131v-37h-131zM643 583v-206h-66v206h-215v-119h-63v171h278v66h-240v53h546v-53h-240v-66h279v-168h-65v116h-214zM227 581v-681h-69v517q-40 -82 -77 -140l-35 71q115 204 176 453l69 -19q-31 -114 -64 -201z" />
    <glyph glyph-name="uni5121" unicode="&#x5121;" 
d="M747 168v109h-74v-109h74zM747 10v110h-74v-110h74zM862 168v109h-73v-109h73zM862 10v110h-73v-110h73zM862 -43h-189v-49h-51v422h293v-421h-53v48zM564 600v91h-160v-91h160zM564 457v91h-160v-91h160zM791 600v91h-162v-91h162zM791 457v91h-162v-91h162zM859 401
h-523v346h523v-346zM400 168v109h-70v-109h70zM400 10v110h-70v-110h70zM512 168v109h-70v-109h70zM512 10v110h-70v-110h70zM512 -43h-182v-49h-51v422h285v-421h-52v48zM213 540v-641h-65v498q-35 -66 -68 -118l-33 72q119 213 177 445l69 -13q-32 -122 -80 -243z" />
    <glyph glyph-name="uni513F" unicode="&#x513f;" 
d="M123 -92l-62 64q139 109 183 228q40 106 38 288v294h81v-308q2 -189 -40 -307q-49 -134 -200 -259zM706 -90q-74 0 -107 34t-33 111v731h82v-721q0 -41 16 -58q17 -18 55 -18h40q48 0 67 16q19 15 24 59q8 56 15 156l78 -17q-9 -110 -20 -179q-10 -63 -45 -88
q-36 -26 -114 -26h-58z" />
    <glyph glyph-name="uni5141" unicode="&#x5141;" 
d="M796 413q-79 -4 -158 -7v-345q0 -44 16 -60t57 -16h48q45 0 65 16q19 16 26 58q9 51 12 118l77 -25q-6 -67 -16 -124q-11 -67 -44 -92q-34 -26 -111 -26h-80q-67 0 -98 31q-32 32 -32 100v362q-53 -1 -159 -5l-2 -52q-3 -168 -64 -265q-61 -98 -216 -182l-50 67
q140 75 193 156q54 80 57 223q1 14 1 50q-103 -4 -207 -7l-15 70q44 18 73 46q148 139 264 300l92 -22q-113 -147 -281 -313q325 10 491 17q-64 74 -129 148l60 44q101 -110 255 -287l-65 -51q-22 27 -60 73z" />
    <glyph glyph-name="uni5143" unicode="&#x5143;" 
d="M651 395v-335q0 -44 15 -60q15 -15 56 -15h39q47 0 66 15q18 15 25 58q9 53 12 123l78 -26q-5 -62 -17 -129q-11 -65 -46 -91q-34 -25 -110 -25h-71q-66 0 -97 30q-32 31 -32 100v355h-174q-1 -38 -3 -75q-8 -158 -66 -245q-57 -86 -209 -173l-50 69q134 73 187 149
q53 75 58 206q2 34 3 69h-246v76h862v-76h-280zM149 661v77h702v-77h-702z" />
    <glyph glyph-name="uni5144" unicode="&#x5144;" 
d="M834 320h-192v-262q0 -39 16 -56q15 -16 50 -16h68q38 0 54 13q17 13 22 48q7 41 12 128l77 -26q-4 -72 -16 -136q-10 -55 -41 -79t-95 -24h-106q-63 0 -92 30q-30 31 -30 97v283h-157q0 -24 -3 -49q-9 -138 -73 -221t-221 -155l-48 70q146 64 202 132t60 186q1 18 2 37
h-163v433h674v-433zM753 395v281h-512v-281h512z" />
    <glyph glyph-name="uni5145" unicode="&#x5145;" 
d="M788 319q-73 -3 -146 -5v-261q0 -40 16 -56q15 -15 54 -15h61q42 0 60 14t24 49q8 46 12 105l73 -22q-7 -76 -18 -127q-10 -49 -41 -70q-32 -21 -98 -21h-104q-62 0 -90 29t-28 93v280q-73 -3 -146 -5q-2 -161 -68 -251q-66 -91 -241 -157l-45 72q158 54 216 127
q59 73 59 207q-98 -3 -197 -5l-14 69q43 17 74 42q93 76 194 191h-318v72h403q-25 76 -42 117l88 10q23 -60 43 -127h357v-72h-425q-116 -123 -236 -228q146 4 452 14q-45 44 -123 118l53 43q94 -83 261 -240l-58 -52z" />
    <glyph glyph-name="uni5146" unicode="&#x5146;" 
d="M698 435l-53 54q90 78 179 176l57 -49q-98 -106 -183 -181zM240 439q-77 89 -159 173l54 47q79 -77 164 -169zM327 396v398h77v-392q2 -162 -41 -265q-54 -130 -240 -242l-51 70q134 78 187 151q54 74 64 195q-102 -64 -215 -126l-42 71q139 72 261 140zM625 316v-252
q0 -46 16 -64t59 -18h68q44 0 64 16q19 15 25 54q10 60 13 117l70 -22q-7 -72 -16 -126q-11 -60 -44 -86q-33 -25 -102 -25h-99q-70 0 -100 32t-30 107v745h76v-396q164 -92 254 -144l-42 -69q-74 48 -212 131z" />
    <glyph glyph-name="uni5148" unicode="&#x5148;" 
d="M651 305v-254q0 -36 15 -51t51 -15h70q37 0 53 13q17 13 22 47q7 46 11 113l74 -24q-5 -64 -16 -122q-10 -54 -41 -78t-94 -24h-107q-61 0 -90 29t-29 93v273h-174q0 -16 -1 -31q-10 -142 -69 -220q-62 -81 -220 -153l-48 72q143 58 196 122q52 62 61 180q1 15 1 30h-248
v74h415v174h-232q-37 -72 -77 -131l-69 44q101 132 154 308l77 -14q-29 -85 -50 -133h197v174h80v-174h319v-74h-319v-174h373v-74h-285z" />
    <glyph glyph-name="uni5149" unicode="&#x5149;" 
d="M648 344v-291q0 -39 15 -54t52 -15h70q36 0 53 14t21 49q6 44 11 126l74 -25q-7 -79 -18 -135q-11 -55 -41 -79q-31 -24 -93 -24h-98q-66 0 -95 30q-30 31 -30 97v307h-174q-1 -20 -2 -39q-7 -148 -70 -240q-62 -91 -217 -166l-50 70q143 65 196 136q52 69 62 203
q2 16 3 36h-251v74h396v383h77v-383h398v-74h-289zM290 488q-63 77 -167 199l57 46q66 -69 171 -194zM702 484l-57 51q93 102 170 200l62 -47q-69 -86 -175 -204z" />
    <glyph glyph-name="uni514B" unicode="&#x514b;" 
d="M538 523h294v-304h-194v-175q0 -35 16 -50t50 -15h75q38 0 56 13t23 45q7 41 11 100l75 -24q-9 -64 -19 -112q-9 -46 -40 -68q-32 -23 -88 -23h-123q-115 0 -115 118v191h-144q-9 -135 -76 -206q-69 -73 -237 -116l-42 74q148 32 209 88q58 54 65 160h-167v304h292v107
h-387v71h387v104h79v-104h388v-71h-388v-107zM754 287v168h-510v-168h510z" />
    <glyph glyph-name="uni514D" unicode="&#x514d;" 
d="M625 -90q-69 0 -97 28q-29 29 -29 95v164h74v-145q0 -43 16 -58q17 -16 63 -16h113q42 0 61 14q20 14 26 49q9 48 12 109l73 -23q-6 -65 -19 -122q-12 -51 -44 -73t-93 -22h-156zM463 465h-235v-169h211q3 9 7 29q12 60 17 140zM764 296v169h-225q-6 -80 -18 -146
q-2 -12 -5 -23h248zM373 710h359v-58l-117 -121h222v-300h-341q-41 -112 -132 -191q-92 -80 -257 -147l-47 72q147 53 233 117q85 64 123 149h-261v254l-52 -40l-45 61q184 131 284 295l83 -13q-29 -46 -52 -78zM321 644q-52 -61 -111 -113h309l111 113h-309z" />
    <glyph glyph-name="uni5151" unicode="&#x5151;" 
d="M765 327v238h-532v-238h532zM386 637h174q28 40 112 165l84 -21q-50 -75 -102 -144h191v-382h-202v-201q0 -40 17 -57q15 -15 53 -15h65q40 0 57 13q18 13 23 47q8 49 13 114l73 -25q-6 -65 -18 -128q-10 -49 -40 -71q-31 -22 -89 -22h-115q-61 0 -90 28t-29 91v226h-157
q-5 -144 -68 -220q-65 -79 -235 -139l-48 72q153 47 211 109q59 63 60 178h-173v382h196q-58 84 -101 140l79 24q43 -55 107 -146z" />
    <glyph glyph-name="uni5154" unicode="&#x5154;" 
d="M616 -90q-70 0 -98 28t-28 95v174h74v-155q0 -43 16 -58q17 -16 64 -16h125q42 0 61 14q18 14 26 49q9 41 14 114l73 -24q-7 -72 -20 -126q-11 -51 -43 -73t-96 -22h-168zM735 60q-52 58 -105 117l52 35q55 -57 109 -114zM463 474h-235v-164h211q20 75 24 164zM766 310
v164h-228q-6 -91 -22 -164h250zM381 714h354v-59l-113 -116h217v-294h-342l-1 -3q-40 -116 -129 -196q-91 -81 -261 -151l-47 72q156 57 239 122q82 64 120 156h-263v235l-50 -38l-46 62q182 128 287 298l87 -12q-26 -42 -52 -76zM331 650q-49 -60 -106 -111h303l105 111
h-302z" />
    <glyph glyph-name="uni515A" unicode="&#x515a;" 
d="M711 638l-71 25q64 58 120 117l75 -25q-52 -54 -124 -117zM283 639q-65 70 -117 118l75 25q52 -49 115 -119zM540 633h369v-195h-77v125h-664v-125h-77v195h369v168h80v-168zM787 186h-151v-140q0 -37 15 -52t54 -15h67q42 0 59 12q18 12 23 44q8 44 13 107l76 -24
q-7 -67 -19 -121q-11 -46 -41 -66q-32 -21 -93 -21h-114q-61 0 -90 29t-29 92v155h-125q-6 -118 -72 -180q-68 -64 -240 -110l-44 75q156 34 214 79q57 44 63 136h-140v282h574v-282zM709 254v146h-418v-146h418z" />
    <glyph glyph-name="uni515C" unicode="&#x515c;" 
d="M678 -90q-64 0 -91 28t-27 94v172h77v-159q0 -38 14 -51t50 -13h84q37 0 54 14t21 48q7 52 10 101l74 -18q-7 -65 -17 -122q-9 -49 -38 -71q-30 -23 -90 -23h-121zM516 712h154v-456h-340v456h109q18 44 32 90l79 -10q-10 -25 -34 -80zM602 319v134h-204v-134h204z
M602 514v135h-204v-135h204zM95 -101l-33 74q147 29 204 70q52 37 61 109q4 36 4 51h79q-4 -55 -5 -61q-7 -93 -75 -150q-67 -57 -235 -93zM124 208l-35 61q23 18 23 45v385q86 20 164 52l31 -67q-39 -15 -124 -39v-332q52 25 111 59l20 -68q-89 -50 -190 -96zM819 318v331
h-103v65h174v-462h-173v66h102z" />
    <glyph glyph-name="uni5162" unicode="&#x5162;" 
d="M890 244h-90v-234q0 -21 7 -30t25 -9h10q18 0 27 9t11 30q6 37 9 106l58 -20q-8 -77 -13 -110q-6 -40 -26 -58t-59 -18h-37q-41 0 -59 20q-19 21 -19 66v248h-72v-5q-5 -133 -38 -202q-34 -70 -128 -141l-49 56q82 53 116 115t33 171v6h-75v275h147v105h-163v68h163v108
h72v-108h187v-68h-187v-105h150v-275zM824 309v145h-237v-145h237zM450 244h-76v-209q59 47 97 82l30 -55q-77 -67 -172 -138l-39 52q12 16 15 26t3 32v210h-71v-6q0 -130 -30 -199q-29 -67 -114 -140l-42 61q67 52 94 111q27 58 26 168v5h-73v275h141v105h-169v68h169v109
h72v-109h151v-68h-151v-105h139v-275zM384 309v145h-220v-145h220z" />
    <glyph glyph-name="uni5165" unicode="&#x5165;" 
d="M502 473q-55 -173 -144 -302q-91 -132 -245 -257l-55 74q157 120 249 256q93 139 143 332q-56 94 -144 168l64 45q69 -60 116 -129q47 -68 99 -187q73 -170 155 -278q79 -104 200 -196l-64 -77q-131 116 -208 227q-81 117 -160 310z" />
    <glyph glyph-name="uni5168" unicode="&#x5168;" 
d="M540 22h369v-73h-818v73h368v160h-286v72h286v143h-224v71h531v-71h-226v-143h289v-72h-289v-160zM470 799h70q122 -182 417 -337l-44 -70q-259 138 -408 321q-148 -181 -410 -321l-44 70q296 155 419 337z" />
    <glyph glyph-name="uni516B" unicode="&#x516b;" 
d="M117 -86l-63 68q118 117 175 239q58 124 79 309q10 79 16 229l80 -4q-8 -164 -15 -222q-21 -203 -81 -340q-61 -139 -191 -279zM882 -82q-133 130 -197 270q-65 142 -86 354q-10 103 -15 224l77 3q8 -157 17 -230q22 -195 85 -321q60 -120 182 -227z" />
    <glyph glyph-name="uni516C" unicode="&#x516c;" 
d="M107 322l-53 68q198 153 302 382l75 -32q-119 -247 -324 -418zM897 333q-120 89 -194 186q-73 95 -131 237l72 28q53 -128 124 -216t179 -159zM761 -14q-410 -20 -615 -29l-16 71q35 16 68 52q59 65 135 176q79 115 121 201l79 -39q-118 -195 -270 -380q146 5 446 19
q-114 154 -140 187l60 42q109 -136 263 -338l-69 -47q-31 42 -62 85z" />
    <glyph glyph-name="uni516D" unicode="&#x516d;" 
d="M72 468v78h857v-78h-857zM516 569q-50 90 -113 193l78 32q56 -86 115 -190zM150 -85l-68 54q150 181 258 396l76 -39q-137 -249 -266 -411zM839 -75q-121 204 -256 401l68 40q117 -167 265 -395z" />
    <glyph glyph-name="uni5170" unicode="&#x5170;" 
d="M645 595h251v-78h-792v78h451q89 118 145 205l78 -35q-117 -150 -133 -170zM67 -40v77h865v-77h-865zM164 245v77h672v-77h-672zM352 599q-44 62 -126 163l70 38q56 -68 128 -160z" />
    <glyph glyph-name="uni5171" unicode="&#x5171;" 
d="M721 291h221v-76h-884v76h221v248h-190v75h190v182h81v-182h279v182h82v-182h191v-75h-191v-248zM639 291v248h-279v-248h279zM122 -94l-49 67q164 90 297 191l57 -59q-162 -117 -305 -199zM862 -90q-159 110 -292 195l51 59q137 -85 293 -189z" />
    <glyph glyph-name="uni5173" unicode="&#x5173;" 
d="M544 291q41 -115 131 -186q92 -73 261 -121l-45 -77q-160 55 -251 126q-92 71 -138 177q-38 -99 -127 -170q-88 -70 -260 -139l-49 71q188 68 274 142q83 71 104 177h-368v74h377v2q6 69 6 165h-336v73h221q-53 71 -121 157l70 37q69 -83 124 -156l-68 -38h214
q87 112 137 194l79 -35q-63 -84 -126 -159h227v-73h-340q-2 -104 -6 -167h393v-74h-383z" />
    <glyph glyph-name="uni5174" unicode="&#x5174;" 
d="M62 291v76h877v-76h-877zM136 -95l-55 62q139 109 274 265l62 -53q-139 -154 -281 -274zM859 -87q-132 131 -279 267l56 54q204 -186 282 -259zM264 431q-92 170 -148 266l70 35q54 -92 149 -262zM728 429l-68 40q80 122 159 272l73 -34q-103 -181 -164 -278zM500 465
q-39 137 -89 295l77 19q41 -125 90 -294z" />
    <glyph glyph-name="uni5175" unicode="&#x5175;" 
d="M707 240h233v-72h-879v72h150v493q328 5 608 38l24 -74q-283 -27 -553 -34v-145h608v-72h-191v-206zM629 240v206h-339v-206h339zM880 -99q-132 76 -289 163l42 62q45 -23 287 -157zM105 -103l-40 68q157 74 293 162l44 -62q-148 -97 -297 -168z" />
    <glyph glyph-name="uni5176" unicode="&#x5176;" 
d="M901 -101q-193 81 -320 128l31 62q178 -65 321 -121zM788 188h153v-66h-881v66h152v434h-132v66h132v109h77v-109h422v109h77v-109h133v-66h-133v-434zM711 188v105h-422v-105h422zM711 356v102h-422v-102h422zM711 521v101h-422v-101h422zM96 -105l-32 67
q127 41 315 130l39 -62q-187 -89 -322 -135z" />
    <glyph glyph-name="uni5177" unicode="&#x5177;" 
d="M891 -98q-156 58 -316 111l29 58l318 -102zM824 164h117v-64h-881v64h118v590h646v-590zM750 164v91h-498v-91h498zM750 311v91h-498v-91h498zM750 458v89h-498v-89h498zM750 603v89h-498v-89h498zM108 -104l-32 66q136 39 315 113l34 -59q-188 -81 -317 -120z" />
    <glyph glyph-name="uni5178" unicode="&#x5178;" 
d="M854 199h78v-68h-862v68h78v483h211v117h73v-117h139v117h72v-117h211v-483zM782 199v178h-139v-178h139zM782 443v173h-139v-173h139zM571 199v178h-139v-178h139zM571 443v173h-139v-173h139zM359 199v178h-139v-178h139zM359 443v173h-139v-173h139zM891 -97
q-209 92 -312 132l29 61q147 -56 313 -124zM106 -103l-30 69q147 54 304 134l35 -63q-151 -78 -309 -140z" />
    <glyph glyph-name="uni5179" unicode="&#x5179;" 
d="M828 -22l-324 -14l-14 66q24 17 56 55q62 76 143 197q-71 -3 -218 -7l-14 65q24 14 50 49q61 80 127 194h-279q-78 -122 -166 -236q102 2 154 4q63 102 70 116l64 -35q-146 -232 -284 -403q152 7 207 10q-33 92 -50 135l62 20q52 -136 103 -271l-65 -23q-3 9 -27 75
q-108 -7 -317 -17l-16 67q30 17 64 60q57 69 144 198l-198 -6l-13 62q29 17 56 52q60 73 125 192h-203v67h277q-56 73 -107 131l77 20q42 -47 109 -129l-56 -22h209q92 110 122 151l83 -19q-47 -57 -114 -132h273v-67h-217q-87 -136 -167 -238q120 2 180 5q40 61 76 122
l68 -35q-168 -253 -287 -400q134 4 207 7q-23 51 -60 132l62 26q98 -201 130 -271l-68 -29z" />
    <glyph glyph-name="uni517B" unicode="&#x517b;" 
d="M614 -91v281h76v-281h-76zM204 -109l-55 53q88 44 122 82q33 37 40 97q4 28 4 67h76q0 -44 -6 -75q-8 -79 -47 -127t-134 -97zM675 688h219v-61h-362q-3 -50 -9 -90h329v-60h-340q-10 -49 -30 -92h446v-61h-286q82 -102 302 -143l-33 -71q-139 38 -219 86
q-81 47 -132 128h-109q-2 -4 -8 -12q-44 -64 -123 -112q-78 -48 -222 -100l-37 69q218 65 295 150q2 2 4 5h-286v61h327q21 39 35 92h-288v60h299q7 45 8 90h-344v61h219q-58 69 -85 98l79 20q36 -37 101 -118h157q69 81 95 117l80 -19q-27 -35 -82 -98z" />
    <glyph glyph-name="uni517C" unicode="&#x517c;" 
d="M550 552v86h-139v-86h139zM550 402v91h-139v-91h139zM550 249v92h-139v-92h139zM770 402v91h-149v-91h149zM770 341h-149v-92h149v92zM631 190q106 -125 302 -189l-38 -67q-175 67 -274 180v-216h-71v292h-139v-292h-71v208q-86 -99 -248 -178l-39 66q193 79 283 196
h-220v59h224v92h-279v61h279v91h-213v59h213v86h-273v61h259q-57 69 -75 88l80 18q32 -36 87 -106h145q43 56 78 106l82 -16q-38 -53 -68 -90h279v-61h-313v-86h219v-150h100v-61h-100v-151h-209z" />
    <glyph glyph-name="uni517D" unicode="&#x517d;" 
d="M62 235v59h877v-59h-877zM749 2v106h-497v-106h497zM749 -57h-497v-45h-76v269h649v-269h-76v45zM463 556v81h-251v-81h251zM463 420v81h-251v-81h251zM788 556v81h-252v-81h252zM788 420v81h-252v-81h252zM662 696h201v-335h-726v335h204q-49 57 -79 89l73 20
q52 -55 99 -109h136q60 66 92 109l77 -19q-27 -35 -77 -90z" />
    <glyph glyph-name="uni5180" unicode="&#x5180;" 
d="M585 -26l20 51q160 -36 320 -71l-21 -56q-20 5 -319 76zM349 602q-114 -18 -278 -36l-7 52q152 13 285 31v46h-265v49h265v56h72v-241h-72v43zM465 422v59h-241v-59h241zM465 313v63h-241v-63h241zM630 205v61h-261v-61h261zM630 92v65h-261v-65h261zM778 422v59h-241
v-59h241zM778 313v63h-241v-63h241zM296 266h-145v262h700v-262h-148v-61h195v-48h-195v-65h236v-50h-877v50h234v65h-197v48h197v61zM73 -46q192 32 322 70l27 -51q-178 -49 -325 -78zM626 671v-4q0 -29 14 -40t50 -11h107q34 0 49 8q12 7 17 24q6 20 9 50l63 -18
q-6 -33 -14 -62q-10 -30 -34 -41t-77 -11h-150q-105 -4 -105 89v145h71v-80q139 25 265 57l24 -49q-121 -28 -289 -57z" />
    <glyph glyph-name="uni5185" unicode="&#x5185;" 
d="M544 638h328v-607q0 -67 -31 -89t-124 -22h-121l-12 78h122q53 0 70 12t17 50v504h-251q0 -11 -1 -22q-3 -77 -17 -131q117 -96 240 -212l-56 -60q-64 64 -211 197q-51 -108 -211 -215l-53 65q134 82 181 161q48 78 49 195q0 14 1 22h-256v-655h-80v729h337v159h80
q0 -109 -1 -159z" />
    <glyph glyph-name="uni5188" unicode="&#x5188;" 
d="M111 -92v830h778v-705q0 -70 -33 -93q-32 -23 -130 -23h-119l-11 77h122q55 0 73 13t18 52v605h-619v-756h-79zM557 335q121 -128 193 -209l-63 -58q-76 91 -183 208q-111 -122 -225 -218l-54 62q112 88 227 213q-112 122 -205 213l56 51q138 -140 201 -206
q90 103 166 215l65 -42q-79 -115 -178 -229z" />
    <glyph glyph-name="uni5189" unicode="&#x5189;" 
d="M845 176v-158q0 -61 -29 -82q-28 -20 -114 -20h-116l-11 75h122q43 0 57 10t14 41v134h-536v-270h-76v270h-94v70h94v433h306v120h76v-120h307v-433h97v-70h-97zM768 246v148h-230v-148h230zM768 463v147h-230v-147h230zM462 246v148h-230v-148h230zM462 463v147h-230
v-147h230z" />
    <glyph glyph-name="uni518C" unicode="&#x518c;" 
d="M151 414v4v337h296v-341h106v4v337h302v-341h85v-71h-85v-336q0 -51 -24 -68t-95 -17h-78l-11 71h79q34 0 45 8t11 32v310h-156q-1 -170 -21 -260q-19 -86 -74 -184l-60 50q49 84 65 160q15 75 17 234h-106v-325q0 -50 -23 -67q-24 -17 -94 -17h-73l-11 71h71q35 0 46 8
t11 33v297h-150q-2 -165 -21 -253q-20 -89 -78 -192l-59 55q51 89 67 163q17 76 18 227h-91v71h91zM782 414v273h-156v-270v-3h156zM374 414v273h-150v-270v-3h150z" />
    <glyph glyph-name="uni518D" unicode="&#x518d;" 
d="M839 137v-119q0 -61 -28 -81t-114 -20h-108l-10 70h115q42 0 56 10t14 40v100h-528v-231h-75v231h-101v68h101v371h302v106h-377v68h829v-68h-378v-106h302v-371h102v-68h-102zM764 205v122h-227v-122h227zM764 391v122h-227v-122h227zM463 205v122h-227v-122h227z
M463 391v122h-227v-122h227z" />
    <glyph glyph-name="uni5192" unicode="&#x5192;" 
d="M123 439v314h755v-314h-77v256h-600v-256h-78zM248 461v49h507v-49h-507zM742 -56h-483v-46h-77v491h637v-490h-77v45zM742 -2v79h-483v-79h483zM742 128v78h-483v-78h483zM742 257v78h-483v-78h483zM249 578v49h505v-49h-505z" />
    <glyph glyph-name="uni5195" unicode="&#x5195;" 
d="M635 -90q-58 0 -84 23q-27 24 -27 81v83h77v-67q0 -33 14 -46q13 -12 49 -12h124q37 0 53 11q15 10 22 39q7 25 10 67l69 -22q-6 -48 -16 -82q-11 -40 -38 -57q-29 -18 -84 -18h-169zM254 604v52h476v-52h-476zM252 507v52h480v-52h-480zM109 495v261h769v-261h-76v208
h-617v-208h-76zM848 119h-341q-35 -76 -128 -129q-92 -53 -275 -95l-38 66q160 32 243 69q80 35 117 89h-257v149q-35 -24 -48 -31l-47 51q166 94 244 205l81 -10q-17 -22 -34 -43h377v-49l-76 -70h182v-202zM775 172v96h-228q-7 -57 -19 -96h247zM580 321l72 67h-335
q-33 -34 -75 -67h338zM474 268h-232v-96h213q15 41 19 96z" />
    <glyph glyph-name="uni5197" unicode="&#x5197;" 
d="M124 -104l-54 65q146 80 181 175q25 67 24 171v178h417v-433q0 -35 14 -50q12 -13 41 -13h40q35 0 50 12t19 40q6 36 14 132l74 -24q-7 -83 -19 -143q-10 -52 -39 -74t-91 -22h-70q-59 0 -87 30q-27 29 -27 94v376h-255v-103q2 -143 -44 -232q-48 -96 -188 -179zM102 510
v222h795v-221h-79v146h-637v-147h-79z" />
    <glyph glyph-name="uni5199" unicode="&#x5199;" 
d="M95 559v187h810v-187h-77v118h-657v-118h-76zM307 539h513v-67h-524l-19 -117h591l-18 -305q-5 -79 -42 -105q-38 -26 -148 -26h-154l-11 73h165q66 0 88 15q23 15 25 62l12 218h-597l55 344l79 -1zM65 111v69h643v-69h-643z" />
    <glyph glyph-name="uni519B" unicode="&#x519b;" 
d="M573 44v-146h-78v146h-431v68h431v126h-329v69q69 88 122 168h-190v68h234q31 48 64 110l88 -7q-28 -48 -63 -103h480v-68h-524q-70 -102 -122 -170h240v118h78v-118h294v-67h-294v-126h365v-68h-365zM98 591v160h809v-160h-77v92h-655v-92h-77z" />
    <glyph glyph-name="uni519C" unicode="&#x519c;" 
d="M508 564q42 -153 106 -251q118 75 197 136l53 -59q-99 -72 -205 -138q95 -114 289 -211l-49 -73q-186 103 -282 214q-95 109 -152 282q-41 -81 -93 -144v-304q108 43 213 93l18 -77q-159 -73 -304 -130l-38 70q34 27 34 71v193q-86 -83 -206 -163l-39 76q158 98 252 209
q92 108 138 245h-243v-142h-77v213h341q14 58 22 127h82q-9 -68 -24 -127h355v-188h-78v117h-297q-2 -8 -4 -11q-6 -18 -9 -28z" />
    <glyph glyph-name="uni51A0" unicode="&#x51a0;" 
d="M89 574v175h813v-168h-76v100h-661v-107h-76zM418 304v-257q0 -37 17 -53t57 -16h282q45 0 66 16q19 15 25 49q9 47 12 119l67 -19q-5 -77 -16 -128q-12 -56 -44 -80q-33 -25 -100 -25h-313q-65 0 -95 30q-29 29 -29 93v271h-95q0 -32 -2 -64q-5 -117 -32 -185
q-31 -78 -114 -158l-52 56q72 65 99 131q24 58 28 157q1 31 2 63h-107v68h426v-68h-82zM129 490v68h327v-68h-327zM812 438v-278q0 -58 -27 -77t-107 -19h-91l-10 69h98q40 0 54 10q13 9 13 38v257h-240v68h240v92h70v-92h111v-68h-111zM626 214q-36 61 -91 138l54 34
q63 -85 95 -133z" />
    <glyph glyph-name="uni51A4" unicode="&#x51a4;" 
d="M754 25q-38 36 -108 97l43 39q76 -65 108 -93zM622 -90q-61 0 -88 25q-28 26 -28 86v139h73v-117q0 -42 14 -56q13 -13 53 -13h133q40 0 57 12q16 11 22 41q8 38 13 84l71 -22q-7 -56 -16 -95q-12 -46 -41 -65q-30 -19 -90 -19h-173zM98 564v183h806v-185h-76v119h-653
v-117h-77zM474 369h-232v-124h211q16 54 21 124zM780 245v124h-230q-8 -73 -21 -124h251zM400 583h329v-53l-85 -100h209v-246h-344q-40 -102 -131 -167q-94 -67 -277 -122l-36 72q167 46 249 95q81 48 116 120l1 2h-262v183q-51 -35 -69 -46l-29 69q186 107 298 268l77 -13
q-21 -30 -46 -62zM349 524q-43 -47 -99 -94h305l80 94h-286z" />
    <glyph glyph-name="uni51AC" unicode="&#x51ac;" 
d="M693 121q-210 47 -408 83l26 70q170 -31 407 -80zM760 -98q-292 60 -596 112l27 76q259 -45 592 -111zM588 426q135 -61 355 -90l-25 -81q-267 52 -409 127q-160 -82 -427 -145l-26 80q217 39 377 111q-88 61 -163 155q-61 -67 -139 -128l-42 64q165 123 260 285l81 -15
q-31 -48 -55 -81h451v-71q-104 -128 -238 -211zM510 466q126 70 214 172h-404l-1 -1q82 -106 191 -171z" />
    <glyph glyph-name="uni51AF" unicode="&#x51af;" 
d="M790 389h120l-18 -344q-1 -76 -42 -102q-40 -25 -142 -24h-136l-11 74h158q56 0 75 13t21 53l14 259h-489l31 308h78l-24 -237h287l28 290h-436v71h520zM278 120v71h478v-71h-478zM141 -37l-77 25q62 167 128 375l72 -27q-59 -194 -123 -373zM188 475q-111 238 -115 246
l65 30q70 -133 121 -244z" />
    <glyph glyph-name="uni51B0" unicode="&#x51b0;" 
d="M276 1l-48 70q92 100 139 200q45 95 67 228h-137v70h210v-80q-25 -152 -74 -256q-51 -110 -157 -232zM143 -47l-78 24q68 206 118 388l77 -27q-56 -200 -117 -385zM186 485q-77 172 -110 242l69 25q68 -134 115 -238zM641 442v-434q0 -56 -26 -75q-27 -19 -106 -19h-89
l-11 76h92q37 0 50 9t13 36v760h77v-153q25 -105 56 -186q67 60 173 171l51 -59q-102 -100 -195 -180q82 -169 222 -298l-53 -70q-183 193 -254 422z" />
    <glyph glyph-name="uni51B2" unicode="&#x51b2;" 
d="M820 209h-167v-307h-77v307h-169v-54h-73v461h242v183h77v-183h240v-460h-73v53zM820 280v265h-167v-265h167zM576 280v265h-169v-265h169zM192 485q-89 183 -119 242l67 30q44 -79 126 -239zM144 -51l-78 24q61 174 125 390l75 -27q-63 -214 -122 -387z" />
    <glyph glyph-name="uni51B3" unicode="&#x51b3;" 
d="M219 488q-60 96 -140 219l63 34q96 -138 145 -214zM140 -26l-77 27q72 191 134 379l74 -31q-58 -178 -131 -375zM614 267q78 -196 323 -285l-45 -75q-129 59 -206 131q-80 75 -123 180q-32 -94 -106 -172q-68 -72 -189 -149l-54 66q133 74 200 145t87 159h-213v73h223
q4 104 4 228h-184v71h185v158h79q0 -79 -1 -158h250v-299h96v-73h-326zM593 568q-3 -122 -8 -228h183v228h-175z" />
    <glyph glyph-name="uni51B5" unicode="&#x51b5;" 
d="M134 -43l-78 31q77 182 148 371l76 -31q-73 -198 -146 -371zM200 480q-84 147 -136 232l65 33q51 -78 143 -231zM872 327h-146v-290q0 -30 11 -42q10 -11 38 -11h34q30 0 42 10q13 11 17 38q7 53 9 119l69 -25q-7 -74 -16 -129q-8 -45 -34 -66q-27 -21 -80 -21h-57
q-59 0 -84 26t-25 87v304h-118q1 -165 -53 -258q-53 -93 -201 -174l-49 64q133 66 181 144q47 77 46 224h-118v424h534v-424zM794 399v280h-379v-280h379z" />
    <glyph glyph-name="uni51B6" unicode="&#x51b6;" 
d="M832 439q-257 -13 -523 -24l-15 67q34 13 60 43q100 115 197 277l78 -32q-89 -131 -214 -278q165 4 370 14l-102 144l61 34q56 -75 202 -276l-66 -39q-41 60 -48 70zM790 -42h-364v-58h-77v407h518v-407h-77v58zM790 27v211h-364v-211h364zM135 -35l-79 27
q69 182 133 374l74 -28q-59 -185 -128 -373zM198 488q-105 184 -130 225l65 34q23 -36 137 -225z" />
    <glyph glyph-name="uni51B7" unicode="&#x51b7;" 
d="M200 496q-108 196 -121 218l66 29q32 -50 125 -213zM148 -54l-77 23q69 212 118 387l72 -26q-58 -213 -113 -384zM570 798h62q105 -193 323 -327l-40 -73q-199 131 -314 302q-115 -171 -314 -302l-40 73q218 134 323 327zM653 32q80 -52 120 -77l-48 -62
q-248 166 -364 238l45 58q79 -49 183 -116q96 98 184 191h-453v71h552v-73q-135 -144 -219 -230zM612 372q-41 60 -100 140l61 36q57 -71 105 -139z" />
    <glyph glyph-name="uni51BB" unicode="&#x51bb;" 
d="M668 297v-293q0 -52 -25 -70t-98 -18h-92l-11 74h95q35 0 46 8t11 33v266h-265v72q54 101 112 232h-144v71h175q25 61 51 131l82 -10q-37 -87 -52 -121h375v-71h-406q-67 -144 -112 -233h184v157h74v-157h251v-71h-251zM324 -46l-63 43q93 119 160 237l68 -33
q-70 -119 -165 -247zM195 485q-68 143 -117 237l68 28q15 -27 123 -234zM146 -53l-78 26q76 210 130 384l74 -29q-58 -192 -126 -381zM880 -39q-48 72 -158 235l62 38q85 -115 162 -231z" />
    <glyph glyph-name="uni51C0" unicode="&#x51c0;" 
d="M797 377v108h-176v-108h176zM797 205v108h-176v-108h176zM181 469q-19 47 -106 252l68 25q102 -230 110 -249zM146 -23l-76 21q60 195 100 357l73 -23q-40 -166 -97 -355zM509 719h288v-60l-96 -110h169v-172h72v-64h-72v-230h-73v58h-176v-124q0 -61 -28 -81t-113 -20
h-88l-11 72h91q45 0 60 11t15 43v99h-238v64h238v108h-273v64h273v108h-209v36l-20 -18l-48 57q122 104 207 245l79 -13q-24 -40 -47 -73zM462 656q-39 -51 -95 -107h245l93 107h-243z" />
    <glyph glyph-name="uni51C4" unicode="&#x51c4;" 
d="M180 486q-62 141 -111 239l66 26q65 -129 114 -235zM135 -37l-75 20q54 174 110 390l71 -23q-43 -175 -106 -387zM801 473v71h-181v-71h181zM801 346v71h-181v-71h181zM804 157q-48 -81 -112 -128q127 -38 222 -69l-36 -59q-101 36 -255 87q-120 -56 -357 -91l-26 63
q194 24 293 58q-79 26 -196 62q28 30 67 77h-156v59h203q28 37 52 72h-185v58h229v71h-288v56h288v71h-223v58h223v66h-262v59h262v71h73v-71h290v-59h-290v-66h250v-129h71v-56h-71v-129h-280l-56 -72h402v-59h-132zM724 157h-237q-38 -45 -47 -55q3 -1 173 -49
q67 36 111 104z" />
    <glyph glyph-name="uni51C6" unicode="&#x51c6;" 
d="M145 -49l-79 24q57 170 113 368l76 -24q-54 -199 -110 -368zM182 483q-31 77 -105 242l68 26q79 -167 109 -239zM636 433v136h-208v-136h208zM636 234v135h-208v-135h208zM636 29v141h-208v-141h208zM448 634h213q-36 99 -55 147l75 15q23 -57 60 -162h190v-65h-219v-136
h207v-64h-207v-135h207v-64h-207v-141h229v-65h-513v-64h-76v574q-42 -59 -85 -111l-30 79q127 154 200 361l79 -16q-34 -89 -68 -153z" />
    <glyph glyph-name="uni51C9" unicode="&#x51c9;" 
d="M661 687h272v-69h-646v69h289q-13 43 -35 105l86 10q20 -63 34 -115zM882 -41q-81 104 -156 190l59 38q79 -93 158 -185zM297 -48l-53 51q105 95 173 189l61 -41q-77 -96 -181 -199zM194 481q-55 114 -119 239l68 28q48 -88 124 -235zM140 -39l-77 26q69 184 129 372
l74 -30q-56 -179 -126 -368zM578 244h-225v280h512v-280h-211v-248q0 -51 -24 -68t-95 -17h-91l-11 72h86q36 0 47 8q12 8 12 34v219zM791 310v148h-364v-148h364z" />
    <glyph glyph-name="uni51CB" unicode="&#x51cb;" 
d="M176 475q-51 122 -102 245l66 25q80 -176 106 -242zM140 -21l-75 20q54 178 99 360l71 -24q-47 -193 -95 -356zM634 424h153v-61h-372v61h152v91h-127v60h127v83h67v-83h128v-60h-128v-91zM267 -105l-65 41q63 96 83 179q20 84 20 258v377h593v-739q0 -59 -27 -78
q-28 -20 -110 -20h-89l-10 68h93q44 0 58 10t14 41v654h-451v-312q0 -189 -22 -284q-21 -91 -87 -195zM741 41h-286v240h286v-240zM679 101v120h-162v-120h162z" />
    <glyph glyph-name="uni51CC" unicode="&#x51cc;" 
d="M185 481q-58 139 -108 247l68 25q56 -122 111 -244zM307 280l-37 57q104 49 221 127l40 -47q-131 -85 -224 -137zM907 296q-127 69 -234 121l36 47q115 -54 226 -111zM147 -53l-77 19q58 204 100 382l72 -24q-47 -204 -95 -377zM649 541h281v-63h-638v63h281v94h-235v64
h235v101h76v-101h236v-64h-236v-94zM680 59q101 -48 262 -81l-34 -70q-185 45 -295 107q-121 -68 -326 -119l-35 68q189 42 295 95q-62 49 -112 120q-52 -51 -114 -96l-48 52q153 102 240 234l69 -13q-13 -20 -41 -58h293v-67q-66 -106 -154 -172zM614 97q80 53 139 139
h-263q-2 -3 -7 -8q55 -81 131 -131z" />
    <glyph glyph-name="uni51CF" unicode="&#x51cf;" 
d="M852 655q-34 41 -89 95l44 34q46 -45 92 -94zM172 485q-20 48 -101 227l62 24l104 -224zM126 8l-69 20q54 169 102 352l66 -22q-46 -178 -99 -350zM393 432v61h235v-61h-235zM776 141q12 -49 23 -79q25 -69 50 -69q19 0 25 38q8 46 17 141l56 -21q-10 -104 -20 -154
q-7 -40 -26 -63q-20 -25 -50 -25q-39 0 -70 37t-50 101q-2 7 -5 15q-57 -82 -126 -154l-52 46q95 96 158 197q-26 138 -38 384l-2 48h-316v-194q0 -173 -22 -274q-22 -102 -86 -214l-64 40q61 104 82 197t21 254v257h382q-2 76 -3 150h69q1 -67 3 -150h207v-66h-204
q1 -21 1 -42q8 -200 22 -297q52 107 94 251l62 -26q-61 -196 -138 -328zM617 53h-215v288h215v-288zM460 111h99v172h-99v-172z" />
    <glyph glyph-name="uni51D1" unicode="&#x51d1;" 
d="M181 482q-17 37 -106 232l66 26q77 -158 110 -230zM134 -16l-76 22q60 186 110 367l72 -25q-45 -170 -106 -364zM736 390q73 -100 209 -151l-29 -64q-116 52 -182 120v-44h-116q-2 -44 -3 -63l-2 -16h238v-57h-248q-3 -11 -6 -21q157 -66 296 -130l-33 -63
q-115 58 -289 140q-33 -49 -99 -82q-67 -34 -192 -64l-33 65q141 32 205 67q62 34 81 88h-222v57h233l2 18q2 19 4 61h-119v46q-65 -65 -167 -132l-38 60q130 80 198 165h-159v58h198q19 31 35 73h-175v57h193q7 26 11 44l1 3q1 5 3 17q1 4 2 9h-240v58h250q7 41 10 94
l73 -1q-5 -57 -10 -93h283v-58h-292q0 -4 -2 -14q-1 -7 -3 -14v-3q-6 -28 -10 -42h279v-57h-297q-14 -40 -31 -73h388v-58h-195zM723 307q-31 33 -61 83h-153q-30 -44 -68 -83h282z" />
    <glyph glyph-name="uni51DB" unicode="&#x51db;" 
d="M306 205v49h565v-49h-565zM635 97v-101q0 -50 -24 -67t-94 -17h-83l-9 58h78q36 0 47 8q12 8 12 34v85h-318v51h690v-51h-299zM908 -73q-53 27 -205 97l29 50q131 -55 207 -92zM241 -78l-30 55q124 51 214 99l35 -49q-101 -54 -219 -105zM639 721h292v-51h-679v51h306
q-12 40 -26 76l82 8q8 -27 25 -84zM885 308h-592v309h592v-309zM816 354v217h-454v-217h454zM744 400h-310v125h310v-125zM687 436v53h-197v-53h197zM126 -7l-74 22q63 184 116 364l68 -23q-56 -201 -110 -363zM169 480q-53 120 -107 241l64 26l112 -238z" />
    <glyph glyph-name="uni51DD" unicode="&#x51dd;" 
d="M123 -31l-68 14q45 195 81 388l67 -19q-39 -209 -80 -383zM152 485q-41 113 -90 231l62 20q48 -110 93 -226zM824 466h110v-63l-29 -100l-54 9l28 92h-94v-166h136v-62h-136v-173q7 -1 21 -1h136l-11 -65h-131q-65 0 -107 32t-68 98q-19 -78 -77 -171l-50 48
q45 65 63 120q19 58 23 157q1 8 3 102l59 -4q-3 -96 -3 -99q-1 -21 -2 -41q28 -113 80 -152v377h-167v62h185q-86 90 -130 132l44 43q44 -44 87 -88q32 34 115 131h-274v62h341v-78q-74 -87 -138 -160q14 -14 40 -42zM433 340q0 -60 -3 -112h109v-61h-115q-4 -23 -7 -37
q78 -67 116 -101l-41 -55q-62 62 -96 93q-39 -84 -149 -164l-47 54q140 91 158 210h-137v61h144q3 30 5 112h-55q-21 -44 -44 -83l-50 37q54 82 78 174l61 -10q-6 -20 -20 -58h187v-60h-94zM329 625v-26q0 -32 11 -44q10 -11 39 -11h48q28 0 40 9t16 32q6 29 7 57l56 -21
q-5 -36 -11 -66q-8 -36 -31 -52t-65 -16h-84q-47 0 -68 23t-21 76v209h63v-111q113 36 181 66l26 -57q-109 -40 -207 -68z" />
    <glyph glyph-name="uni51E0" unicode="&#x51e0;" 
d="M119 -89l-58 65q59 53 93 97q36 46 56 98q35 91 35 276v300h456v-682q0 -43 15 -60q13 -15 46 -15h30q58 -3 66 59q7 48 10 96l76 -22q-5 -56 -14 -108q-9 -55 -40 -80t-93 -25h-58q-63 0 -92 33t-29 106v621h-293v-245q0 -189 -41 -294q-43 -112 -165 -220z" />
    <glyph glyph-name="uni51E1" unicode="&#x51e1;" 
d="M112 -99l-54 69q103 98 133 212q25 95 24 258v304h501v-689q0 -39 13 -53q12 -13 41 -13h29q29 0 43 13q15 13 19 45q10 60 13 94l72 -22q-5 -40 -17 -106q-10 -55 -38 -79t-85 -24h-54q-57 0 -85 28q-31 31 -31 100v630h-342v-253q0 -190 -35 -293q-38 -111 -147 -221z
M510 236q-79 102 -166 202l60 46q125 -140 171 -196z" />
    <glyph glyph-name="uni51E4" unicode="&#x51e4;" 
d="M545 223q109 -115 157 -167l-58 -57q-58 70 -144 165q-86 -99 -236 -186l-49 62q156 87 235 179q-117 127 -164 176l52 45q78 -80 156 -162q59 89 84 223h-311v68h386v-67q-31 -165 -108 -279zM110 -98l-58 59q56 95 72 180q17 88 17 294v313h668v-403q0 -221 19 -304
q4 -17 9 -27q7 -13 15 -13q7 0 12 9q5 11 9 34q13 86 15 153l62 -21q-6 -94 -21 -176q-17 -91 -81 -91q-65 1 -90 99q-24 99 -24 332v337h-518v-260q0 -207 -20 -305q-20 -100 -86 -210z" />
    <glyph glyph-name="uni51ED" unicode="&#x51ed;" 
d="M105 -104l-40 71q128 32 171 75q40 41 40 130v56h411v-194q0 -30 12 -43q11 -12 39 -12h53q57 -2 64 52q8 51 12 106l74 -20q-7 -56 -19 -122q-15 -87 -119 -85h-90q-55 0 -80 26t-25 85v142h-256v-24q0 -94 -54 -148q-55 -55 -193 -95zM252 651v-369h-72v277
q-46 -56 -97 -106l-33 73q128 119 209 277l67 -38q-31 -53 -74 -114zM656 381h236v-64h-544v64h231v115h-268v64h268v117q-140 -6 -208 -8l-11 67q299 4 500 24l13 -65q-120 -9 -217 -14v-121h277v-64h-277v-115z" />
    <glyph glyph-name="uni51EF" unicode="&#x51ef;" 
d="M482 -105l-54 60q75 91 98 190q19 88 18 260v342h274v-728q0 -37 27 -37h8q16 0 23 9q8 10 11 37q5 61 7 159l56 -15q-8 -133 -10 -162q-5 -55 -25 -77q-20 -23 -64 -23h-21q-83 0 -83 92v674h-132v-270q0 -206 -26 -304q-25 -95 -107 -207zM405 576v172h60v-234h-375
v235h63v-173h92v227h66v-227h94zM382 248v118h-304v64h372v-246h-272v-165q95 16 254 54l1 -71q-163 -36 -332 -68l-20 66q29 17 29 51v197h272z" />
    <glyph glyph-name="uni51F0" unicode="&#x51f0;" 
d="M474 603h202v-278h-401v278h126q13 39 21 71l74 -9q-6 -20 -22 -62zM611 379v61h-271v-61h271zM611 490v59h-271v-59h271zM510 17h221v-56h-511v56h221v72h-175v54h175v69h-195v56h460v-56h-196v-69h177v-54h-177v-72zM108 -97l-55 60q51 92 66 175q16 88 16 293v316h683
v-402q0 -223 14 -302q9 -50 23 -50q13 0 20 51q8 52 12 147l61 -20q-8 -121 -18 -170t-29 -71q-19 -21 -50 -21t-54 29q-21 27 -30 74q-18 89 -18 328v343h-546v-277q0 -195 -19 -295q-19 -99 -76 -208z" />
    <glyph glyph-name="uni51F3" unicode="&#x51f3;" 
d="M726 368v79h-451v-79h451zM123 -106l-39 65q115 14 160 43q40 26 40 76v33h404v-91q0 -27 12 -38t43 -11h51q30 0 42 10q12 9 18 35q5 18 8 51l69 -24q-5 -38 -13 -64q-11 -39 -34 -54q-24 -15 -77 -15h-92q-52 0 -77 22q-24 21 -24 65v57h-261q0 -64 -49 -100
q-53 -38 -181 -60zM800 489v-174h-598v166q-52 -27 -116 -52l-27 63q102 35 177 77q-59 38 -119 77l43 41q77 -49 129 -83q58 41 106 100h-290v54h367v-54q-36 -51 -82 -95h236q-68 71 -117 182l66 9q23 -48 47 -83q79 32 173 77l39 -44q-83 -38 -179 -78q25 -30 52 -51
q107 44 172 77l39 -46q-91 -42 -158 -68q70 -43 180 -76l-27 -64q-58 21 -113 45zM772 503q-73 37 -124 84v-31h-291v23q-50 -41 -113 -76h528zM679 223h251v-58h-854v58h246q-35 41 -54 61l65 25q47 -49 78 -86h179q54 60 76 87l67 -27z" />
    <glyph glyph-name="uni51F6" unicode="&#x51f6;" 
d="M813 -44h-703v659h78v-585h625v584h78v-707h-78v49zM557 430q113 -143 208 -271l-68 -52q-102 143 -190 257q-104 -135 -233 -260l-55 63q127 116 238 262q-99 129 -233 291l62 46q121 -146 220 -271q97 135 176 284l71 -37q-93 -169 -196 -312z" />
    <glyph glyph-name="uni51F8" unicode="&#x51f8;" 
d="M813 -36h-624v-64h-77v563h188v289h401v-289h189v-563h-77v64zM813 38v351h-189v289h-247v-289h-188v-351h624z" />
    <glyph glyph-name="uni51F9" unicode="&#x51f9;" 
d="M811 -29h-622v-72h-77v843h309v-377h158v378h310v-844h-78v72zM811 45v625h-158v-377h-306v376h-158v-624h622z" />
    <glyph glyph-name="uni51FA" unicode="&#x51fa;" 
d="M772 451v253h78v-326h-310v-351h262v250h77v-367h-77v43h-682v324h78v-250h262v351h-310v326h78v-253h232v343h80v-343h232z" />
    <glyph glyph-name="uni51FB" unicode="&#x51fb;" 
d="M779 -47h-637v293h78v-222h239v308h-398v72h398v169h-338v71h338v156h81v-156h340v-71h-340v-169h398v-72h-398v-308h239v223h78v-345h-78v51z" />
    <glyph glyph-name="uni51FD" unicode="&#x51fd;" 
d="M341 73l-10 67h79q40 0 53 9t13 38v379l226 120h-528v70h648v-77l-272 -151v-361q0 -56 -26 -75q-27 -19 -106 -19h-77zM820 -56h-714v620h75v-550h639v549h75v-664h-75v45zM237 171l-40 61q103 60 210 134l40 -58q-107 -75 -210 -137zM380 388q-78 70 -147 124l47 48
q102 -80 149 -119zM759 165q-83 66 -188 144l43 51q107 -77 190 -138zM636 379l-45 51q85 60 151 122l48 -47q-71 -64 -154 -126z" />
    <glyph glyph-name="uni51FF" unicode="&#x51ff;" 
d="M250 605q-59 63 -119 126l51 44q84 -84 119 -126zM747 599l-49 46q51 50 119 129l53 -44q-78 -86 -123 -131zM637 581h300v-64h-867v64h293v218h73v-218h128v218h73v-218zM806 -56h-683v496h72v-432h611v432h71v-541h-71v45zM612 372h149v-61h-225v-95h201v-61h-201v-114
h-72v114h-201v61h201v95h-225v61h152q-33 46 -76 100l62 24q26 -32 91 -124h70q61 83 87 126l65 -24q-24 -32 -78 -102z" />
    <glyph glyph-name="uni5200" unicode="&#x5200;" 
d="M440 644q-2 -75 -10 -179q-15 -206 -79 -324q-66 -121 -230 -239l-59 66q151 105 212 213q61 109 71 291q7 85 10 172h-250v77h769l-24 -646q-3 -83 -42 -110t-155 -27h-150l-12 84h154q73 0 97 17t26 69l18 536h-346z" />
    <glyph glyph-name="uni5201" unicode="&#x5201;" 
d="M484 -66l-12 84h166q77 0 103 18q25 18 27 73l17 533h-662v80h750l-24 -647q-3 -85 -44 -113q-40 -28 -159 -28h-162zM130 115l-43 84q292 142 581 292l27 -87q-294 -156 -565 -289z" />
    <glyph glyph-name="uni5203" unicode="&#x5203;" 
d="M158 243l-71 41q82 130 130 259l73 -34q-57 -135 -132 -266zM505 649q-6 -103 -15 -188q-17 -196 -97 -323t-256 -237l-58 66q168 104 241 215t89 287q9 111 12 180h-317v79h770l-26 -659q-3 -82 -42 -109t-154 -27h-151l-12 81h155q74 0 99 17q24 17 26 70l18 548h-282z
" />
    <glyph glyph-name="uni5206" unicode="&#x5206;" 
d="M98 353l-43 77q205 136 312 360l73 -33q-116 -237 -342 -404zM900 360q-231 150 -334 412l70 28q97 -242 308 -363zM413 338q-3 -48 -9 -85q-15 -126 -75 -203q-62 -80 -205 -154l-48 68q125 61 182 130q54 66 68 167q6 34 9 77h-148v72h594l-15 -353q-3 -78 -41 -104
t-147 -26h-116l-11 75h135q60 0 80 14t22 57l11 265h-286z" />
    <glyph glyph-name="uni5207" unicode="&#x5207;" 
d="M612 665q-4 -118 -7 -191q-8 -220 -54 -338q-47 -119 -177 -238l-64 56q123 111 166 211q43 102 50 302q5 89 7 198h-149v75h511l-20 -692q-2 -70 -36 -93q-33 -23 -131 -23h-114l-12 78h117q56 0 76 14t21 54l17 587h-201zM247 465v-309q88 66 166 131l36 -70
q-137 -111 -265 -204l-44 66q18 16 24 31q6 14 6 40v306l-110 -13l-5 76l115 14v266h77v-257l160 20l5 -77z" />
    <glyph glyph-name="uni520A" unicode="&#x520a;" 
d="M630 -79l-11 76h118q47 0 62 11t15 44v737h78v-767q0 -61 -28 -81t-113 -20h-121zM585 134v559h73v-559h-73zM334 326v-419h-78v419h-195v72h195v268h-168v72h408v-72h-162v-268h186v-72h-186z" />
    <glyph glyph-name="uni5211" unicode="&#x5211;" 
d="M644 -84l-12 78h114q44 0 58 10q15 11 15 42v744h76v-775q0 -59 -28 -79t-111 -20h-112zM626 133v560h72v-560h-72zM472 335v-421h-74v421h-148q-4 -166 -31 -251q-26 -81 -105 -184l-59 54q71 90 94 159q24 74 28 222h-116v71h117v17v250h-85v72h458v-72h-79v-267h110
v-71h-110zM398 406v267h-147v-251v-16h147z" />
    <glyph glyph-name="uni5212" unicode="&#x5212;" 
d="M624 146v551h71v-551h-71zM647 -83l-11 75h105q44 0 58 10q15 11 15 42v749h75v-777q0 -59 -28 -79t-110 -20h-104zM457 610q-54 51 -126 109l44 49q80 -60 129 -104zM333 162q21 -65 57 -121q30 -47 63 -47q30 0 44 48q18 55 29 130l68 -30q-22 -100 -38 -145
q-30 -86 -98 -86q-76 -2 -129 86q-33 54 -56 117q-72 -53 -179 -110l-42 70q122 60 198 117q-27 108 -38 274l-135 -19l-8 71l138 19q-3 52 -10 264h75q4 -172 8 -255l277 38l7 -68l-281 -40l1 -8q10 -137 27 -225q85 77 164 198l62 -39q-100 -149 -204 -239z" />
    <glyph glyph-name="uni5217" unicode="&#x5217;" 
d="M377 265q45 86 71 203h-191q-60 -126 -162 -240l-42 63q146 177 196 386h-162v73h479v-73h-237q-15 -66 -41 -137h236v-71q-35 -184 -115 -308q-88 -136 -269 -263l-52 63q166 114 250 237q-100 85 -138 114l44 54q74 -54 133 -101zM635 -85l-12 78h114q47 0 62 11
q16 11 16 45v742h76v-774q0 -61 -29 -82q-28 -20 -114 -20h-113zM616 132v553h73v-553h-73z" />
    <glyph glyph-name="uni5218" unicode="&#x5218;" 
d="M476 571q-35 -197 -101 -330q158 -223 162 -228l-65 -50q-62 94 -139 204q-77 -124 -221 -256l-53 62q147 131 226 262q-102 145 -178 248l60 40q146 -197 157 -213q52 111 77 261h-335v74h225q-35 100 -52 143l76 16q29 -75 57 -159h178v-74h-74zM639 -82l-12 79h116
q44 0 58 10t14 41v743h76v-777q0 -58 -27 -77t-108 -19h-117zM603 138v559h73v-559h-73z" />
    <glyph glyph-name="uni5219" unicode="&#x5219;" 
d="M649 -82l-11 76h106q44 0 58 10t14 41v743h73v-770q0 -60 -28 -80t-112 -20h-100zM628 142v555h71v-555h-71zM114 174v577h404v-577h-70v508h-265v-508h-69zM336 191q70 -62 226 -210l-52 -56q-92 96 -196 195q-48 -117 -210 -222l-50 62q137 84 182 165q45 82 43 231
q1 90 1 248h72q0 -167 -1 -250q-2 -100 -15 -163z" />
    <glyph glyph-name="uni521A" unicode="&#x521a;" 
d="M101 -88v836h471v-735q0 -55 -26 -73q-25 -18 -102 -18h-90l-10 69h93q38 0 51 9t13 37v643h-329v-768h-71zM667 128v564h65v-564h-65zM679 -86l-10 70h90q44 0 58 10q15 11 15 42v752h71v-776q0 -59 -27 -78q-28 -20 -110 -20h-87zM374 347q70 -141 110 -227l-58 -32
q-46 100 -88 187q-52 -102 -112 -196l-46 49q69 109 124 218q-68 140 -115 229l54 29q71 -138 95 -186q45 97 81 193l59 -31q-52 -126 -104 -233z" />
    <glyph glyph-name="uni521B" unicode="&#x521b;" 
d="M656 -82l-11 76h105q41 0 55 10t14 39v752h74v-780q0 -59 -27 -78t-109 -19h-101zM626 135v562h71v-562h-71zM158 473h346l-7 -224q-1 -53 -27 -71q-25 -18 -99 -18h-78l-10 66h84q35 0 48 9q12 9 13 34l4 137h-216v-331q0 -41 15 -57q16 -17 54 -17h123q39 0 58 14
q18 13 24 45q9 40 15 97l69 -24q-8 -59 -20 -107q-14 -53 -43 -74q-30 -22 -91 -22h-151q-66 0 -95 32t-29 101v398q-27 -24 -57 -48l-33 70q169 130 257 322l77 -10q-10 -21 -21 -42q101 -99 220 -226l-53 -57q-106 119 -200 222q-75 -124 -177 -219z" />
    <glyph glyph-name="uni521D" unicode="&#x521d;" 
d="M625 651q-2 -53 -7 -172q-6 -217 -54 -339q-49 -122 -178 -241l-61 57q122 105 167 213q45 107 51 306q5 105 6 176h-139v71h489l-17 -678q-1 -67 -34 -90t-127 -23h-111l-11 76h119q53 0 70 12t18 50l14 582h-195zM242 626q-32 62 -80 145l66 31q41 -71 81 -142z
M263 281v-379h-73v389q-51 -55 -112 -106l-25 80q148 111 228 283h-201v68h284v-64q-49 -99 -101 -171v-21q9 -7 42 -34q34 40 91 118l51 -39q-58 -73 -96 -117q72 -61 91 -76l-43 -52q-18 17 -136 121z" />
    <glyph glyph-name="uni5220" unicode="&#x5220;" 
d="M695 125v582h58v-582h-58zM701 -85l-10 68h78q40 0 54 10q13 9 13 38v760h64v-787q0 -53 -25 -71t-99 -18h-75zM612 346v-356q0 -40 -19 -54t-76 -14h-49l-9 63h50q26 0 34 6q9 6 9 25v330h-92v-10q0 -181 -14 -261q-14 -83 -63 -176l-47 44q40 75 52 149q13 78 13 245v9
h-71v-344q0 -42 -20 -56t-78 -14h-45l-9 63h49q26 0 35 6t9 25v320h-89v-7q0 -174 -15 -258t-63 -181l-52 47q43 80 56 157q13 75 13 237v5h-64v63h64v349h209v-349h71v347h211v-347h52v-63h-52zM552 409v285h-92v-285h92zM271 409v287h-89v-287h89z" />
    <glyph glyph-name="uni5224" unicode="&#x5224;" 
d="M649 -84l-11 77h106q44 0 59 11t15 42v748h76v-778q0 -60 -28 -80t-112 -20h-105zM623 137v551h71v-551h-71zM175 534q-42 77 -97 167l58 32q39 -58 102 -163zM459 530l-59 38q55 79 106 167l62 -32q-61 -100 -109 -173zM361 477h186v-70h-187v-31q-2 -67 -4 -101h206
v-70h-214q-15 -96 -58 -164q-39 -63 -131 -144l-62 52q81 67 117 120q40 57 56 136h-203v70h212q3 31 5 101v31h-194v70h195v320h76v-320z" />
    <glyph glyph-name="uni5228" unicode="&#x5228;" 
d="M654 132v569h68v-569h-68zM670 -84l-11 71h95q43 0 57 10t14 41v755h71v-782q0 -57 -27 -76t-106 -19h-93zM197 233v-160q0 -43 17 -62q18 -20 57 -20h169q45 0 66 14t28 48q7 31 12 91l67 -22q-9 -65 -18 -101q-11 -50 -44 -72q-33 -23 -98 -23h-203q-63 0 -92 32
t-29 101v424q-14 -19 -42 -55l-33 72q99 121 159 304l72 -10q-17 -48 -39 -100h305l-8 -473q-1 -64 -31 -85t-120 -21h-66l-10 69h80q48 0 65 12q16 12 17 46l6 383h-271q-29 -58 -62 -109h242v-283h-196zM197 298h130v153h-130v-153z" />
    <glyph glyph-name="uni5229" unicode="&#x5229;" 
d="M638 -82l-11 77h122q40 0 54 10q13 9 13 38v749h75v-778q0 -58 -27 -77t-108 -19h-118zM594 132v560h72v-560h-72zM266 314q-63 -137 -175 -257l-44 79q140 132 213 308h-191v70h197v156q-85 -7 -174 -12l-12 71q211 9 423 33l15 -69q-93 -10 -178 -17v-162h195v-70h-195
v-78q112 -89 192 -159l-48 -57q-77 73 -144 131v-379h-74v412z" />
    <glyph glyph-name="uni522B" unicode="&#x522b;" 
d="M640 -84l-11 76h111q47 0 62 11t15 44v743h76v-771q0 -61 -29 -82t-115 -21h-109zM628 133v561h73v-561h-73zM519 445h-404v306h404v-306zM445 513v170h-256v-170h256zM294 324h234l-9 -292q-2 -64 -33 -86q-30 -21 -120 -21h-91l-11 71h98q48 0 65 12t18 46l8 202h-164
q-11 -120 -49 -195q-38 -73 -131 -160l-57 56q85 72 119 134q35 64 45 165h-140v68h145q2 40 3 90h73q-1 -44 -3 -90z" />
    <glyph glyph-name="uni522E" unicode="&#x522e;" 
d="M440 -25h-259v-59h-74v399h166v152h-213v67h213v142q-57 -4 -177 -8l-11 69q210 4 431 26l17 -68q-88 -9 -185 -15v-146h214v-67h-214v-152h166v-399h-74v59zM440 42v206h-259v-206h259zM648 -86l-12 76h103q47 0 61 10q15 10 15 43v747h75v-774q0 -61 -28 -81
q-29 -21 -113 -21h-101zM624 140v546h72v-546h-72z" />
    <glyph glyph-name="uni5230" unicode="&#x5230;" 
d="M627 134v563h71v-563h-71zM354 41q136 13 215 22l-5 -73q-279 -34 -497 -52l-8 79q111 7 222 18v164h-197v68h197v105h73v-105h194v-68h-194v-158zM481 421q-159 -11 -390 -18l-14 62q27 13 46 37q50 64 115 174h-165v69h495v-69h-245q-75 -122 -137 -203q111 3 256 11
q-25 40 -71 107l56 33q129 -190 148 -220l-60 -39zM657 -82l-11 77h107q40 0 54 10t14 39v749h76v-777q0 -59 -27 -78q-28 -20 -110 -20h-103z" />
    <glyph glyph-name="uni5236" unicode="&#x5236;" 
d="M671 -85l-11 73h98q40 0 54 10t14 39v756h71v-783q0 -57 -27 -76t-106 -19h-93zM653 138v563h67v-563h-67zM375 229v-330h-71v330h-122v-261h-69v325h191v109h-246v66h246v124h-131q-21 -53 -40 -92l-62 25q56 112 83 236l66 -11q-8 -36 -25 -93h109v140h71v-140h191v-65
h-191v-124h226v-66h-226v-109h194v-247q0 -41 -19 -55t-77 -14h-53l-9 61h50q25 0 33 6t8 23v162h-127z" />
    <glyph glyph-name="uni5237" unicode="&#x5237;" 
d="M684 -83l-11 71h89q39 0 52 9t13 37v758h71v-786q0 -53 -25 -71t-100 -18h-89zM539 564v122h-341v-122h341zM198 501v-99q0 -178 -18 -279q-19 -105 -72 -215l-54 49q45 97 60 184q15 89 15 268v341h476v-249h-407zM679 138v554h65v-554h-65zM457 323v-422h-69v422h-81
v-326h-64v387h145v82h69v-82h152v-315q0 -40 -19 -53t-75 -13h-32l-9 60h35q22 0 29 5t7 21v234h-88z" />
    <glyph glyph-name="uni5238" unicode="&#x5238;" 
d="M705 616l-58 43q69 61 120 118l63 -36q-43 -46 -125 -125zM289 621q-33 39 -111 120l60 36q71 -67 115 -115zM762 213l-13 -178q-5 -71 -39 -94t-133 -23h-121l-10 68h131q55 0 75 13t23 52l10 134h-253q-16 -112 -85 -177t-223 -114l-41 64q140 41 202 94q59 50 72 133
h-106v37q-65 -43 -162 -93l-37 68q187 83 280 185h-264v65h313q28 46 44 89q3 6 5 13h-323v64h342q18 79 29 190l79 -1q-14 -119 -31 -189h365v-64h-382l-6 -18q-15 -45 -36 -84h466v-65h-263q100 -116 274 -170l-34 -73q-79 31 -148 74zM710 250q-74 59 -123 132h-160
q-54 -72 -136 -132h419z" />
    <glyph glyph-name="uni5239" unicode="&#x5239;" 
d="M642 127v568h68v-568h-68zM668 -86l-11 73h95q44 0 58 10q15 11 15 42v755h71v-784q0 -58 -27 -77t-108 -19h-93zM372 303v-298q0 -52 -24 -69t-96 -17h-75l-10 68h74q35 0 46 8q12 8 12 33v275h-227v66h227v111h73v-111h210v-66h-210zM110 -4l-57 37q64 92 121 208
l63 -26q-62 -122 -127 -219zM543 8q-45 78 -123 201l57 33q55 -82 127 -196zM399 622q139 -90 175 -114l-42 -57q-126 84 -193 128q-106 -73 -228 -133l-39 59q110 52 206 115q-102 67 -179 114l41 53q79 -48 198 -125q87 64 160 131l52 -45q-76 -70 -151 -126z" />
    <glyph glyph-name="uni523A" unicode="&#x523a;" 
d="M650 126v568h68v-568h-68zM670 -85l-11 72h95q44 0 58 10t14 41v757h71v-784q0 -58 -27 -77t-107 -19h-93zM367 465v-235q115 -85 200 -153l-40 -56q-72 63 -160 134v-256h-70v307q-75 -132 -209 -242l-36 73q155 115 245 285v143h-119v-221h-69v285h188v102h-225v65h225
v104h70v-104h221v-65h-221v-102h191v-213q0 -43 -20 -57t-79 -14h-46l-9 62h46q24 0 32 6t8 23v129h-123z" />
    <glyph glyph-name="uni523B" unicode="&#x523b;" 
d="M637 125v563h71v-563h-71zM664 -82l-11 74h97q43 0 57 10t14 41v747h73v-773q0 -59 -28 -79t-111 -20h-91zM418 134q91 -81 173 -157l-50 -57q-75 73 -170 164q-103 -102 -252 -185l-45 63q158 85 253 177q93 90 175 235l59 -33q-67 -120 -143 -207zM352 426
q36 56 73 127l62 -31q-82 -152 -166 -246q-87 -98 -218 -183l-44 63q150 88 244 204q-134 -6 -205 -8l-13 60q26 14 49 40q52 60 105 157h-165v67h241q-29 80 -44 113l74 16q11 -30 47 -129h185v-67h-254q-75 -118 -133 -189z" />
    <glyph glyph-name="uni523D" unicode="&#x523d;" 
d="M637 128v570h68v-570h-68zM665 -83l-11 71h100q44 0 58 10t14 41v754h72v-780q0 -58 -27 -77t-108 -19h-98zM174 411v67h317v-67h-317zM372 751q110 -114 222 -235l-43 -66q-126 147 -214 241q-103 -161 -251 -287l-34 70q167 136 263 326l78 -10q-10 -20 -21 -39z
M497 -31q-201 -11 -400 -18l-13 56q31 18 52 48q47 62 101 172h-157v68h495v-68h-254q-71 -126 -126 -206q132 5 263 12q-54 85 -79 123l58 32q89 -133 152 -234l-60 -38q-16 26 -32 53z" />
    <glyph glyph-name="uni5241" unicode="&#x5241;" 
d="M642 129v568h68v-568h-68zM669 -84l-11 72h97q44 0 58 10t14 41v757h72v-783q0 -59 -27 -78t-109 -19h-94zM124 405l-51 55q54 43 73 83t19 107v105h315v-191q0 -30 10 -41t38 -11h56l-12 -66h-73q-46 0 -68 23q-21 22 -21 72v148h-175v-42q0 -81 -23 -132
q-24 -52 -88 -110zM283 202q-72 -137 -196 -237l-34 73q141 106 214 248h-194v65h210v116h72v-116h215v-65h-215v-50q203 -144 226 -161l-42 -59l-184 142v-250h-72v294z" />
    <glyph glyph-name="uni5242" unicode="&#x5242;" 
d="M627 126v561h72v-561h-72zM657 -87l-11 76h103q44 0 59 11t15 42v749h73v-780q0 -59 -27 -78q-28 -20 -110 -20h-102zM396 -88v348h72v-348h-72zM121 -103l-61 49q76 63 99 121q23 59 23 194h71q2 -144 -25 -218q-27 -75 -107 -146zM396 431q84 -52 188 -117l-42 -62
q-148 97 -199 129q-93 -76 -257 -133l-32 68q144 49 224 106q-56 36 -168 105l46 50q149 -90 178 -108q59 58 99 144h-359v66h227q-12 41 -36 113l79 11q19 -57 37 -124h192v-66h-62q-48 -109 -115 -182z" />
    <glyph glyph-name="uni5243" unicode="&#x5243;" 
d="M670 -82l-11 71h96q40 0 54 10t14 39v758h70v-786q0 -56 -26 -74q-25 -18 -103 -18h-94zM655 131v570h68v-570h-68zM290 297v119h-126l-11 -119h137zM492 477v122h-134v-122h134zM290 152q-76 -116 -201 -200l-37 68q147 87 221 215h-190l23 242h184v122h-201v63h134
l-70 114l63 25q65 -103 72 -114l-54 -25h120q58 97 80 140l69 -21q-37 -60 -74 -119h128v-246h-199v-119h224l-11 -210q-2 -44 -24 -59t-84 -15h-60l-10 66h65q29 0 39 7t11 28l5 121h-155v-332h-68v249z" />
    <glyph glyph-name="uni524A" unicode="&#x524a;" 
d="M475 117h-298v-212h-71v634h185v261h72v-261h183v-538q0 -54 -25 -72t-101 -18h-76l-10 69h84q35 0 46 8t11 33v96zM475 183v111h-298v-111h298zM475 360v110h-298v-110h298zM182 581q-51 71 -102 143l55 36q73 -93 106 -139zM465 578l-54 42q50 63 104 142l57 -36
q-50 -74 -107 -148zM669 -87l-11 71h93q44 0 58 10q15 11 15 42v759h71v-786q0 -58 -27 -77t-107 -19h-92zM644 125v565h68v-565h-68z" />
    <glyph glyph-name="uni524D" unicode="&#x524d;" 
d="M681 674h259v-68h-879v68h263q-63 81 -84 106l70 29q52 -60 109 -135h169q73 87 103 128l77 -22q-40 -51 -87 -106zM616 88v404h67v-404h-67zM431 117h-234v-215h-74v613h382v-517q0 -50 -24 -67t-94 -17h-87l-10 67h90q31 0 41 7t10 29v100zM431 179v106h-234v-106h234z
M431 347v103h-234v-103h234zM646 -86l-11 71h97q44 0 59 11t15 42v498h71v-524q0 -59 -27 -78q-28 -20 -110 -20h-94z" />
    <glyph glyph-name="uni5250" unicode="&#x5250;" 
d="M679 -89l-11 71h90q41 0 55 10t14 39v760h69v-789q0 -55 -26 -73q-25 -18 -102 -18h-89zM657 126v570h67v-570h-67zM466 552v138h-259v-138h259zM368 385h207v-369q0 -55 -26 -74t-104 -19h-73l-9 63h80q38 0 51 9t13 37v289h-144q-4 -36 -8 -52q65 -62 144 -142l-43 -49
q-49 54 -121 129q-36 -83 -129 -154l-37 45v-180h-68v467h204q2 66 2 102h-167v268h393v-268h-162q-1 -51 -3 -102zM300 321h-131v-212q64 47 93 93q29 47 38 119z" />
    <glyph glyph-name="uni5251" unicode="&#x5251;" 
d="M189 441v67h317v-67h-317zM178 93q-27 94 -77 249l61 18q50 -150 80 -250zM473 61q38 4 128 14l-5 -75q-282 -35 -514 -55l-8 78q182 15 331 31q55 162 97 317l68 -18q-31 -98 -97 -292zM332 130q-21 108 -53 241l63 11q13 -55 54 -240zM379 746q125 -106 224 -197
l-42 -67q-72 71 -217 208q-93 -136 -261 -262l-33 71q186 125 277 302l77 -10q-16 -30 -25 -45zM640 131v562h69v-562h-69zM661 -83l-11 72h100q44 0 58 10q15 11 15 42v753h71v-780q0 -59 -27 -78t-109 -19h-97z" />
    <glyph glyph-name="uni5254" unicode="&#x5254;" 
d="M499 608v89h-288v-89h288zM499 468v87h-288v-87h288zM693 -88l-10 70h88q39 0 52 9t13 37v765h68v-792q0 -53 -25 -71t-100 -18h-86zM672 127v570h63v-570h-63zM284 408q-21 -47 -43 -84h364l-18 -321q-3 -52 -28 -69t-98 -17h-69l-10 65h81q36 0 49 9t14 34l14 238h-67
q-26 -126 -77 -209q-49 -81 -147 -160l-44 47q89 67 136 141q47 73 71 181h-77q-30 -90 -81 -159q-56 -76 -149 -143l-41 52q150 99 210 250h-74q-48 -63 -102 -113l-41 50q100 86 158 208h-72v349h424v-349h-283z" />
    <glyph glyph-name="uni5256" unicode="&#x5256;" 
d="M459 -26h-268v-58h-73v362h414v-364h-73v60zM459 38v175h-268v-175h268zM384 691h176v-65h-472v65h217q-25 61 -43 99l75 13q24 -56 47 -112zM431 439h156v-65h-526v65h149q-25 53 -68 137l63 26q56 -112 80 -163h73q64 127 82 169l70 -24q-35 -68 -79 -145zM642 126v569
h69v-569h-69zM665 -88l-11 72h96q44 0 58 10q15 11 15 42v757h72v-785q0 -58 -27 -77t-108 -19h-95z" />
    <glyph glyph-name="uni5265" unicode="&#x5265;" 
d="M205 195q-70 67 -122 111l41 45q65 -54 124 -107zM535 452h80v-63h-239v-166q123 -83 245 -165l-40 -61q-142 106 -205 150v-153q0 -50 -23 -67q-24 -17 -94 -17h-82l-9 64h79q36 0 47 8q12 8 12 34v130q-100 -69 -212 -138l-41 62q119 66 253 152v167h-238v63h396v88
h-337v61h337v90h-355v63h426v-302zM463 190l-43 49q35 26 139 115l44 -44q-71 -66 -140 -120zM662 127v569h65v-569h-65zM678 -84l-10 69h95q39 0 52 9t13 37v763h70v-787q0 -55 -25 -73t-102 -18h-93z" />
    <glyph glyph-name="uni5267" unicode="&#x5267;" 
d="M679 -83l-10 69h91q40 0 54 10q13 9 13 38v761h69v-787q0 -55 -26 -73q-25 -18 -102 -18h-89zM510 26v139h-217v-139h217zM514 570v116h-319v-116h319zM658 126v569h65v-569h-65zM436 335v-110h139v-316h-65v56h-217v-56h-65v316h140v110h-174q-3 -147 -21 -234
q-18 -86 -66 -191l-53 50q45 99 59 185q14 87 14 274v331h453v-242h-385v-111h173v92h68v-92h175v-62h-175z" />
    <glyph glyph-name="uni5269" unicode="&#x5269;" 
d="M695 -84l-10 67h85q40 0 54 10q13 9 13 38v763h67v-789q0 -53 -25 -71t-100 -18h-84zM690 125v588h61v-588h-61zM506 368v-59q0 -20 8 -29q7 -8 26 -8h11q18 0 26 7t11 26q5 32 7 56l48 -15q-3 -33 -9 -63q-10 -66 -78 -64h-33q-38 0 -56 19t-18 61v195h57v-72
q67 27 107 46l24 -48q-85 -37 -131 -52zM189 256q-50 -14 -116 -28l-14 55q54 9 130 28v74h-119v53h119v56h57v-285h-57v47zM315 173q-75 -128 -225 -226l-36 66q89 54 151 116q60 61 110 144v264h-250v60h250v95q-144 -4 -214 -5l-9 61q252 2 502 16l10 -60
q-104 -6 -223 -9v-98h251v-60h-251v-297q116 -88 241 -190l-41 -59q-75 70 -200 174v-266h-66v274z" />
    <glyph glyph-name="uni526A" unicode="&#x526a;" 
d="M646 226l-9 58h98q37 0 50 9t13 36v267h71v-284q0 -52 -24 -69t-96 -17h-103zM619 348v224h66v-224h-66zM681 702h256v-60h-871v60h267q-24 30 -68 84l78 18q73 -92 81 -102h167q47 60 74 102l81 -16q-34 -48 -65 -86zM448 333h-244v-110h-70v360h385v-277q0 -50 -23 -67
q-24 -17 -94 -17h-75l-8 51h77q32 0 42 7t10 30v23zM448 376v58h-244v-58h244zM448 477v55h-244v-55h244zM447 110q-18 -87 -95 -136q-77 -48 -249 -80l-36 64q157 27 220 59q64 32 82 93h-284v60h788l-13 -134q-4 -69 -42 -94q-37 -25 -135 -24h-144l-9 63h159q53 0 71 12
t22 50l7 67h-342z" />
    <glyph glyph-name="uni526F" unicode="&#x526f;" 
d="M542 409h-407v215h407v-215zM474 465v103h-270v-103h270zM78 690v61h520v-61h-520zM510 -45h-343v-52h-68v439h480v-439h-69v52zM510 12v109h-139v-109h139zM510 175v110h-139v-110h139zM306 12v109h-139v-109h139zM306 175v110h-139v-110h139zM660 124v570h65v-570h-65z
M678 -89l-10 70h91q40 0 54 10q13 9 13 38v759h68v-786q0 -55 -25 -73t-102 -18h-89z" />
    <glyph glyph-name="uni5272" unicode="&#x5272;" 
d="M485 -46h-294v-45h-69v276h180v74h-229v58h229v68h-177v56h177v68h-192v58h192v57h69v-57h189v-58h-189v-68h174v-56h-174v-68h226v-58h-226v-74h182v-275h-68v44zM485 12v115h-294v-115h294zM378 717h214v-135h-66v77h-384v-77h-66v135h226q-14 52 -21 76l76 9
q12 -43 21 -85zM659 127v568h67v-568h-67zM681 -84l-11 71h92q40 0 54 10q13 9 13 38v759h70v-786q0 -56 -26 -74q-25 -18 -103 -18h-89z" />
    <glyph glyph-name="uni527F" unicode="&#x527f;" 
d="M695 -85l-10 67h85q39 0 52 9t13 37v764h67v-788q0 -53 -25 -71t-100 -18h-82zM675 123v575h62v-575h-62zM317 429v75h-134v-75h134zM317 304v76h-134v-76h134zM519 429v75h-135v-75h135zM519 304v76h-135v-76h135zM550 574q-33 38 -113 115q65 59 106 109l61 -21
q-14 -15 -89 -87q58 -53 92 -85zM373 574q-37 41 -114 114q55 49 108 110l58 -20q-33 -37 -89 -89q56 -47 91 -83zM197 574q-37 42 -114 115q47 40 108 109l60 -21q-40 -42 -90 -88q50 -43 92 -83zM384 127v-29q128 -50 235 -95l-29 -56q-106 49 -206 92v-138h-67v182
q-82 -94 -231 -157l-35 58q152 56 237 143h-218v56h247v67h-198v308h463v-308h-198v-67h243v-56h-243z" />
    <glyph glyph-name="uni5288" unicode="&#x5288;" 
d="M759 710h156v-57h-399v57h173q-23 60 -33 81l70 11q9 -19 33 -92zM409 341v92h-156v-92h156zM470 289h-278v196h278v-196zM442 156q-19 -101 -86 -154q-69 -55 -246 -106l-40 67q157 38 220 80t75 113h-266v63h759l-14 -172q-6 -76 -43 -101t-144 -25h-140l-10 66h154
q61 0 82 14t25 57l8 98h-334zM677 540h73q36 60 57 98l61 -18q-10 -18 -50 -80h116v-57h-189v-80h164v-57h-164v-89h-67v89h-159v57h159v80h-180v57h112q-7 11 -48 79l59 19zM198 609h202v90h-202v-90zM197 556q-7 -146 -100 -272l-44 63q46 60 62 119q16 57 16 158v131h336
v-199h-270z" />
    <glyph glyph-name="uni529B" unicode="&#x529b;" 
d="M467 600h411l-21 -529q-1 -71 -33 -102q-39 -38 -165 -36h-157l-12 80h163q73 0 98 17q24 17 26 69l14 422h-328q-11 -230 -86 -365q-76 -135 -258 -254l-55 69q170 109 238 228q68 118 78 322h-288v79h292q4 98 6 200h85q-3 -119 -8 -200z" />
    <glyph glyph-name="uni529D" unicode="&#x529d;" 
d="M319 290q40 -59 112 -167l-58 -47q-32 52 -90 138q-65 -126 -187 -257l-47 64q123 126 188 263q-85 128 -157 228l56 40q65 -91 133 -189q42 115 63 269h-253v74h328v-73q-30 -204 -88 -343zM640 603h259l-15 -556q-2 -70 -35 -93t-131 -23h-107l-12 78h116q56 0 75 13
q19 14 20 54l10 453h-184q0 -7 -1 -14q-8 -231 -59 -361t-185 -255l-59 57q127 113 175 230t53 325q1 9 1 18h-121v74h125q4 107 5 195h77q-3 -98 -7 -195z" />
    <glyph glyph-name="uni529E" unicode="&#x529e;" 
d="M121 172l-65 39q72 112 126 253l69 -30q-52 -124 -130 -262zM446 635h317l-19 -575q-2 -79 -40 -105q-37 -26 -148 -26h-119l-12 79h132q65 0 87 15t24 62l14 475h-239q-1 -4 -1 -12q-9 -253 -76 -390t-253 -258l-53 67q174 110 234 232t68 346q0 10 1 15h-267v75h270
q4 128 5 163h81q-3 -82 -6 -163zM886 186q-10 21 -123 236l62 32q60 -104 130 -231z" />
    <glyph glyph-name="uni529F" unicode="&#x529f;" 
d="M617 607h282l-17 -566q-2 -68 -35 -91t-129 -23h-117l-11 77h120q57 0 76 14q18 13 20 54l13 461h-205q0 -13 -1 -26q-9 -230 -59 -358q-51 -129 -183 -250l-66 53q128 108 175 220q48 114 55 336q1 12 1 25h-117v74h121q3 59 5 191h78q-1 -100 -6 -191zM278 178
q103 22 139 31l4 -81q-150 -39 -346 -80l-20 85q98 18 147 28v456h-130v75h329v-75h-123v-439z" />
    <glyph glyph-name="uni52A0" unicode="&#x52a0;" 
d="M269 627h206l-12 -604q-1 -56 -27 -75q-27 -19 -106 -19h-85l-12 78h84q44 0 58 10t15 41l10 496h-133q-1 -6 -1 -19q-6 -248 -40 -380q-33 -132 -124 -255l-54 60q80 114 109 230t35 347v17h-117v73h119q1 86 2 173h75q-1 -87 -2 -173zM822 7h-178v-90h-74v768h326v-768
h-74v90zM822 80v532h-178v-532h178z" />
    <glyph glyph-name="uni52A1" unicode="&#x52a1;" 
d="M600 472q128 -43 344 -66l-28 -72q-254 31 -406 96q-159 -67 -427 -110l-29 70q223 32 370 84q-88 53 -161 133q-59 -55 -136 -113l-53 57q167 114 267 252l82 -13q-21 -31 -55 -72h469v-69q-115 -112 -237 -177zM511 508q118 52 225 145h-425q91 -94 200 -145zM465 266
h376l-14 -215q-3 -81 -47 -108q-42 -25 -146 -24h-133l-11 73h153q61 0 83 15t24 58l8 134h-306q-28 -117 -105 -184t-241 -120l-43 71q146 42 213 92q70 52 96 141h-258v67h272q6 55 7 92h80q-2 -40 -8 -92z" />
    <glyph glyph-name="uni52A3" unicode="&#x52a3;" 
d="M463 543v257h76v-257h-76zM900 520q-144 95 -257 160l39 55q168 -95 259 -151zM119 508l-38 64q129 67 253 159l44 -60q-122 -86 -259 -163zM86 338l-25 71q421 52 690 166l38 -64q-137 -59 -295 -98q-167 -42 -408 -75zM482 280h391l-14 -225q-5 -80 -44 -106
q-39 -27 -151 -27h-134l-11 75h154q61 0 82 14q22 15 25 58l10 142h-320q-25 -116 -103 -186t-249 -126l-41 71q156 49 223 103q64 51 88 138h-271v69h286q7 42 9 81l78 -1q-4 -52 -8 -80z" />
    <glyph glyph-name="uni52A8" unicode="&#x52a8;" 
d="M103 656v70h347v-70h-347zM671 607h233l-13 -582q-1 -58 -29 -78t-110 -20h-98l-11 76h99q44 0 58 10q15 11 16 42l12 481h-159q0 -14 -1 -28q-7 -235 -43 -371q-39 -146 -128 -248l-68 47q90 101 125 221q35 121 41 354q1 12 1 25h-109v71h111q2 68 4 194h73zM410 42
q-230 -21 -331 -28l-16 61q22 17 37 47q65 136 108 282h-147v70h421v-70h-193q-60 -170 -127 -310q71 4 221 16q-10 24 -73 178l62 23q17 -39 116 -281l-61 -32q-8 22 -17 44z" />
    <glyph glyph-name="uni52A9" unicode="&#x52a9;" 
d="M375 521v158h-180v-158h180zM375 302v157h-180v-157h180zM375 86v154h-180v-172q90 7 180 18zM498 40q53 79 76 182q24 105 29 284q0 17 1 26h-103v72h104q2 66 4 193h74q-1 -64 -5 -193h220l-15 -586q-2 -56 -28 -75q-27 -19 -106 -19h-98l-11 73h98q44 0 58 10t15 41
l13 484h-148q0 -14 -1 -28q-8 -249 -45 -365q-36 -114 -145 -242l-54 59q39 44 57 70q-214 -29 -422 -48l-9 78q34 3 67 6v684h322v-653q16 3 55 7z" />
    <glyph glyph-name="uni52AA" unicode="&#x52aa;" 
d="M319 494q50 53 85 146h-162q-24 -55 -44 -93q49 -21 121 -53zM382 465q2 -1 91 -44l-34 -63q-35 20 -107 58q-78 -63 -238 -119l-31 63q130 40 203 89q-69 34 -152 72q29 54 57 119h-99v62h126q26 68 37 101l72 -6q-24 -64 -38 -95h205v-69q-39 -106 -92 -168zM750 469
q70 -45 194 -85l-32 -67q-137 49 -218 108q-74 -50 -177 -91l-37 63q98 36 159 74q-63 62 -114 168l60 30q47 -101 110 -158q79 66 122 169h-314v64h386v-68q-49 -127 -139 -207zM478 257h379l-10 -203q-2 -68 -31 -97q-38 -38 -161 -36h-136l-11 71h156q59 0 80 14t24 57
l8 128h-311q-28 -112 -104 -175t-250 -118l-41 70q152 44 221 92t94 131h-268v66h283q2 11 9 79l77 -1q-1 -37 -8 -78z" />
    <glyph glyph-name="uni52AB" unicode="&#x52ab;" 
d="M498 32q57 88 80 194q22 103 27 285q0 17 1 25h-101v71h102q2 115 3 194h75l-4 -194h219l-14 -580q-1 -60 -30 -80q-28 -20 -112 -20h-99l-11 76h99q47 0 62 11t16 44l12 478h-144q0 -14 -1 -28q-7 -234 -42 -355q-36 -124 -139 -257l-68 46q23 26 56 71l-50 -19l-16 38
q-213 -19 -334 -29l-16 62q24 16 38 39q64 113 106 229h-152v69h190v167h-160v69h160v161h72v-161h144v-69h-144v-167h171v-69h-201q-59 -141 -123 -251q148 10 222 16q-50 117 -65 148l64 24q54 -119 107 -238z" />
    <glyph glyph-name="uni52B1" unicode="&#x52b1;" 
d="M717 605h186l-12 -589q-1 -53 -26 -71q-26 -18 -100 -18h-76l-11 74h81q37 0 50 9t14 36l10 488h-118q0 -20 -1 -40q-3 -235 -32 -357q-29 -121 -115 -238l-52 61q77 100 102 205q26 105 29 325q1 22 1 44h-70v71h72q2 118 2 194h68q0 -64 -2 -194zM111 -92l-56 55
q43 94 56 184q12 84 12 278v320h437v-67h-368v-250q0 -204 -15 -304q-16 -107 -66 -216zM353 362h173l-10 -340q-1 -50 -26 -67t-95 -17h-49l-10 67h58q34 0 46 8t13 33l9 253h-111q-7 -141 -30 -222q-23 -80 -81 -171l-50 52q55 86 74 164q20 79 25 233q2 72 2 141h-71v67
h330v-67h-194q-2 -111 -3 -134z" />
    <glyph glyph-name="uni52B2" unicode="&#x52b2;" 
d="M322 69q104 13 167 22l-3 -73q-233 -35 -413 -55l-10 78q62 6 186 20v194h-156v68h381v-68h-152v-186zM350 539l176 -108l-43 -60q-23 16 -183 120q-87 -71 -213 -126l-34 66q113 47 189 106q73 57 125 136h-274v69h356v-72q-50 -81 -99 -131zM692 605h212l-13 -583
q-1 -58 -29 -77q-27 -19 -108 -19h-94l-11 74h94q44 0 58 10q15 11 16 42l12 481h-139q-1 -19 -2 -37q-6 -230 -43 -355q-36 -125 -133 -241l-60 52q89 102 124 214q34 111 39 325l2 42h-109v72h112q3 100 3 195h73q-2 -130 -4 -195z" />
    <glyph glyph-name="uni52B3" unicode="&#x52b3;" 
d="M475 299h361l-12 -243q-4 -80 -42 -106t-150 -26h-136l-11 74h159q58 0 79 14t23 55l10 164h-290q-23 -122 -101 -195q-81 -76 -260 -138l-40 71q159 50 230 110q68 57 90 152h-263v68h274q8 50 9 107h80q-2 -43 -10 -107zM702 640v-80h-77v80h-248v-81h-77v81h-222v67
h222v93h77v-93h248v93h77v-93h221v-67h-221zM85 351v164h831v-165h-76v98h-680v-97h-75z" />
    <glyph glyph-name="uni52BF" unicode="&#x52bf;" 
d="M294 474v-99q0 -47 -22 -63t-89 -16h-70l-9 61h71q31 0 41 7t10 29v71q-90 -13 -146 -20l-10 66q107 13 156 20v97h-142v62h142v112h68v-112h113v-62h-113v-88q76 12 113 18l-2 -64q-40 -8 -111 -19zM633 694h180q-4 -174 4 -264q6 -62 31 -62q17 0 25 40q8 36 13 109
l59 -19q-9 -81 -17 -120q-16 -77 -82 -77q-40 0 -65 32t-30 89q-7 95 -6 209h-116q-6 -87 -25 -139q55 -30 109 -59l-37 -62q-51 32 -102 61q-43 -68 -151 -137l-51 52q102 58 143 119q-44 24 -89 49l34 52q42 -22 83 -43q14 45 19 107h-115v63h117q2 54 3 108h69
q-2 -76 -3 -108zM467 233h380l-11 -183q-4 -78 -43 -104q-38 -26 -148 -26h-126l-11 71h147q58 0 79 14q20 14 23 55l8 107h-310q-25 -109 -106 -170q-80 -62 -244 -100l-41 71q148 30 215 72q72 44 96 127h-265v66h278q2 19 4 58l80 -1q-1 -22 -5 -57z" />
    <glyph glyph-name="uni52C3" unicode="&#x52c3;" 
d="M706 601h202l-14 -586q-2 -55 -27 -73t-102 -18h-89l-11 73h88q41 0 55 10t15 39l13 485h-132v-14q-5 -245 -46 -374q-41 -128 -149 -246l-58 52q102 112 138 223q37 114 44 342q0 11 1 17h-87v70h88q2 98 3 197h72q-2 -99 -4 -197zM340 544h192v-141h-65v80h-326v-81
h-65v142h192v99h-168v62h168v91h72v-91h164v-62h-164v-99zM348 144v-150q0 -49 -23 -66q-24 -17 -93 -17h-82l-10 68h80q35 0 46 8t11 33v116q-69 -7 -207 -19l-7 68q77 5 214 17v36l98 92h-230v61h319v-63l-116 -106v-13q127 13 181 19l-5 -64q-124 -15 -176 -20z" />
    <glyph glyph-name="uni52C7" unicode="&#x52c7;" 
d="M463 456v73h-247v-73h247zM463 331v73h-247v-73h247zM784 456v73h-248v-73h248zM784 331v73h-248v-73h248zM578 584h280v-361h-74v56h-248v-47h-73v47h-247v-56h-75v361h284q-29 11 -184 72l43 40q83 -32 213 -86q109 44 217 89h-588v59h717v-63q-3 -1 -265 -111z
M460 175h397l-12 -143q-6 -67 -40 -90q-33 -22 -128 -22h-148l-9 62h160q50 0 68 12t22 48l7 74h-328q-23 -88 -99 -137q-77 -49 -244 -83l-37 65q149 27 213 59q67 34 89 96h-262v59h275q2 16 4 48l75 -1q-1 -17 -3 -47z" />
    <glyph glyph-name="uni52C9" unicode="&#x52c9;" 
d="M706 635h183l-15 -458q-2 -52 -26 -69t-97 -17h-71l-10 66h77q36 0 49 9q12 9 13 35l13 366h-119v-6q-8 -194 -39 -289q-32 -99 -126 -217l-55 45q88 101 117 189q30 90 36 271v7h-94v68h97q2 106 2 163h68q-1 -53 -3 -163zM441 -90q-119 0 -119 109v183h68v-167
q0 -32 16 -46t51 -14h327q41 0 59 12q17 11 24 41q7 27 12 87l66 -21q-5 -48 -16 -96t-42 -68t-94 -20h-352zM265 299v2q9 71 10 165h-114v-167h104zM447 299v167h-109q-3 -92 -12 -167h121zM256 710h207v-61l-79 -123h125v-287h-192q-20 -104 -69 -181q-48 -75 -148 -160
l-49 59q94 73 138 133q46 64 65 149h-155v261q-4 -5 -13 -14l-43 57q122 117 186 260l69 -11q-22 -47 -42 -82zM218 648q-40 -60 -95 -122h184l79 122h-168z" />
    <glyph glyph-name="uni52CB" unicode="&#x52cb;" 
d="M324 145q102 -76 181 -138l-43 -60q-50 45 -159 134q-26 -55 -76 -97q-51 -43 -138 -81l-36 62q201 80 212 219q6 46 6 128h67q0 -72 -8 -134q-3 -17 -6 -33zM477 515h-352v240h352v-240zM412 576v118h-221v-118h221zM98 109v324h408v-319h-67v257h-275v-262h-66z
M716 606h199l-14 -592q-2 -55 -27 -73t-102 -18h-86l-11 74h88q40 0 54 10q13 9 14 38l13 490h-130q-1 -6 -1 -18q-5 -234 -43 -369q-37 -135 -124 -255l-60 44q85 116 117 232q34 122 40 346q0 13 1 20h-96v71h98q2 92 3 191h71q-2 -96 -4 -191z" />
    <glyph glyph-name="uni52D2" unicode="&#x52d2;" 
d="M704 605h200l-13 -587q-1 -56 -28 -75t-105 -19h-83l-11 74h87q41 0 55 10t15 39l11 489h-130q0 -23 -1 -45q-5 -229 -40 -351q-35 -123 -131 -243l-62 44q95 118 126 221q30 101 38 322q0 32 1 52h-99v69h100q0 110 2 194h71q-1 -37 -3 -194zM271 260v116h-110v-116h110
zM448 260v116h-110v-116h110zM450 506h-112v-73h172v-230h-172v-84h198v-58h-198v-160h-67v160h-211v58h211v84h-172v230h172v73h-113v145h-94v58h94v91h65v-91h162v91h65v-91h98v-58h-98v-145zM385 560v91h-162v-91h162z" />
    <glyph glyph-name="uni52D8" unicode="&#x52d8;" 
d="M502 293h87v-59h-409v-228h336v-60h-404v288h-51v59h94v350h-77v59h77v98h69v-98h210v98h68v-98h73v-59h-73v-350zM434 293v81h-210v-81h210zM434 428v80h-210v-80h210zM434 562v81h-210v-81h210zM480 43q-43 64 -98 133l51 32q45 -56 99 -127zM252 42l-48 38
q57 63 98 129l53 -32q-56 -82 -103 -135zM724 602h183l-12 -590q-1 -52 -26 -70q-26 -18 -99 -18h-75l-11 74h79q37 0 50 9t14 36l11 488h-116q0 -23 -1 -46q-6 -233 -36 -353q-29 -115 -109 -235l-50 60q73 110 96 203q25 100 31 320q1 25 2 51h-77v71h78l2 198h68
q0 -68 -2 -198z" />
    <glyph glyph-name="uni52DF" unicode="&#x52df;" 
d="M681 687v-50h-75v50h-213v-51h-74v51h-247v55h247v61h74v-61h213v61h75v-61h247v-55h-247zM757 509v56h-514v-56h514zM757 409v57h-514v-57h514zM759 114l-9 -112q-5 -55 -31 -73q-27 -18 -104 -18h-111l-9 60h115q39 0 53 9t16 37l5 71h-215q-28 -83 -95 -125
q-65 -41 -201 -67l-27 63q110 17 167 46q60 30 86 83h-163v25q-62 -37 -151 -71l-30 68q169 57 251 132h-231v55h282q24 32 40 62h-230v256h665v-256h-357q-14 -30 -36 -62h488v-55h-243q89 -85 260 -120l-28 -69q-91 26 -157 61zM713 141q-65 44 -109 101h-206
q-47 -55 -116 -101h136q8 37 10 63h66q-5 -41 -10 -63h229z" />
    <glyph glyph-name="uni52E4" unicode="&#x52e4;" 
d="M291 358v82h-131v-82h131zM422 603v71h-196v-71h196zM484 358v82h-130v-82h130zM547 -18q59 96 80 196q20 96 26 307q1 25 1 50h-86v68h87q1 98 2 197h69q-1 -99 -3 -197h184l-12 -591q-1 -53 -26 -71q-26 -18 -100 -18h-74l-11 73h80q37 0 50 9q12 9 13 35l12 495h-118
q0 -31 -1 -45q-4 -231 -33 -353t-111 -241l-52 50q9 13 11 16q-284 -16 -474 -21l-3 60q77 1 233 7v73h-191v49h191v65h-206v50h206v64h-192v181h192v63h-130v121h-99v51h99v76h65v-76h196v76h65v-76h94v-51h-94v-121h-133v-63h191v-181h-191v-64h202v-50h-202v-65h186v-49
h-186v-71q132 6 198 10z" />
    <glyph glyph-name="uni52FA" unicode="&#x52fa;" 
d="M488 169q-61 70 -210 226l58 52q112 -111 214 -220zM326 658h556l-21 -590q-3 -89 -45 -118q-43 -30 -167 -30h-166l-12 81h171q81 0 108 19q28 19 30 77l16 483h-516q-67 -107 -154 -206l-63 57q155 164 238 370l85 -19q-27 -61 -60 -124z" />
    <glyph glyph-name="uni52FE" unicode="&#x52fe;" 
d="M620 145l-458 -30l-16 67q29 16 60 52q107 136 187 297l83 -23q-106 -187 -202 -310q204 10 301 17q-30 47 -98 146l65 41q80 -112 189 -276l-70 -45q-9 15 -41 64zM320 664h566l-18 -598q-3 -88 -44 -117t-165 -29h-171l-12 78h177q80 0 107 19q28 19 29 76l15 496h-527
q-65 -104 -153 -205l-60 58q149 154 234 360l80 -19q-27 -63 -58 -119z" />
    <glyph glyph-name="uni52FF" unicode="&#x52ff;" 
d="M700 588q-30 -245 -117 -392q-89 -152 -289 -287l-54 62q187 118 275 262q84 137 110 355h-140q-37 -175 -118 -292q-83 -120 -246 -230l-51 63q153 98 230 203q75 103 109 256h-126q-71 -115 -160 -214l-58 56q157 168 241 372l78 -17q-27 -61 -60 -124h574l-28 -591
q-2 -70 -32 -100q-38 -38 -164 -36h-127l-11 75h135q72 0 97 17t27 69l23 493h-118z" />
    <glyph glyph-name="uni5300" unicode="&#x5300;" 
d="M479 300q-107 90 -207 163l53 55q85 -60 212 -158zM129 46l-27 84q275 81 609 190l11 -82q-305 -104 -593 -192zM327 663h555l-18 -596q-3 -88 -44 -117t-164 -29h-171l-12 78h176q80 0 107 19q28 19 29 76l14 494h-517q-64 -101 -160 -206l-58 59q156 159 240 361
l82 -20q-31 -67 -59 -119z" />
    <glyph glyph-name="uni5305" unicode="&#x5305;" 
d="M517 291v153h-269v-153h269zM198 512h395v-289h-345v-151q0 -52 20 -71t76 -19h398q52 0 77 16q24 15 32 53q8 37 15 114l77 -21q-8 -73 -20 -130q-11 -56 -49 -80t-115 -24h-433q-84 0 -120 36q-35 35 -35 117v416q-35 -40 -84 -91l-32 81q146 146 225 335l85 -11
q-20 -47 -45 -94h522l-10 -462q-1 -70 -35 -94t-132 -24h-108l-11 75h118q55 0 73 13t19 52l9 366h-487q-31 -51 -80 -113z" />
    <glyph glyph-name="uni5306" unicode="&#x5306;" 
d="M699 593q-25 -197 -80 -323q40 -20 114 -56l-40 -71q-5 3 -109 59q-90 -156 -290 -294l-52 62q188 123 275 267q-70 36 -141 72q-84 -128 -258 -246l-49 60q165 103 242 219q-51 25 -102 51l36 58q34 -15 101 -48q38 77 62 190h-132q-72 -118 -160 -216l-55 55
q148 158 237 369l75 -16q-33 -76 -56 -119h582l-30 -606q-4 -80 -42 -106t-149 -26h-131l-12 78h136q72 0 97 17t27 68l25 502h-121zM624 593h-140q-28 -133 -73 -222q63 -29 140 -68q53 116 73 290z" />
    <glyph glyph-name="uni5308" unicode="&#x5308;" 
d="M304 682h593l-18 -638q-2 -74 -37 -98q-34 -24 -137 -24h-124l-11 73h129q63 0 84 15q22 15 23 60l14 540h-559q-67 -103 -152 -193l-55 55q143 146 227 331l81 -10q-26 -55 -58 -111zM479 366q92 -105 132 -153l-55 -47q-66 83 -121 148q-81 -90 -153 -154l-44 53
q75 64 153 153q-68 79 -141 159l51 40q68 -73 133 -148q58 69 115 155l57 -36q-60 -89 -127 -170zM152 48v397h70v-331h411v331h70v-397h-551z" />
    <glyph glyph-name="uni5316" unicode="&#x5316;" 
d="M592 315v-247q-1 -85 88 -81h63q52 0 75 16t29 58q10 61 16 150l78 -27q-8 -90 -20 -162q-11 -62 -48 -87q-38 -25 -121 -25h-93q-78 0 -112 33q-35 34 -35 113v203q-81 -53 -159 -95l-44 71q103 54 203 122v433h80v-374q147 115 262 256l62 -56q-139 -164 -324 -301z
M275 548v-646h-78v513q-50 -77 -105 -147l-47 75q158 191 255 454l77 -27q-45 -115 -102 -222z" />
    <glyph glyph-name="uni5317" unicode="&#x5317;" 
d="M649 388v-323q0 -42 18 -60q17 -17 58 -17h32q49 0 69 17q19 16 26 64q8 59 13 136l77 -23q-7 -72 -20 -152q-11 -66 -46 -93q-36 -27 -114 -27h-56q-72 0 -105 34t-33 110v739h81v-318q128 69 238 147l47 -70q-132 -86 -285 -164zM318 85q-117 -48 -229 -87l-31 80
q154 50 260 89v297h-243v76h243v252h80v-885h-80v178z" />
    <glyph glyph-name="uni5319" unicode="&#x5319;" 
d="M695 412v-195q0 -34 12 -48t43 -14h34q33 0 47 12q16 13 20 45q7 49 12 119l65 -19q-8 -86 -18 -136q-8 -47 -35 -68t-80 -21h-65q-55 0 -80 27t-25 88v573h70v-279q92 65 177 146l47 -54q-100 -94 -224 -176zM443 616v84h-240v-84h240zM443 476v87h-240v-87h240z
M511 419h-376v339h376v-339zM198 149q38 -92 112 -126v266h-243v60h503v-60h-192v-107h173v-58h-173v-121q51 -8 111 -8h452l-11 -66h-448q-126 0 -195 31q-67 30 -106 101q-22 -79 -77 -161l-52 45q47 70 65 133t20 167l67 -5q-1 -49 -6 -91z" />
    <glyph glyph-name="uni531D" unicode="&#x531d;" 
d="M126 -69v818h793v-70h-716v-678h728v-70h-805zM615 461v-426h-75v426h-158v-328h-71v397h229v107h75v-107h237v-305q0 -51 -24 -68t-95 -17h-65l-10 68h67q34 0 45 8t11 32v213h-166z" />
    <glyph glyph-name="uni5320" unicode="&#x5320;" 
d="M139 -70v820h776v-71h-700v-678h713v-71h-789zM421 318q-4 -152 -90 -275l-65 48q50 70 67 135q16 62 16 179v170q231 4 468 33l21 -70q-238 -23 -415 -30v-109v-12h476v-69h-179v-275h-74v275h-225z" />
    <glyph glyph-name="uni5321" unicode="&#x5321;" 
d="M127 -70v820h790v-70h-714v-679h726v-71h-802zM612 176h278v-67h-631v67h278v140h-223v66h223v128h-257v66h589v-66h-257v-128h223v-66h-223v-140z" />
    <glyph glyph-name="uni5323" unicode="&#x5323;" 
d="M136 -70v820h784v-69h-708v-681h720v-70h-796zM544 184h-238v404h550v-404h-240v-149h-72v149zM785 248v110h-169v-110h169zM785 414v112h-169v-112h169zM544 248v110h-168v-110h168zM544 414v112h-168v-112h168z" />
    <glyph glyph-name="uni532A" unicode="&#x532a;" 
d="M125 -70v820h796v-67h-721v-685h729v-68h-804zM705 149v-107h-73v600h73v-83h200v-66h-200v-106h186v-65h-186v-107h214v-66h-214zM438 149h-202v66h202v107h-176v65h176v106h-191v66h191v83h73v-600h-73v107z" />
    <glyph glyph-name="uni5339" unicode="&#x5339;" 
d="M686 676v-375q0 -33 12 -46q11 -11 38 -11h36q31 0 44 11q14 11 18 42q8 47 12 117l69 -22q-12 -105 -16 -129q-8 -48 -35 -69t-84 -21h-65q-53 0 -77 25q-27 28 -27 89v389h-144q-2 -169 -5 -217q-6 -115 -43 -183q-36 -66 -132 -143l-51 63q86 65 116 119q31 55 36 156
q3 48 3 205h-189v-672h732v-74h-810v820h797v-74h-235z" />
    <glyph glyph-name="uni533A" unicode="&#x533a;" 
d="M131 -70v820h771v-74h-693v-672h707v-74h-785zM623 351q118 -110 225 -216l-65 -59q-109 114 -215 217q-118 -118 -250 -223l-57 63q124 88 252 213q-97 94 -226 212l57 51q33 -30 224 -206q100 108 182 220l67 -43q-95 -126 -194 -229z" />
    <glyph glyph-name="uni533B" unicode="&#x533b;" 
d="M126 -70v820h795v-71h-717v-677h728v-72h-806zM605 265q52 -28 275 -155l-41 -67q-161 104 -262 166q-69 -103 -273 -175l-44 67q132 43 196 88t83 109h-283v66h294v6q3 37 5 126h-153q-35 -58 -77 -107l-55 49q85 95 135 222l71 -17q-21 -49 -37 -81h424v-66h-232
q-2 -81 -6 -132h281v-66h-290q-4 -15 -11 -33z" />
    <glyph glyph-name="uni533F" unicode="&#x533f;" 
d="M112 -70v820h812v-66h-737v-688h745v-66h-820zM745 117v109h-322v-109h322zM746 529v-59h-72v59h-214v-59h-72v59h-148v58h148v64h72v-64h214v64h72v-64h156v-58h-156zM540 417h369v-58h-413q-31 -37 -74 -79h396v-217h-468v155q-55 -42 -110 -75l-26 65q113 60 199 151
h-185v58h233q25 33 49 75l70 -13q-18 -31 -40 -62z" />
    <glyph glyph-name="uni5341" unicode="&#x5341;" 
d="M543 377v-477h-86v477h-390v84h390v338h86v-338h390v-84h-390z" />
    <glyph glyph-name="uni5343" unicode="&#x5343;" 
d="M544 318v-415h-86v415h-388v80h388v250q-163 -8 -326 -15l-14 79q401 10 737 39l19 -78q-179 -12 -330 -20v-255h387v-80h-387z" />
    <glyph glyph-name="uni5347" unicode="&#x5347;" 
d="M747 328v-423h-82v423h-296q-1 -150 -51 -245q-49 -95 -183 -189l-61 62q129 83 174 172q37 74 40 200h-226v75h227v235q-90 -8 -190 -15l-12 76q295 19 473 44l17 -75q-105 -13 -208 -23v-242h296v390h82v-390h193v-75h-193z" />
    <glyph glyph-name="uni5348" unicode="&#x5348;" 
d="M566 259v-358h-82v358h-423v78h423v258h-196q-53 -103 -113 -180l-66 50q123 153 182 340l82 -14q-18 -52 -47 -118h552v-78h-312v-258h375v-78h-375z" />
    <glyph glyph-name="uni5349" unicode="&#x5349;" 
d="M755 232v-324h-78v324h-352q-7 -122 -48 -192q-43 -73 -154 -147l-58 58q103 65 140 122t42 159h-184v72h186q1 82 1 164h77q0 -111 -1 -164h351v163h78v-163h184v-72h-184zM544 571v-175h-79v175h-340v72h340v156h79v-156h336v-72h-336z" />
    <glyph glyph-name="uni534A" unicode="&#x534a;" 
d="M542 148v-247h-82v247h-395v75h395v155h-355v74h355v347h82v-347h355v-74h-355v-155h396v-75h-396zM290 509q-64 75 -161 177l56 48q53 -53 167 -171zM701 506l-55 54q72 68 163 175l61 -50q-98 -108 -169 -179z" />
    <glyph glyph-name="uni534E" unicode="&#x534e;" 
d="M601 513v-55q0 -40 17 -56q16 -15 58 -15h89q43 0 62 14q18 13 23 45q7 33 12 100l73 -23q-7 -67 -18 -114q-10 -48 -42 -69q-31 -21 -94 -21h-132q-68 0 -97 29q-28 28 -28 96v37q-75 -29 -162 -57l-29 69q94 28 191 65v233h77v-200q131 58 257 148l48 -57
q-147 -99 -305 -169zM292 634v-340h-76v257q-62 -62 -126 -112l-29 81q153 114 261 282l73 -29q-51 -77 -103 -139zM538 122v-222h-77v222h-397v74h397v107h77v-107h396v-74h-396z" />
    <glyph glyph-name="uni534F" unicode="&#x534f;" 
d="M330 178l-62 30q56 105 100 242l63 -23q-48 -138 -101 -249zM219 473v-572h-75v572h-89v75h89v253h75v-253h87v-75h-87zM818 432l35 14q50 -102 101 -213l-63 -39q-30 75 -74 181l-11 -349q-2 -62 -31 -82t-115 -20h-105l-11 75h106q48 0 64 11t17 45l14 493h-162
q-1 -45 -3 -79q-8 -215 -58 -338q-51 -124 -179 -233l-55 55q120 105 166 214q46 110 53 308q2 44 2 73h-163v72h166q2 90 3 180h76q-1 -73 -5 -180h238z" />
    <glyph glyph-name="uni5351" unicode="&#x5351;" 
d="M536 527h231v116h-231v-116zM535 466q-7 -69 -25 -114h257v114h-232zM476 288q-62 -88 -206 -153h242v115h77v-115h345v-68h-345v-169h-77v169h-447v68h148l-22 37q136 50 199 116h-237v419h222q23 58 33 97l84 -8q-9 -28 -36 -89h385v-419h-365zM462 527v116h-235v-116
h235zM461 466h-234v-114h207q23 49 27 114z" />
    <glyph glyph-name="uni5352" unicode="&#x5352;" 
d="M715 492l186 -154l-49 -57l-170 154q-44 -66 -108 -127l-56 54q110 92 153 215l77 -10q-15 -39 -33 -75zM331 495l152 -132l-54 -54q-49 49 -133 126q-54 -82 -150 -166l-54 52q145 111 195 256l76 -10q-18 -46 -32 -72zM541 133v-232h-79v232h-396v71h396v92h79v-92h395
v-71h-395zM566 680h338v-70h-801v70h375q-18 60 -38 112l87 10q20 -54 39 -122z" />
    <glyph glyph-name="uni5353" unicode="&#x5353;" 
d="M519 581h312v-374h-291v-90h400v-66h-400v-152h-79v152h-398v66h398v90h-289v374h268v221h79v-79h381v-63h-381v-79zM753 271v95h-503v-95h503zM753 422v95h-503v-95h503z" />
    <glyph glyph-name="uni5355" unicode="&#x5355;" 
d="M462 477v113h-239v-113h239zM462 304v113h-239v-113h239zM779 477v113h-240v-113h240zM779 304v113h-240v-113h240zM353 655h219q75 97 109 149l76 -27q-37 -52 -95 -122h194v-416h-317v-101h399v-69h-399v-172h-77v172h-399v69h399v101h-316v416h200q-56 67 -99 114
l66 36q69 -74 104 -115z" />
    <glyph glyph-name="uni5356" unicode="&#x5356;" 
d="M384 219q-107 35 -240 73l23 55q89 -25 242 -74zM438 327q-95 35 -232 75l23 52q104 -28 233 -69zM536 546h371v-63l-60 -147l-71 16l55 130h-747v64h376v98h-322v64h322v93h76v-93h326v-64h-326v-98zM609 198h324v-64h-347q-8 -16 -12 -23q222 -85 352 -141l-38 -65
q-168 76 -355 153q-96 -103 -425 -160l-37 72q192 32 289 70q94 37 136 94h-426v64h458q7 24 11 41q17 73 23 202h77q-4 -96 -20 -195q-5 -31 -10 -48z" />
    <glyph glyph-name="uni5357" unicode="&#x5357;" 
d="M612 316h129v-61h-203v-93h227v-62h-227v-174h-74v174h-226v62h226v93h-203v61h129q-34 51 -75 105l68 23q32 -41 89 -128h61q35 46 84 127l71 -17q-52 -78 -76 -110zM539 536h350v-531q0 -56 -26 -75t-105 -19h-119l-10 70h110q44 0 59 11t15 42v435h-621v-561h-75v628
h344v97h-396v68h396v101h78v-101h396v-68h-396v-97z" />
    <glyph glyph-name="uni535A" unicode="&#x535a;" 
d="M576 450v71h-169v-71h169zM576 328v72h-169v-72h169zM814 450v71h-167v-71h167zM814 328v72h-167v-72h167zM517 -35q-33 20 -152 85l34 55q38 -18 155 -80zM817 113v-104q0 -59 -27 -78t-109 -19h-96l-10 66h102q40 0 54 10t14 39v86h-466v60h466v48h72v-48h126v-60h-126
zM216 470v-571h-72v571h-86v69h86v262h72v-262h78v-69h-78zM846 705h83v-60h-282v-68h236v-345h-69v46h-167v-55h-71v55h-169v-63h-69v362h238v68h-275v60h275v96h71v-96h131q-5 9 -46 77l60 18q47 -83 54 -95z" />
    <glyph glyph-name="uni535C" unicode="&#x535c;" 
d="M368 -99v896h84v-896h-84zM824 222q-156 108 -351 227l46 66q181 -107 359 -221z" />
    <glyph glyph-name="uni535E" unicode="&#x535e;" 
d="M565 612h371v-78h-426v-635h-83v635h-362v78h413q-43 103 -75 172l83 18q39 -84 79 -190zM820 140q-169 117 -300 195l45 65q100 -58 301 -185z" />
    <glyph glyph-name="uni5360" unicode="&#x5360;" 
d="M763 -32h-527v-69h-79v484h281v414h82v-156h407v-74h-407v-184h322v-484h-79v69zM763 42v267h-527v-267h527z" />
    <glyph glyph-name="uni5361" unicode="&#x5361;" 
d="M831 35q-199 117 -329 183l41 63q174 -87 331 -175zM490 368v-471h-82v471h-346v75h346v359h82v-138h371v-72h-371v-149h449v-75h-449z" />
    <glyph glyph-name="uni5362" unicode="&#x5362;" 
d="M781 207h-548q-13 -180 -112 -310l-65 56q60 82 81 164q21 80 21 223v182h280v278h80v-98h412v-71h-412v-109h344v-375h-81v60zM781 278v173h-543v-113q0 -41 -1 -60h544z" />
    <glyph glyph-name="uni5364" unicode="&#x5364;" 
d="M794 -49h-589v-51h-76v636h298v266h79v-95h414v-69h-414v-102h364v-636h-76v51zM794 18v451h-589v-451h589zM563 248l176 -136l-47 -58q-33 26 -186 147q-103 -82 -219 -154l-45 64q106 57 207 134q-141 106 -186 138l47 52q71 -51 196 -144q77 64 161 152l55 -45
q-78 -81 -159 -150z" />
    <glyph glyph-name="uni5367" unicode="&#x5367;" 
d="M326 506v172h-150v-172h150zM713 452v-550h-76v891h76v-322l46 36q90 -97 186 -212l-62 -48q-87 111 -170 205zM539 196h-142v-186h167v-69h-461v806h451v-69h-157v-172h142v-310zM468 263v176h-292v-176h292zM326 10v186h-150v-186h150z" />
    <glyph glyph-name="uni536B" unicode="&#x536b;" 
d="M443 34h491v-77h-868v77h295v626h-246v77h752l-16 -376q-4 -80 -41 -106q-38 -27 -150 -27h-117l-12 82h127q66 0 89 16q22 16 24 63l10 271h-338v-626z" />
    <glyph glyph-name="uni536F" unicode="&#x536f;" 
d="M367 338v21v254h75v-250q0 -86 -11 -153q-12 -71 -45 -127q-60 -104 -238 -190l-55 58q144 67 201 134q56 65 68 173q-124 -54 -232 -94l-34 65q22 18 22 46v442q160 20 326 68l33 -71q-156 -41 -285 -59v-390q93 36 175 73zM555 -96v828h335v-553q0 -58 -27 -77
t-108 -19h-76l-11 76h82q39 0 52 9t13 37v456h-185v-757h-75z" />
    <glyph glyph-name="uni5370" unicode="&#x5370;" 
d="M191 383v-272q113 31 246 75l9 -78q-194 -63 -330 -99l-29 73q28 18 28 51v590q179 26 324 67l33 -71q-137 -37 -281 -58v-207h254v-71h-254zM514 -102v831h375v-572q0 -60 -28 -80t-112 -20h-95l-12 78h99q44 0 58 10t14 41v472h-222v-760h-77z" />
    <glyph glyph-name="uni5371" unicode="&#x5371;" 
d="M480 -90q-70 0 -101 31q-33 33 -33 106v351h471l-8 -177q-3 -61 -32 -81t-113 -20h-105l-10 65h113q43 0 58 10q14 10 16 41l4 94h-319v-265q0 -45 19 -65t64 -20h239q52 0 74 14q20 13 29 47q11 43 14 99l73 -22q-7 -60 -21 -116q-13 -49 -48 -70q-37 -22 -112 -22h-272
zM666 558h270v-67h-692v-132q0 -175 -25 -266q-25 -90 -100 -197l-63 51q69 96 92 179q22 80 22 233v144q-50 -39 -87 -64l-22 77q166 113 287 289l88 -10q-20 -30 -47 -66h386v-63zM571 558l105 107h-338q-53 -62 -104 -107h337z" />
    <glyph glyph-name="uni5373" unicode="&#x5373;" 
d="M577 -102v838h315v-596q0 -59 -28 -79t-110 -20h-61l-11 72h70q40 0 54 10t14 39v503h-171v-767h-72zM408 72q-120 -58 -282 -127l-36 63q26 23 26 58v679h361v-458h-289v-238q107 46 183 84q-30 48 -57 91l62 28q105 -158 156 -245l-64 -36q-1 2 -60 101zM406 483h-218
v-129h218v129zM406 548v130h-218v-130h218z" />
    <glyph glyph-name="uni5374" unicode="&#x5374;" 
d="M569 -101v828h328v-580q0 -63 -29 -84t-118 -21h-62l-11 72h76q43 0 57 10t14 41v491h-183v-757h-72zM437 15q-111 -8 -355 -22l-15 62q25 17 46 51q61 94 116 226h-164v71h197v163h-170v71h170v162h75v-162h162v-71h-162v-163h188v-71h-212q-73 -150 -144 -261
q121 5 238 12q-34 76 -68 153l63 25q59 -123 134 -288l-69 -26q-10 22 -30 68z" />
    <glyph glyph-name="uni5375" unicode="&#x5375;" 
d="M552 -98v828h340v-555q0 -61 -28 -81t-114 -20h-71l-11 76h82q44 0 58 10q15 11 15 42v459h-200v-759h-71zM376 312q1 18 1 57v252h71v-252q0 -89 -11 -156q-11 -71 -43 -126q-58 -104 -231 -195l-59 55q134 66 191 129q57 62 73 160q-115 -51 -247 -102l-33 63
q24 23 24 54v466q182 23 330 68l32 -68q-122 -35 -294 -60v-426q111 43 196 81zM738 309q-24 65 -87 205l57 23q65 -139 89 -203zM290 370q-47 117 -78 186l56 22q55 -125 78 -184z" />
    <glyph glyph-name="uni5377" unicode="&#x5377;" 
d="M705 620l-59 41q62 55 120 120l63 -37q-54 -58 -124 -124zM288 624q-63 70 -114 120l61 36q72 -69 117 -116zM707 278l-5 -117q-2 -55 -28 -73t-103 -18h-103l-9 59h108q38 0 51 9q12 8 14 35l3 56h-319v-174q0 -78 79 -78h273q50 0 72 14q21 14 29 47q10 37 14 80
l73 -23q-10 -58 -20 -92q-15 -50 -48 -71q-35 -22 -104 -22h-309q-132 0 -132 129v190q-60 -45 -156 -99l-37 72q177 86 272 196h-256v65h304q26 40 47 91h-306v64h329q22 71 37 185l78 -1q-20 -121 -39 -184h378v-64h-398q-20 -52 -41 -91h477v-65h-256q98 -110 268 -159
l-35 -70q-123 47 -202 109zM688 293q-54 46 -96 105h-178q-39 -56 -93 -105h367z" />
    <glyph glyph-name="uni5378" unicode="&#x5378;" 
d="M600 -98v825h303v-592q0 -55 -25 -73t-102 -18h-61l-11 72h70q36 0 47 8q12 8 12 34v500h-162v-756h-71zM240 698h295v-64h-159v-150h178v-65h-178v-124h158v-63h-158v-154l174 24l-3 -73q-270 -42 -479 -67l-11 77q35 4 69 8v301h68v-293q55 6 110 13v351h-237v65h237
v150h-99q-40 -66 -92 -128l-49 51q92 105 144 247l73 -11q-15 -40 -41 -95z" />
    <glyph glyph-name="uni537F" unicode="&#x537f;" 
d="M670 -100v830h233v-609q0 -42 -20 -56t-78 -14h-42l-10 67h44q26 0 35 6t9 25v518h-108v-767h-63zM244 284q2 52 2 84v251h60v-247q0 -97 -7 -167q-8 -70 -27 -122q-36 -100 -139 -187l-56 40q77 65 112 122q37 61 49 150q-63 -38 -120 -67l-36 52q18 27 18 59v472
q110 24 199 62l30 -65q-47 -18 -167 -51v-434q39 21 82 48zM565 67q-77 -54 -171 -112l-40 51q21 30 21 67v673h231v-459h-170v-231q55 34 106 70q-19 48 -39 96l53 19q49 -113 96 -237l-54 -22q-11 29 -33 85zM550 486h-114v-138h114v138zM550 547v138h-114v-138h114z" />
    <glyph glyph-name="uni5382" unicode="&#x5382;" 
d="M133 -94l-71 60q76 101 98 189q23 90 23 289v292h754v-82h-668v-210q0 -211 -26 -314q-26 -104 -110 -224z" />
    <glyph glyph-name="uni5384" unicode="&#x5384;" 
d="M505 -90q-80 0 -114 33t-34 111v492h473l-13 -253q-3 -62 -34 -83t-118 -21h-106l-11 72h113q49 0 65 11t18 46l7 156h-316v-408q0 -45 21 -63t71 -18h197q59 0 82 15t33 58q11 46 17 116l77 -25q-8 -72 -23 -130q-15 -61 -52 -85t-119 -24h-234zM115 -98l-63 56
q64 100 85 191t21 267v327h774v-75h-697v-256q0 -182 -23 -286q-26 -116 -97 -224z" />
    <glyph glyph-name="uni5385" unicode="&#x5385;" 
d="M680 440v-412q0 -65 -31 -87t-122 -22h-118l-11 75h122q48 0 65 12q16 12 16 46v388h-319v74h654v-74h-256zM116 -97l-63 57q60 97 80 194q20 98 20 297v290h783v-76h-704v-209q0 -217 -23 -327q-23 -113 -93 -226z" />
    <glyph glyph-name="uni5386" unicode="&#x5386;" 
d="M117 -100l-61 59q60 95 80 183t20 253v346h779v-77h-700v-265q0 -182 -22 -280q-24 -109 -96 -219zM565 466h310l-14 -417q-2 -70 -36 -93q-33 -23 -131 -23h-122l-12 78h123q58 0 78 14q19 14 21 55l11 311h-231q-11 -179 -69 -282q-59 -106 -209 -209l-57 63
q137 89 193 183q55 93 63 245h-192v75h196q2 75 3 150h80q-2 -62 -5 -150z" />
    <glyph glyph-name="uni5389" unicode="&#x5389;" 
d="M110 -100l-58 58q62 95 83 184t21 256v343h775v-73h-699v-269q0 -184 -25 -288q-26 -107 -97 -211zM510 480q-2 -71 -4 -103q-1 -15 -2 -29h351l-14 -304q-3 -68 -36 -91q-34 -23 -130 -23h-113l-11 75h119q55 0 74 13t21 52l11 207h-278q-15 -129 -60 -210
q-46 -82 -151 -168l-58 59q107 84 149 166q40 79 50 218q4 69 6 138h-161v72h658v-72h-421z" />
    <glyph glyph-name="uni538B" unicode="&#x538b;" 
d="M625 28h313v-75h-692v75h300v307h-235v75h235v193h79v-193h277v-75h-277v-307zM825 88q-33 45 -123 146l54 43q57 -59 129 -141zM123 -101l-64 57q63 96 82 180q20 87 20 273v324h772v-76h-693v-244q0 -101 -4 -174q-5 -73 -18 -130q-23 -107 -95 -210z" />
    <glyph glyph-name="uni538C" unicode="&#x538c;" 
d="M118 -98l-62 57q60 93 80 181q19 86 19 259v345h777v-77h-697v-267q0 -186 -22 -284q-24 -107 -95 -214zM828 448q-79 79 -132 127l48 46q62 -55 135 -121zM622 352q26 -129 100 -215q73 -85 218 -157l-48 -72q-130 73 -201 150q-73 79 -108 188q-61 -205 -302 -348
l-50 66q146 83 216 175q67 88 84 213h-248v72h253q3 82 3 201h79q-3 -165 -4 -201h316v-72h-308z" />
    <glyph glyph-name="uni5395" unicode="&#x5395;" 
d="M106 -100l-56 54q43 82 60 174q18 99 18 272v347h806v-66h-734v-280q0 -190 -18 -290q-20 -108 -76 -211zM273 136v464h337v-463h-60v400h-217v-401h-60zM460 149q56 -48 179 -166l-44 -55q-44 46 -156 155q-42 -95 -178 -183l-46 59q73 44 114 83t59 89q23 65 22 176
v162h63v-161q0 -95 -13 -159zM699 -87l-10 66h80q37 0 50 9q12 9 12 35v611h65v-637q0 -50 -24 -67t-94 -17h-79zM687 89v477h58v-477h-58z" />
    <glyph glyph-name="uni5398" unicode="&#x5398;" 
d="M119 -99l-62 54q53 97 70 182q18 90 18 267v346h791v-64h-717v-282q0 -194 -19 -291q-19 -99 -81 -212zM549 245h-240v365h555v-365h-243v-82h263v-61h-263v-94h318v-64h-708v64h318v94h-260v61h260v82zM794 303v96h-173v-96h173zM794 455v97h-173v-97h173zM549 303v96
h-170v-96h170zM549 455v97h-170v-97h170z" />
    <glyph glyph-name="uni539A" unicode="&#x539a;" 
d="M799 506v63h-420v-63h420zM799 396v63h-420v-63h420zM870 341h-562v284h562v-284zM113 -104l-57 53q50 97 68 190q18 94 18 265v345h794v-62h-722v-288q0 -175 -22 -285q-22 -109 -79 -218zM655 66v-68q0 -53 -25 -71t-99 -18h-116l-9 59h114q34 0 45 8t11 32v58h-341v58
h341v27l168 69h-441v54h570v-57l-218 -92v-1h284v-58h-284z" />
    <glyph glyph-name="uni539F" unicode="&#x539f;" 
d="M571 579h297v-367h-227v-213q0 -53 -24 -70t-98 -17h-99l-10 65h96q37 0 49 9t12 35v191h-249v367h176q28 87 33 103h-307v-281q0 -188 -20 -285q-21 -100 -85 -218l-60 54q54 96 72 187q18 92 18 276v333h790v-66h-326q-17 -47 -38 -103zM796 276v90h-407v-90h407z
M796 422v93h-407v-93h407zM260 -62l-47 56q105 80 192 178l54 -47q-97 -102 -199 -187zM892 -56q-58 60 -180 178l50 47q30 -27 182 -171z" />
    <glyph glyph-name="uni53A2" unicode="&#x53a2;" 
d="M109 -102l-56 54q46 98 62 191q15 90 15 260v345h803v-66h-731v-287q0 -170 -19 -274q-20 -110 -74 -223zM824 408v134h-206v-134h206zM824 218v130h-206v-130h206zM824 26v132h-206v-132h206zM824 -36h-206v-60h-68v700h342v-699h-68v59zM346 299q-40 -119 -111 -226
l-37 64q95 131 145 297h-103v64h106v148h66v-148h100v-64h-100v-72q60 -56 119 -111l-34 -52q-32 34 -85 90v-385h-66v395z" />
    </font>
</defs>
</svg>
