<?xml version="1.0" standalone="no"?>
<!DOCTYPE svg PUBLIC "-//W3C//DTD SVG 1.1//EN" "http://www.w3.org/Graphics/SVG/1.1/DTD/svg11.dtd" >
<svg xmlns="http://www.w3.org/2000/svg" xmlns:xlink="http://www.w3.org/1999/xlink" version="1.1">
<metadata>
Created by FontForge 20201107 at Mon Aug 14 11:11:55 2023
 By 
Copyright(c) Beijing Founder Electronics Co.,Ltd. 
</metadata>
<defs>
<font id="vivoSansSC500" horiz-adv-x="1000" >
  <font-face 
    font-family="vivo Sans SC 500"
    font-weight="400"
    font-stretch="normal"
    units-per-em="1000"
    panose-1="2 0 5 0 0 0 0 0 0 0"
    ascent="850"
    descent="-150"
    x-height="505"
    cap-height="709"
    bbox="-57 -287 982 816"
    underline-thickness="50"
    underline-position="-125"
    unicode-range="U+0020-9F9F"
  />
<missing-glyph 
 />
    <glyph glyph-name=".notdef" 
 />
    <glyph glyph-name=".null" horiz-adv-x="0" 
 />
    <glyph glyph-name="nonmarkingreturn" horiz-adv-x="333" 
 />
    <glyph glyph-name="space" unicode=" " horiz-adv-x="266" 
 />
    <glyph glyph-name="exclam" unicode="!" horiz-adv-x="296" 
d="M102 170l-15 539h121l-15 -539h-91zM74 27q0 31 21 54t52 23t53 -23t22 -54q0 -30 -22 -53t-53 -23q-30 0 -52 23q-21 22 -21 53z" />
    <glyph glyph-name="quotedbl" unicode="&#x22;" horiz-adv-x="404" 
d="M71 471l-14 238h110l-15 -238h-81zM235 709h110l-14 -238h-83z" />
    <glyph glyph-name="numbersign" unicode="#" horiz-adv-x="679" 
d="M113 -37l32 189h-132l16 79h132l35 203h-136l16 80h136l34 195h93l-35 -195h139l35 195h92l-35 -195h129l-15 -80h-130l-35 -203h136l-17 -79h-134l-34 -189h-91l34 189h-139l-35 -189h-91zM253 231h139l37 203h-139z" />
    <glyph glyph-name="dollar" unicode="$" horiz-adv-x="554" 
d="M232 -110v100q-120 12 -196 85l41 83q92 -82 197 -82q62 0 98 27q37 28 37 78q0 40 -29 64q-30 25 -108 51q-108 36 -155 80q-51 47 -51 120q0 74 47 125q45 48 119 63v99h81v-95q97 -5 167 -58l-37 -83q-68 55 -151 55q-57 0 -92 -26t-35 -68q0 -40 31 -66t107 -52
q112 -36 156 -77q48 -44 48 -119q-2 -88 -55 -139q-55 -53 -139 -64v-101h-81z" />
    <glyph glyph-name="percent" unicode="%" horiz-adv-x="887" 
d="M154 -36l483 746h95l-483 -746h-95zM40 530q0 86 43 138q45 54 121 54t116 -51q37 -48 37 -131q0 -87 -41 -139q-43 -55 -117 -55q-76 0 -119 53q-40 50 -40 131zM126 535q0 -107 74 -107q40 0 59 32q16 27 16 75q0 46 -16 73q-19 31 -57 31t-58 -31q-18 -28 -18 -73z
M527 135q0 86 43 138q45 54 122 54q76 0 116 -51q37 -48 37 -132q0 -86 -42 -139q-43 -54 -117 -54q-76 -1 -119 53q-40 50 -40 131zM613 139q0 -105 74 -105q39 0 58 31q16 26 16 74q0 46 -16 73q-19 32 -56 32q-38 0 -58 -32q-18 -28 -18 -73z" />
    <glyph glyph-name="ampersand" unicode="&#x26;" horiz-adv-x="869" 
d="M314 -49q-120 0 -191 59q-69 57 -69 148q0 72 42 129q47 64 137 100q-85 85 -84 166q0 76 54 123q53 46 138 46t138 -46q52 -45 52 -116q0 -120 -146 -196q124 -130 177 -193q48 57 69 133q17 62 17 146v24h97v-17q0 -215 -126 -355q52 -55 118 -55q38 0 63 15l25 -87
q-43 -24 -98 -24q-53 0 -92 19t-86 68q-101 -87 -235 -87zM165 178q0 -56 41 -90q44 -37 125 -37q91 0 159 52q-80 91 -200 224q-125 -47 -125 -149zM251 557q0 -67 79 -136q102 54 104 130q0 41 -29 66q-27 23 -66 23q-41 0 -65 -23q-23 -22 -23 -60z" />
    <glyph glyph-name="quotesingle" unicode="'" horiz-adv-x="226" 
d="M71 471l-14 238h110l-15 -238h-81z" />
    <glyph glyph-name="parenleft" unicode="(" horiz-adv-x="342" 
d="M70 261q0 276 160 483l72 -48q-130 -184 -130 -435q0 -254 131 -441l-73 -49q-160 216 -160 490z" />
    <glyph glyph-name="parenright" unicode=")" horiz-adv-x="342" 
d="M272 261q0 -273 -161 -490l-73 49q131 189 131 441t-131 435l73 48q161 -207 161 -483z" />
    <glyph glyph-name="asterisk" unicode="*" horiz-adv-x="466" 
d="M272 739l-3 -139l130 46l25 -78l-129 -38l82 -109l-63 -48l-81 113l-78 -113l-65 48l83 108l-132 39l24 78l129 -45l-3 138h81z" />
    <glyph glyph-name="plus" unicode="+" horiz-adv-x="659" 
d="M282 25v211h-209v90h209v209h94v-209h208v-90h-208v-211h-94z" />
    <glyph glyph-name="comma" unicode="," horiz-adv-x="251" 
d="M81 100l120 8l-89 -268l-82 -8z" />
    <glyph glyph-name="hyphen" unicode="-" horiz-adv-x="415" 
d="M61 222v82h293v-82h-293z" />
    <glyph glyph-name="period" unicode="." horiz-adv-x="282" 
d="M140 -47q-32 0 -53 22t-21 53q0 32 21 54q22 23 53 23t53 -23t22 -54t-22 -53t-53 -22z" />
    <glyph glyph-name="slash" unicode="/" horiz-adv-x="468" 
d="M10 -131l350 871h97l-349 -871h-98z" />
    <glyph glyph-name="zero" unicode="0" horiz-adv-x="629" 
d="M313 -49q-125 0 -192 99q-67 98 -67 279q0 192 68 293q67 100 193 100q125 0 191 -99q66 -100 66 -291q0 -183 -67 -282t-192 -99zM167 330q0 -282 147 -282q146 0 146 282q0 296 -146 296q-147 0 -147 -296z" />
    <glyph glyph-name="one" unicode="1" horiz-adv-x="477" 
d="M228 -37v623l-162 -91v109l198 105h73v-746h-109z" />
    <glyph glyph-name="two" unicode="2" horiz-adv-x="571" 
d="M498 61v-98h-446v67l157 168q103 109 143 174t40 126q0 58 -31 91q-32 35 -89 35q-89 0 -160 -81l-63 68q95 111 227 111q99 0 161 -60q60 -58 60 -152q0 -83 -44 -161q-42 -75 -154 -196l-86 -92h285z" />
    <glyph glyph-name="three" unicode="3" horiz-adv-x="574" 
d="M267 50q69 0 107 33t38 93q0 130 -181 130h-58v95h55q84 0 123 28q38 27 38 85q0 47 -28 78q-31 34 -87 34q-78 0 -158 -63l-49 78q93 81 217 81q91 0 150 -53q60 -54 60 -142q0 -59 -33 -104t-89 -59q70 -18 109 -68q38 -49 38 -117q0 -107 -76 -170q-70 -58 -181 -58
q-146 0 -226 90l53 82q70 -73 178 -73z" />
    <glyph glyph-name="four" unicode="4" horiz-adv-x="622" 
d="M371 -37v138h-336v65l357 543h82v-511h96v-97h-93v-138h-106zM164 196h210v337z" />
    <glyph glyph-name="five" unicode="5" horiz-adv-x="593" 
d="M284 50q72 0 112 41q39 40 39 111q0 72 -37 112q-37 39 -102 39q-81 0 -137 -64l-77 28l31 392h381v-97h-288l-18 -214q58 41 133 41q94 0 155 -62q63 -64 63 -172q0 -107 -70 -179q-73 -75 -193 -75q-64 0 -121 22q-60 23 -101 67l54 84q77 -74 176 -74z" />
    <glyph glyph-name="six" unicode="6" horiz-adv-x="608" 
d="M310 -49q-108 0 -178 67q-72 69 -72 176q-2 101 67 218l169 298h118l-182 -302q41 26 105 26q96 -2 160 -65q64 -64 66 -169q0 -111 -74 -181q-72 -68 -179 -68zM168 195q0 -67 39 -106t103 -39q67 0 105 39q37 38 38 106q1 74 -37 116q-37 41 -102 41q-68 0 -107 -41
q-39 -42 -39 -116z" />
    <glyph glyph-name="seven" unicode="7" horiz-adv-x="572" 
d="M526 648l-282 -685h-114l280 649h-367v97h483v-61z" />
    <glyph glyph-name="eight" unicode="8" horiz-adv-x="614" 
d="M305 -49q-116 0 -185 63q-67 61 -67 156q0 62 33 113q36 56 100 82q-51 21 -79 64t-28 98q0 84 63 139q64 56 163 56t164 -56q64 -55 64 -139q0 -55 -28 -98t-79 -64q64 -26 100 -82q33 -51 33 -113q0 -96 -66 -156q-69 -63 -188 -63zM164 176q1 -128 141 -132
q143 4 144 132q0 63 -35 99q-38 39 -109 39q-69 0 -106 -39q-35 -37 -35 -99zM186 518q0 -51 31 -82q32 -32 88 -32q57 0 90 32q32 31 32 82q0 54 -32 86t-90 32q-57 0 -88 -32t-31 -86z" />
    <glyph glyph-name="nine" unicode="9" horiz-adv-x="608" 
d="M296 722q109 0 179 -66q71 -67 71 -176q1 -103 -69 -220l-167 -297h-117l193 318q-42 -36 -115 -36q-97 0 -161 65q-66 67 -66 169q0 107 74 176q72 67 178 67zM154 479q0 -68 38 -108q37 -39 103 -39t104 39q39 40 39 108t-38 107q-37 38 -104 38q-64 0 -103 -39
t-39 -106z" />
    <glyph glyph-name="colon" unicode=":" horiz-adv-x="282" 
d="M140 -49q-31 0 -53 23q-21 22 -21 53q0 32 21 54q22 23 53 23t53 -23t22 -54q0 -30 -22 -53t-53 -23zM66 442q0 31 21 53t53 22q31 0 53 -22t22 -53t-22 -54t-53 -23t-53 23q-21 22 -21 54z" />
    <glyph glyph-name="semicolon" unicode=";" horiz-adv-x="303" 
d="M125 100l120 8l-89 -268l-82 -8zM104 442q0 31 22 53t53 22q30 0 52 -22t22 -53t-22 -54t-52 -23q-31 0 -53 23t-22 54z" />
    <glyph glyph-name="less" unicode="&#x3c;" horiz-adv-x="659" 
d="M220 283v-4l332 -170v-123l-447 250v90l447 250v-123z" />
    <glyph glyph-name="equal" unicode="=" horiz-adv-x="659" 
d="M85 349v92h487v-92h-487zM85 121v91h487v-91h-487z" />
    <glyph glyph-name="greater" unicode="&#x3e;" horiz-adv-x="659" 
d="M438 283l-333 170v123l447 -250v-90l-447 -250v123l333 170v4z" />
    <glyph glyph-name="question" unicode="?" horiz-adv-x="459" 
d="M210 -49q-30 0 -52 23q-21 22 -21 53q0 32 21 54q22 23 52 23q31 0 53 -23t22 -54q0 -30 -22 -53t-53 -23zM13 612q80 110 210 110q83 0 137 -46q55 -47 55 -120q0 -77 -79 -178q-48 -62 -63 -95q-16 -36 -16 -88v-25h-90v30q0 62 20 110q16 39 58 92q38 48 50 71
q17 31 17 61q0 42 -26 67t-69 25q-82 2 -144 -83z" />
    <glyph glyph-name="at" unicode="@" horiz-adv-x="972" 
d="M501 -166q-199 0 -319 94q-138 108 -138 319q5 204 118 323q148 151 365 152q180 0 288 -95q117 -103 117 -291q0 -132 -69 -219q-68 -85 -166 -85q-56 0 -84 29q-26 27 -22 69h-1q-21 -45 -64 -69q-41 -23 -96 -23q-78 0 -127 52q-51 54 -51 145q0 126 80 210
q74 78 172 78q54 0 89 -24q30 -21 43 -57l20 63h72l-58 -298q-11 -58 -2 -80q9 -23 43 -23q53 0 92 56q38 57 40 176q0 157 -88 234q-80 70 -232 70q-160 0 -269 -105q-115 -110 -115 -285q0 -172 112 -258q96 -74 253 -74q137 3 226 42l24 -73q-112 -53 -253 -53zM347 249
q0 -65 28 -102q29 -39 82 -39q75 0 117 79q35 66 35 152q0 57 -28 89q-25 29 -63 29q-71 0 -121 -61t-50 -147z" />
    <glyph glyph-name="A" unicode="A" horiz-adv-x="715" 
d="M131 -37h-116l280 746h127l277 -746h-120l-69 196h-310zM232 250h246q-7 22 -15 45q-65 180 -108 318q-53 -159 -107 -318q-10 -28 -16 -45z" />
    <glyph glyph-name="B" unicode="B" horiz-adv-x="649" 
d="M89 709h265q103 0 162 -46t59 -129q0 -64 -34 -109t-98 -64v-1q81 -11 124 -61q42 -48 42 -125q0 -103 -69 -157t-208 -54h-243v746zM198 52h146q82 0 119 33q34 30 34 92q0 128 -164 128h-135v-253zM198 392h122q68 0 105 32q38 33 38 90q1 110 -140 108h-125v-230z" />
    <glyph glyph-name="C" unicode="C" horiz-adv-x="656" 
d="M407 -49q-153 0 -252 94q-109 103 -110 284t108 288q107 105 283 105q102 0 187 -48l-32 -86q-73 39 -153 39q-123 -1 -200 -75q-78 -73 -81 -212q0 -145 84 -224q73 -69 187 -69q90 0 164 35l30 -83q-90 -48 -215 -48z" />
    <glyph glyph-name="D" unicode="D" horiz-adv-x="757" 
d="M89 709h211q203 0 302 -86q103 -90 103 -284q0 -196 -109 -288q-104 -88 -315 -88h-192v746zM198 57h76q161 0 234 55q86 65 86 226t-81 225q-68 54 -223 54h-92v-560z" />
    <glyph glyph-name="E" unicode="E" horiz-adv-x="582" 
d="M89 709h440v-91h-331v-230h291v-92h-291v-240h341v-93h-450v746z" />
    <glyph glyph-name="F" unicode="F" horiz-adv-x="560" 
d="M89 709h440v-92h-331v-257h290v-93h-290v-304h-109v746z" />
    <glyph glyph-name="G" unicode="G" horiz-adv-x="724" 
d="M45 330q-1 175 113 284q114 108 294 108q104 0 191 -45l-34 -88q-71 37 -156 37q-129 0 -211 -77q-85 -80 -85 -213q0 -145 95 -224q81 -67 199 -67q57 0 119 18v209h-171v89h269v-354q-86 -56 -233 -56q-166 0 -271 91q-118 102 -119 288z" />
    <glyph glyph-name="H" unicode="H" horiz-adv-x="781" 
d="M89 709h109v-319h385v319h108v-746h-108v333h-385v-333h-109v746z" />
    <glyph glyph-name="I" unicode="I" horiz-adv-x="287" 
d="M89 709h109v-746h-109v746z" />
    <glyph glyph-name="J" unicode="J" horiz-adv-x="488" 
d="M182 48q68 0 94 45q23 41 23 147v469h110v-476q0 -150 -57 -218q-54 -64 -168 -64q-99 0 -171 44l34 93q66 -40 135 -40z" />
    <glyph glyph-name="K" unicode="K" horiz-adv-x="662" 
d="M89 709h109v-353l303 353h131l-328 -370l345 -376h-148l-303 344v-344h-109v746z" />
    <glyph glyph-name="L" unicode="L" horiz-adv-x="574" 
d="M89 709h109v-650h349v-96h-458v746z" />
    <glyph glyph-name="M" unicode="M" horiz-adv-x="896" 
d="M469 178h-32l-139 192q-83 112 -103 153h-3q5 -91 5 -206v-354h-108v746h93l144 -202q61 -86 127 -190q62 97 126 192l135 200h92v-746h-109v351q0 136 4 209h-4q-37 -71 -98 -158z" />
    <glyph glyph-name="N" unicode="N" horiz-adv-x="788" 
d="M89 -37v746h89l268 -366q34 -47 145 -204h3q-5 106 -5 225v345h109v-746h-96l-214 292q-104 142 -189 267h-4q2 -84 2 -206v-353h-108z" />
    <glyph glyph-name="O" unicode="O" horiz-adv-x="808" 
d="M403 -49q-159 1 -257 101t-101 284q0 177 104 284q99 102 254 102q154 -1 255 -102q100 -101 104 -284q0 -179 -101 -284q-98 -101 -258 -101zM159 336q0 -137 69 -215q66 -74 175 -74q110 0 176 74q69 78 69 215q0 138 -69 216q-66 75 -176 75q-109 0 -175 -75
q-69 -78 -69 -216z" />
    <glyph glyph-name="P" unicode="P" horiz-adv-x="616" 
d="M320 709q131 0 199 -60q67 -59 67 -167q0 -115 -77 -180q-75 -63 -202 -63h-109v-61v-215h-109v746h231zM198 329h99q86 0 131 38t45 111q0 142 -168 142h-107v-291z" />
    <glyph glyph-name="Q" unicode="Q" horiz-adv-x="808" 
d="M403 -49q-159 1 -257 101t-101 284q0 177 104 284q99 102 254 102q154 -1 255 -102q100 -101 104 -284q0 -196 -120 -302l96 -123h-114l-60 76q-74 -36 -161 -36zM159 336q0 -137 69 -215q66 -74 175 -74q54 0 97 21l-121 153h116l81 -102q72 77 72 217q0 138 -69 216
q-66 75 -176 75q-109 0 -175 -75q-69 -78 -69 -216z" />
    <glyph glyph-name="R" unicode="R" horiz-adv-x="646" 
d="M89 709h214q147 0 213 -51q65 -51 65 -164q0 -154 -131 -207l173 -324h-126l-152 301q-30 -2 -47 -2h-100v-299h-109v746zM198 348h95q100 0 141 33q39 31 39 104q0 74 -41 106t-138 32h-96v-275z" />
    <glyph glyph-name="S" unicode="S" horiz-adv-x="604" 
d="M294 -49q-149 0 -258 94l45 93q100 -90 218 -90q70 0 109 29q41 30 41 86q0 44 -33 71q-32 27 -120 55q-118 39 -170 88q-55 52 -56 132q-1 99 73 158q69 55 177 55q122 0 208 -66l-41 -89q-78 59 -167 59q-64 0 -103 -29q-38 -28 -38 -74q0 -43 35 -73t118 -57
q123 -40 172 -85q53 -48 53 -130q0 -108 -78 -170q-72 -57 -185 -57z" />
    <glyph glyph-name="T" unicode="T" horiz-adv-x="628" 
d="M18 616v93h592v-93h-242v-653h-108v653h-242z" />
    <glyph glyph-name="U" unicode="U" horiz-adv-x="734" 
d="M369 -50q-142 0 -214 72q-77 77 -77 240v447h111v-448q0 -114 43 -164q42 -49 137 -49q96 0 138 49q43 50 43 164v448h111v-447q0 -163 -77 -240q-72 -72 -215 -72z" />
    <glyph glyph-name="V" unicode="V" horiz-adv-x="707" 
d="M571 709h123l-271 -746h-137l-274 746h125l112 -318q72 -207 106 -324h5q22 77 104 324z" />
    <glyph glyph-name="W" unicode="W" horiz-adv-x="1003" 
d="M873 709h109l-195 -746h-134l-147 616h-1l-159 -616h-130l-197 746h118l145 -626h1l158 626h125l158 -626h1z" />
    <glyph glyph-name="X" unicode="X" horiz-adv-x="666" 
d="M645 -37h-135l-184 288l-176 -288h-132l246 370l-246 376h137l180 -296l182 296h131l-252 -379z" />
    <glyph glyph-name="Y" unicode="Y" horiz-adv-x="662" 
d="M528 709h117l-262 -469v-277h-109v276l-260 470h124l120 -221q39 -72 74 -152h2q66 132 77 152z" />
    <glyph glyph-name="Z" unicode="Z" horiz-adv-x="633" 
d="M35 -37v58l407 591h-392v97h537v-57l-409 -590h413v-99h-556z" />
    <glyph glyph-name="bracketleft" unicode="[" horiz-adv-x="328" 
d="M63 -216v956h233v-91h-134v-775h134v-90h-233z" />
    <glyph glyph-name="backslash" unicode="\" horiz-adv-x="468" 
d="M457 -131h-98l-349 871h97z" />
    <glyph glyph-name="bracketright" unicode="]" horiz-adv-x="328" 
d="M264 740v-956h-233v90h134v775h-134v91h233z" />
    <glyph glyph-name="asciicircum" unicode="^" horiz-adv-x="659" 
d="M326 623l-153 -337h-103l222 436h73l223 -436h-103l-155 337h-4z" />
    <glyph glyph-name="underscore" unicode="_" horiz-adv-x="471" 
d="M-3 -204v74h476v-74h-476z" />
    <glyph glyph-name="grave" unicode="`" horiz-adv-x="225" 
d="M136 598l-136 169h105l111 -169h-80z" />
    <glyph glyph-name="a" unicode="a" horiz-adv-x="537" 
d="M389 -37l-8 92q-10 -42 -54 -72q-47 -32 -112 -32q-82 0 -133 44q-52 45 -52 121q0 90 72 138q66 44 174 44q46 0 96 -13v8q0 72 -29 107q-30 36 -94 36q-71 0 -157 -46l-31 73q96 54 196 54q107 0 163 -62t55 -177v-315h-86zM133 130q-1 -45 27 -69t79 -24q57 0 94 31
q40 34 40 92v55q-38 13 -93 13q-65 0 -104 -24q-42 -26 -43 -74z" />
    <glyph glyph-name="b" unicode="b" horiz-adv-x="624" 
d="M583 241q-1 -137 -72 -216q-66 -74 -174 -74q-111 2 -175 87q-2 -25 -8 -75h-84v777h104v-310q65 83 181 87q96 0 161 -72q68 -76 67 -204zM168 218q0 -83 46 -135q45 -50 113 -50t106 51q39 53 39 153q0 91 -39 145q-38 53 -104 53q-67 0 -113 -51q-48 -53 -48 -136v-30
z" />
    <glyph glyph-name="c" unicode="c" horiz-adv-x="496" 
d="M332 431q-76 0 -127 -49q-56 -54 -56 -143q0 -91 48 -144t134 -53q58 0 105 23l29 -75q-64 -39 -146 -39q-133 0 -207 77q-72 74 -72 201q0 130 83 210q81 78 206 78q81 0 140 -33l-32 -79q-49 26 -105 26z" />
    <glyph glyph-name="d" unicode="d" horiz-adv-x="629" 
d="M473 -37l-9 88q-23 -44 -71 -71q-51 -29 -112 -29q-105 0 -171 71q-71 76 -70 206q1 136 78 215q71 74 178 74q49 0 93 -22q40 -20 65 -52v297h105v-777h-86zM154 239q0 -95 40 -148q40 -54 112 -54q68 0 110 47q44 49 44 136v30q0 87 -44 138q-42 48 -108 48
q-70 0 -111 -51q-43 -53 -43 -146z" />
    <glyph glyph-name="e" unicode="e" horiz-adv-x="566" 
d="M302 435q-58 0 -98 -36q-43 -39 -55 -113h284q-1 70 -37 110q-35 39 -94 39zM40 228q0 131 74 211q73 78 191 78q98 0 161 -66q67 -70 67 -189q0 -17 -4 -49h-384q5 -82 55 -129q49 -47 131 -47q79 0 142 39l31 -75q-73 -50 -188 -50q-124 0 -199 73q-77 75 -77 204z" />
    <glyph glyph-name="f" unicode="f" horiz-adv-x="332" 
d="M93 358v63h-78v84h78v43q0 99 50 153q47 51 125 51q51 0 87 -21l-18 -82q-28 16 -53 16q-44 0 -64 -29q-22 -31 -22 -104v-27h120v-84h-120v-60v-398h-105v395z" />
    <glyph glyph-name="g" unicode="g" horiz-adv-x="626" 
d="M154 254q0 -89 40 -140q41 -52 112 -52q68 0 110 45q44 47 44 129v29q0 83 -44 131q-41 45 -108 45q-70 0 -111 -48q-43 -50 -43 -139zM40 243q1 129 78 204q71 70 178 70q56 0 105 -27q45 -25 65 -62l7 76h86v-462q0 -155 -85 -232q-74 -67 -203 -68q-121 0 -210 46
l34 89q78 -44 183 -44q80 0 126 43q51 48 51 146v42q-52 -77 -174 -82q-105 0 -171 67q-71 72 -70 194z" />
    <glyph glyph-name="h" unicode="h" horiz-adv-x="616" 
d="M70 -37v777h103v-332q21 48 70 78q50 31 113 31q90 0 142 -59q53 -60 53 -167v-328h-107v290q0 92 -28 135q-28 42 -88 42q-68 0 -110 -48t-42 -129v-290h-106z" />
    <glyph glyph-name="i" unicode="i" horiz-adv-x="242" 
d="M68 -37v543h106v-543h-106zM49 674q0 29 19 48t49 19q31 0 52 -19q20 -18 20 -48t-20 -49t-52 -19q-30 0 -49 19t-19 49z" />
    <glyph glyph-name="j" unicode="j" horiz-adv-x="275" 
d="M-40 -146q38 -13 72 -13t46 20q12 19 12 75v568h107v-570q0 -95 -39 -140q-39 -46 -120 -46q-46 0 -95 15zM73 674q0 29 19 48t50 19q30 0 50 -19t20 -48q0 -30 -20 -49t-50 -19q-31 0 -50 19t-19 49z" />
    <glyph glyph-name="k" unicode="k" horiz-adv-x="532" 
d="M175 -37h-105v777h105v-480l210 245h130l-234 -255l249 -287h-139l-216 264v-264z" />
    <glyph glyph-name="l" unicode="l" horiz-adv-x="246" 
d="M175 -37h-105v777h105v-777z" />
    <glyph glyph-name="m" unicode="m" horiz-adv-x="920" 
d="M68 -37v542h93l6 -108q21 53 64 85q47 35 106 35q57 0 99 -31q43 -32 63 -90q22 53 66 85q48 36 111 36q81 0 129 -58q49 -59 49 -162v-334h-106v300q4 167 -100 166q-58 0 -95 -45q-39 -48 -39 -131v-290h-106v300q5 167 -100 166q-58 0 -95 -45q-39 -48 -39 -131v-290
h-106z" />
    <glyph glyph-name="n" unicode="n" horiz-adv-x="613" 
d="M68 -37v542h93l6 -105q21 52 71 84q52 33 115 33q91 0 142 -59q52 -60 52 -167v-328h-106v290q0 92 -28 135q-28 42 -88 42q-68 0 -109 -48q-42 -49 -42 -129v-290h-106z" />
    <glyph glyph-name="o" unicode="o" horiz-adv-x="613" 
d="M305 436q-74 0 -116 -56q-40 -54 -40 -146t40 -145q41 -55 116 -55q76 0 117 55q40 53 40 145t-40 146q-42 56 -117 56zM40 234q0 132 75 209q72 74 190 74q121 0 193 -74q74 -76 74 -209q0 -131 -75 -208q-73 -75 -192 -75t-191 75q-74 77 -74 208z" />
    <glyph glyph-name="p" unicode="p" horiz-adv-x="623" 
d="M354 517q96 0 161 -72q68 -76 67 -204q-1 -137 -71 -216q-66 -74 -174 -74q-98 1 -162 70v-266h-105v750h88l7 -85v-1q64 94 189 98zM167 218q0 -84 46 -135q45 -50 114 -50q68 0 105 51q39 53 39 153q0 91 -39 145q-38 53 -104 53q-67 0 -113 -51q-48 -53 -48 -136v-30z
" />
    <glyph glyph-name="q" unicode="q" horiz-adv-x="626" 
d="M154 239q0 -95 40 -148q40 -54 112 -54q68 0 110 47q44 49 44 136v30q0 87 -44 138q-42 48 -108 48q-70 0 -111 -51q-43 -53 -43 -146zM40 228q1 136 78 215q71 74 178 74q55 0 103 -27q44 -25 66 -63l5 78h89v-750h-107v278q-52 -76 -171 -82q-105 0 -171 71
q-71 76 -70 206z" />
    <glyph glyph-name="r" unicode="r" horiz-adv-x="389" 
d="M356 402q-24 8 -47 8q-58 0 -96 -54q-39 -55 -39 -138v-255h-106v542h93l7 -122v-1q18 65 65 102q42 33 89 33q31 0 53 -10z" />
    <glyph glyph-name="s" unicode="s" horiz-adv-x="467" 
d="M233 -49q-120 0 -199 60l33 82q80 -59 169 -59q91 3 91 68q0 31 -24 52q-25 22 -87 42q-78 26 -117 61q-46 41 -46 100q0 72 55 116t145 44q93 0 161 -49l-32 -79q-60 46 -130 46q-42 0 -67 -17q-27 -18 -27 -51q0 -27 23 -45q22 -17 77 -36q92 -32 132 -72t39 -101
q-1 -74 -54 -118t-142 -44z" />
    <glyph glyph-name="t" unicode="t" horiz-adv-x="396" 
d="M95 652h104v-147h156v-85h-156v-70v-168q0 -81 20 -112q19 -30 68 -30q37 0 75 14l16 -78q-53 -25 -117 -25q-83 0 -123 49q-43 52 -43 163v257h-82v85h82v51v96z" />
    <glyph glyph-name="u" unicode="u" horiz-adv-x="600" 
d="M531 506v-543h-89l-11 98q-17 -48 -67 -79t-112 -31q-88 0 -140 59t-52 162v334h107v-298q-5 -169 115 -168q137 2 143 173v293h106z" />
    <glyph glyph-name="v" unicode="v" horiz-adv-x="560" 
d="M434 505h114l-216 -542h-110l-212 542h118l72 -201l80 -228q26 75 80 223z" />
    <glyph glyph-name="w" unicode="w" horiz-adv-x="805" 
d="M355 505h104l66 -240q26 -90 54 -206q9 49 45 205l61 240h105l-149 -541h-126l-71 259q-17 64 -38 158q-11 -64 -39 -154l-80 -263h-126l-147 542h111l57 -228q31 -125 48 -222q29 122 59 217z" />
    <glyph glyph-name="x" unicode="x" horiz-adv-x="545" 
d="M9 -37l195 267l-195 275h122l142 -210l139 210h123l-201 -279l200 -263h-126l-143 200l-132 -200h-124z" />
    <glyph glyph-name="y" unicode="y" horiz-adv-x="548" 
d="M423 505h114l-230 -591q-38 -95 -92 -137q-45 -35 -108 -35q-39 0 -76 14l20 91q33 -12 59 -12q35 0 54 19q20 20 47 82q2 3 4 7l-205 562h119l69 -200q52 -150 77 -246q28 97 78 242z" />
    <glyph glyph-name="z" unicode="z" horiz-adv-x="497" 
d="M26 -37v62l182 238q52 69 117 151h-289v91h424v-60l-175 -229q-44 -60 -123 -161h305v-92h-441z" />
    <glyph glyph-name="braceleft" unicode="{" horiz-adv-x="357" 
d="M306 -234q-85 17 -125 61q-41 45 -41 122v163q0 52 -20 77q-19 24 -61 26v85q42 2 62 27q19 26 19 79v161q0 79 41 124q40 44 125 61l20 -82q-47 -14 -67 -42t-20 -79v-156q0 -110 -77 -134v-2q77 -25 77 -134v-149q0 -59 18 -86t69 -41z" />
    <glyph glyph-name="bar" unicode="|" horiz-adv-x="266" 
d="M89 -287v1066h86v-1066h-86z" />
    <glyph glyph-name="braceright" unicode="}" horiz-adv-x="357" 
d="M31 -153q50 14 68 41q19 28 19 86v149q0 110 76 134v2q-76 24 -76 134v156q0 50 -21 79q-20 28 -66 42l18 82q87 -17 127 -61t40 -124v-161q0 -53 20 -79q19 -25 61 -27v-85q-42 -2 -61 -26q-20 -25 -20 -77v-163q0 -79 -40 -122q-40 -44 -127 -61z" />
    <glyph glyph-name="asciitilde" unicode="~" horiz-adv-x="659" 
d="M311 240q-65 28 -104 28q-60 0 -114 -52l-23 77q64 62 140 62q55 0 136 -34q64 -27 108 -27q59 0 111 51l23 -75q-50 -62 -138 -62q-66 0 -139 32z" />
    <glyph glyph-name="uni4E00" unicode="&#x4e00;" 
d="M53 317v101h893v-101h-893z" />
    <glyph glyph-name="uni4E01" unicode="&#x4e01;" 
d="M587 639v-601q0 -69 -34 -93q-33 -23 -129 -23h-164l-15 103h152q52 0 69 12t17 49v553h-420v95h872v-95h-348z" />
    <glyph glyph-name="uni4E03" unicode="&#x4e03;" 
d="M451 395v-287q0 -59 23 -82t84 -23h137q55 0 77 18q21 17 29 67q12 76 16 131l101 -34q-10 -70 -24 -148q-13 -70 -55 -99q-43 -29 -136 -29h-172q-98 0 -141 43q-42 42 -42 137v291l-277 -40l-14 94l291 43v321h103v-305l477 69l14 -95z" />
    <glyph glyph-name="uni4E07" unicode="&#x4e07;" 
d="M412 644q-5 -113 -7 -141q-1 -18 -2 -35h429l-21 -408q-2 -68 -32 -97q-38 -38 -161 -36h-152l-14 92h149q67 0 90 16t25 64l13 280h-334q-18 -159 -76 -265q-60 -109 -190 -216l-72 74q132 103 184 208t63 277q6 75 10 187h-246v89h864v-89h-520z" />
    <glyph glyph-name="uni4E08" unicode="&#x4e08;" 
d="M476 211q89 111 93 304q1 6 1 17h-496v91h499v173h99q0 -23 -2 -173h256v-91h-259q0 -14 -1 -20q-7 -225 -114 -359q136 -88 394 -136l-46 -101q-275 63 -419 165q-118 -97 -368 -183l-57 92q240 73 348 155q-106 105 -195 302l81 41q81 -182 186 -277z" />
    <glyph glyph-name="uni4E09" unicode="&#x4e09;" 
d="M120 624v97h759v-97h-759zM67 -34v97h868v-97h-868zM164 309v95h674v-95h-674z" />
    <glyph glyph-name="uni4E0A" unicode="&#x4e0a;" 
d="M510 46h429v-94h-877v94h345v751h103v-277h358v-93h-358v-381z" />
    <glyph glyph-name="uni4E0B" unicode="&#x4e0b;" 
d="M513 641v-737h-104v737h-346v94h874v-94h-424zM829 195q-141 102 -309 211l60 77q177 -111 312 -203z" />
    <glyph glyph-name="uni4E0D" unicode="&#x4e0d;" 
d="M877 137q-137 117 -292 233l62 67q138 -98 300 -221zM488 460h60v-559h-100v510q-132 -154 -337 -293l-60 85q304 193 443 438h-405v91h836v-91h-317q-58 -103 -120 -181z" />
    <glyph glyph-name="uni4E0E" unicode="&#x4e0e;" 
d="M306 672h619v-88h-627l-12 -134h593l-22 -389q-4 -85 -47 -114q-42 -28 -162 -28h-176l-14 94h174q73 0 99 18t29 69l15 263h-594l38 439h99zM56 150v89h644v-89h-644z" />
    <glyph glyph-name="uni4E11" unicode="&#x4e11;" 
d="M804 39h134v-88h-878v88h201l30 276h-169v88h179l28 258h-211v88h723zM724 403l14 258h-310l-28 -258h324zM719 315h-329l-29 -276h343z" />
    <glyph glyph-name="uni4E13" unicode="&#x4e13;" 
d="M625 43q81 -31 161 -61l-53 -90q-272 117 -549 223l44 77q149 -56 297 -112q114 87 203 159h-538v78q26 51 51 104h-184v82h223q25 57 45 106h-216v81h251q26 59 45 118l108 -4q-24 -64 -46 -114h426v-81h-462q-20 -53 -45 -106h557v-82h-595q-18 -40 -51 -102h557v-93
q-142 -115 -229 -183z" />
    <glyph glyph-name="uni4E14" unicode="&#x4e14;" 
d="M826 28h117v-85h-887v85h117v724h653v-724zM729 28v158h-459v-158h459zM729 268v157h-459v-157h459zM729 507v160h-459v-160h459z" />
    <glyph glyph-name="uni4E16" unicode="&#x4e16;" 
d="M813 490v-318h-390v318h-160v-462h660v-87h-753v549h-108v88h108v179h93v-179h160v218h92v-218h206v218h92v-218h125v-88h-125zM721 258v232h-206v-232h206z" />
    <glyph glyph-name="uni4E18" unicode="&#x4e18;" 
d="M706 44h235v-90h-882v90h135v678q333 8 631 43l28 -91q-292 -27 -564 -37v-198h608v-88h-191v-307zM611 44v307h-322v-307h322z" />
    <glyph glyph-name="uni4E19" unicode="&#x4e19;" 
d="M549 535h332v-510q0 -64 -32 -86t-120 -22h-120l-13 88h122q42 0 56 10t14 41v395h-243q-5 -49 -16 -89q89 -70 237 -201l-65 -71q-144 138 -203 191q-55 -105 -209 -213l-65 75q120 77 171 147q49 67 59 161h-242v-544h-92v628h338q2 80 2 126h-400v85h881v-85h-390
q-2 -80 -2 -126z" />
    <glyph glyph-name="uni4E1A" unicode="&#x4e1a;" 
d="M665 41h272v-91h-873v91h272v751h92v-751h144v751h93v-751zM223 208q-62 181 -140 384l82 30q80 -207 144 -383zM768 209l-83 35q76 166 152 376l84 -32q-84 -224 -153 -379z" />
    <glyph glyph-name="uni4E1B" unicode="&#x4e1b;" 
d="M350 559q83 -82 165 -164l-62 -72q-26 32 -118 130q-35 -196 -201 -371l-73 67q106 115 150 218t52 255q4 79 6 175h93q-2 -68 -4 -103v-3q-1 -22 -5 -91q-1 -15 -3 -41zM66 -57v92h870v-92h-870zM701 656q21 -186 79 -301q57 -115 165 -203l-71 -75q-86 82 -134 163
q-49 84 -74 195q-44 -198 -221 -371l-72 67q123 109 176 223q51 109 61 272q6 93 6 171h93q-3 -65 -8 -141z" />
    <glyph glyph-name="uni4E1C" unicode="&#x4e1c;" 
d="M884 -47q-132 126 -229 206l62 64q96 -75 233 -199zM115 -58l-66 69q118 100 219 220l73 -58q-124 -137 -226 -231zM580 288v-269q0 -64 -32 -86t-121 -22h-106l-14 92h104q44 0 58 10q15 11 15 42v233h-356v92q60 84 130 207h-190v88h238q37 68 64 129l104 -11
q-27 -56 -59 -118h518v-88h-568q-67 -121 -128 -211h247v158h96v-158h318v-88h-318z" />
    <glyph glyph-name="uni4E1D" unicode="&#x4e1d;" 
d="M757 501q42 54 80 109l81 -45q-145 -187 -278 -327q87 1 256 7l-6 -82q-208 -8 -373 -11l-17 77q41 21 72 55q73 77 121 138q-68 -3 -204 -5l-18 80q38 17 65 52q73 90 168 244l89 -35q-126 -178 -199 -262q52 1 163 5zM361 504q31 44 75 112l83 -43q-170 -232 -265 -336
q95 4 206 12l-4 -84q-225 -14 -331 -19l-20 79q40 18 79 58q50 51 119 143q-103 -5 -204 -6l-19 81q32 15 61 52q88 111 162 243l91 -35q-110 -163 -194 -262q53 1 161 5zM63 -55v89h874v-89h-874z" />
    <glyph glyph-name="uni4E22" unicode="&#x4e22;" 
d="M771 -35q-214 -8 -642 -22l-18 80q45 18 98 63q64 54 137 135h-286v84h393v136h-331v83h331v134q-146 -6 -328 -10l-19 83q431 8 759 30l24 -84q-151 -9 -342 -15v-138h331v-83h-331v-136h393v-84h-471q-104 -111 -194 -188q142 3 418 13q-64 66 -100 101l70 47
q147 -138 245 -239l-74 -56q-28 30 -63 66z" />
    <glyph glyph-name="uni4E24" unicode="&#x4e24;" 
d="M801 175l-53 -68q-78 92 -120 137q-38 -107 -125 -215l-67 58q74 88 106 167q32 80 39 195v5h-165q-3 -58 -11 -94q67 -59 110 -98l-49 -72q-29 29 -83 81q-32 -106 -121 -219l-63 57v-199h-88v625h222q1 44 1 124h-273v83h880v-83h-269q0 -36 -2 -124h219v-518
q0 -59 -30 -80q-29 -20 -112 -20h-105l-12 80h101q42 0 56 10t14 41v127zM801 180v274h-134q-5 -74 -15 -121q82 -80 149 -153zM421 659q0 -42 -2 -124h165q2 80 2 124h-165zM333 454h-134v-338q124 148 134 338z" />
    <glyph glyph-name="uni4E25" unicode="&#x4e25;" 
d="M659 424h274v-80h-711v-86q0 -124 -18 -197q-20 -81 -76 -166l-78 50q50 73 67 139q15 60 15 175v165h229v248h-285v81h859v-81h-276v-248zM573 424v248h-125v-248h125zM241 454q-52 74 -109 148l69 45q69 -85 111 -143zM773 450l-66 52q66 77 113 143l70 -45
q-80 -106 -117 -150z" />
    <glyph glyph-name="uni4E27" unicode="&#x4e27;" 
d="M691 406l-59 58q81 74 144 142l65 -54q-74 -77 -150 -146zM292 407q-42 50 -134 144l65 52q91 -89 139 -140zM674 113q95 -59 272 -98l-44 -90q-212 57 -323 144t-178 245h-113v-289q77 23 212 71l12 -90q-130 -47 -310 -101l-36 82q31 20 31 62v265h-137v81h393v225
h-357v81h357v104h91v-104h358v-81h-358v-225h394v-81h-439q44 -92 106 -149q133 76 209 132l60 -64q-108 -69 -200 -120z" />
    <glyph glyph-name="uni4E2A" unicode="&#x4e2a;" 
d="M448 -100v556h101v-556h-101zM461 799h81q125 -225 414 -390l-58 -89q-253 159 -396 364q-149 -213 -396 -364l-57 89q286 163 412 390z" />
    <glyph glyph-name="uni4E2B" unicode="&#x4e2b;" 
d="M448 -98v541h101v-541h-101zM365 473q-149 136 -279 243l65 73q63 -51 287 -235zM627 474l-67 76q124 96 281 239l74 -73q-170 -154 -288 -242z" />
    <glyph glyph-name="uni4E2D" unicode="&#x4e2d;" 
d="M798 214h-251v-319h-96v319h-251v-58h-94v469h345v180h96v-180h346v-466h-95v55zM798 303v233h-251v-233h251zM451 303v233h-251v-233h251z" />
    <glyph glyph-name="uni4E30" unicode="&#x4e30;" 
d="M548 111v-211h-98v211h-384v87h384v147h-300v87h300v141h-349v88h349v140h98v-140h350v-88h-350v-141h300v-87h-300v-147h385v-87h-385z" />
    <glyph glyph-name="uni4E32" unicode="&#x4e32;" 
d="M805 67h-259v-169h-93v169h-257v-42h-90v318h347v87h-306v269h306v103h93v-103h307v-269h-307v-87h349v-318h-90v42zM805 144v122h-259v-122h259zM763 507v116h-217v-116h217zM453 144v122h-257v-122h257zM453 507v116h-216v-116h216z" />
    <glyph glyph-name="uni4E34" unicode="&#x4e34;" 
d="M257 -101v901h84v-901h-84zM96 -15v721h74v-721h-74zM824 -34h-316v-64h-79v481h475v-481h-80v64zM824 44v261h-121v-261h121zM630 44v261h-122v-261h122zM590 671h352v-79h-393q-46 -83 -117 -170l-68 59q126 144 182 324l93 -15q-17 -47 -49 -119zM720 399
q-85 83 -131 125l58 52q72 -59 134 -120z" />
    <glyph glyph-name="uni4E38" unicode="&#x4e38;" 
d="M427 638h293v-568q0 -37 12 -52q11 -13 39 -13h22q33 0 47 13q12 12 17 44q8 55 13 151l83 -24q-7 -106 -19 -174q-10 -57 -40 -82q-29 -24 -91 -24h-60q-63 0 -91 32q-27 31 -27 104v503h-201q-2 -38 -3 -56q-7 -119 -19 -185q72 -36 170 -88l-44 -91q-63 36 -151 84
q-29 -85 -90 -156q-56 -66 -169 -154l-67 80q105 75 158 135q55 63 82 141q-123 67 -200 105l42 77l180 -90q9 57 14 152l2 46h-242v90h245q2 67 2 166h98q-4 -138 -5 -166z" />
    <glyph glyph-name="uni4E39" unicode="&#x4e39;" 
d="M822 276v-242q0 -67 -33 -90t-126 -23h-129l-13 89h121q50 0 67 12t17 49v205h-426q-7 -126 -35 -209q-27 -79 -93 -172l-87 56q63 80 87 143q26 69 33 182h-147v89h149v30v364h615v-394h123v-89h-123zM726 365v308h-424v-275v-33h424zM546 409q-54 68 -139 163l65 49
q115 -122 145 -156z" />
    <glyph glyph-name="uni4E3A" unicode="&#x4e3a;" 
d="M405 579q1 7 1 14q8 84 11 211h100q-6 -132 -13 -211q0 -7 -1 -14h389l-23 -517q-5 -83 -43 -110q-39 -27 -155 -27h-158l-14 93h157q69 0 93 17t26 66l16 389h-297q-23 -197 -94 -320q-79 -136 -266 -273l-70 81q171 120 244 237q68 108 89 275h-311v89h319zM272 596
q-35 43 -125 140l65 55q82 -78 132 -132zM642 167q-45 51 -147 153l63 57q120 -110 154 -144z" />
    <glyph glyph-name="uni4E3B" unicode="&#x4e3b;" 
d="M566 635h330v-90h-347v-200h308v-90h-308v-219h383v-91h-865v91h385v219h-307v90h307v200h-347v90h358q-29 91 -52 152l100 18q28 -78 55 -170z" />
    <glyph glyph-name="uni4E3D" unicode="&#x4e3d;" 
d="M108 -99v677h347v-575q0 -54 -26 -72t-101 -18h-72l-12 79h77q32 0 42 7t10 30v469h-182v-597h-83zM537 -98v676h356v-579q0 -51 -26 -69q-25 -17 -98 -17h-77l-9 72h76q30 0 41 8q10 7 10 29v476h-191v-596h-82zM62 665v84h876v-84h-876zM294 161q-38 88 -98 210l63 26
q63 -120 102 -207zM733 163q-45 100 -103 215l64 27q35 -66 105 -213z" />
    <glyph glyph-name="uni4E3E" unicode="&#x4e3e;" 
d="M490 619q-32 72 -81 164l85 23q41 -73 83 -161zM249 607q-40 66 -99 153l82 31q44 -62 99 -151zM265 329h190v126h91v-126h191v-75h-191v-109h361v-79h-361v-167h-91v167h-361v79h361v109h-192v73q-70 -61 -167 -117l-46 82q181 86 265 217h-247v79h557q68 97 137 211
l88 -41q-69 -100 -125 -170h209v-79h-248q90 -137 263 -203l-41 -84q-114 54 -187 121q-73 66 -127 166h-184q-60 -105 -145 -180z" />
    <glyph glyph-name="uni4E43" unicode="&#x4e43;" 
d="M382 657q-2 -68 -6 -152q-11 -218 -60 -342q-53 -134 -191 -264l-68 85q122 113 167 220q43 103 54 294q4 72 6 159h-185v88h715v-85l-124 -202h221l-22 -396q-2 -70 -33 -100q-40 -38 -165 -36h-165l-14 92h165q70 0 93 16q24 16 26 66l14 274h-233v83l120 200h-315z
" />
    <glyph glyph-name="uni4E45" unicode="&#x4e45;" 
d="M599 330q111 -214 348 -328l-61 -96q-226 126 -342 342q-148 -200 -424 -350l-61 90q221 111 356 260q127 141 185 325h-261q-70 -119 -167 -223l-69 71q160 166 239 381l103 -9q-26 -71 -57 -131h323v-86q-47 -141 -112 -246z" />
    <glyph glyph-name="uni4E48" unicode="&#x4e48;" 
d="M795 -16q-449 -23 -655 -32l-20 85q45 19 97 66q99 89 234 246q142 165 232 298l90 -61q-242 -317 -480 -537q222 10 444 21q-92 132 -132 188l76 47q197 -265 248 -337l-86 -56zM128 299l-69 77q111 86 215 201q96 107 170 222l89 -54q-189 -273 -405 -446z" />
    <glyph glyph-name="uni4E49" unicode="&#x4e49;" 
d="M503 548q-43 103 -102 226l82 31q28 -54 108 -222zM573 182q2 -2 11 -8q137 -102 360 -168l-55 -98q-246 86 -388 206q-137 -114 -391 -216l-55 93q237 82 373 191q-165 179 -265 512l88 33q94 -316 249 -478q170 178 238 483l96 -25q-44 -175 -104 -297
q-64 -130 -157 -228z" />
    <glyph glyph-name="uni4E4B" unicode="&#x4e4b;" 
d="M575 629h293v-94q-239 -245 -546 -430q4 -5 12 -13q39 -38 86 -52q46 -14 126 -14h397l-15 -90h-404q-101 0 -165 27q-63 26 -113 89q-25 31 -52 -1q-62 -71 -106 -130l-39 106q50 56 105 108q39 40 70 40q17 0 30 -6q269 164 483 371h-614v89h350q-25 75 -60 156l100 19
q24 -62 62 -175z" />
    <glyph glyph-name="uni4E4C" unicode="&#x4e4c;" 
d="M56 108v79h668v-79h-668zM471 710h350l-11 -171q-2 -66 -37 -90t-127 -23h-159l-12 77h158q49 0 67 12q17 11 19 46l5 69h-447v-270h628q-7 -152 -15 -304q-4 -83 -45 -111t-157 -28h-159l-13 85h165q68 0 91 16t25 64q3 69 10 198h-624v430h189q17 42 36 96l105 -9
q-19 -42 -42 -87z" />
    <glyph glyph-name="uni4E4D" unicode="&#x4e4d;" 
d="M489 122v-222h-99v680h-87q-77 -127 -184 -234l-71 70q170 168 263 390l101 -10q-31 -75 -60 -129h580v-87h-443v-139h390v-87h-390v-143h421v-89h-421z" />
    <glyph glyph-name="uni4E4E" unicode="&#x4e4e;" 
d="M295 380q-83 105 -148 177l64 57q110 -119 154 -171zM705 378l-66 58q95 109 155 187l74 -52q-112 -135 -163 -193zM554 258v-236q0 -65 -32 -87t-122 -22h-132l-13 90h121q51 0 66 11q16 11 16 48v196h-398v87h398v311q-165 -6 -337 -9l-16 84q351 6 766 29l20 -85
q-115 -7 -337 -16v-314h386v-87h-386z" />
    <glyph glyph-name="uni4E4F" unicode="&#x4e4f;" 
d="M114 639l-12 87q368 6 783 30l12 -86q-327 -19 -783 -31zM316 79q68 -65 215 -62h411l-15 -88h-411q-108 0 -165 22q-54 21 -106 81q-26 30 -50 4q-64 -69 -107 -125l-38 104q79 77 116 107q29 28 58 28q13 0 30 -10q251 108 465 242h-585v83h339q-30 71 -63 140l95 13
q25 -52 66 -153h286v-97q-236 -160 -541 -289z" />
    <glyph glyph-name="uni4E50" unicode="&#x4e50;" 
d="M567 314v-297q0 -62 -31 -83q-30 -21 -117 -21h-110l-14 93h109q40 0 53 9t13 37v262h-356l49 416q345 2 677 37l28 -89q-317 -28 -619 -34q-15 -122 -31 -243h252v187h97v-187h334v-87h-334zM128 -51l-74 62q112 112 208 255l80 -48q-107 -152 -214 -269zM866 -45
q-79 104 -209 258l70 49q135 -150 218 -250z" />
    <glyph glyph-name="uni4E52" unicode="&#x4e52;" 
d="M159 -106l-58 73q151 82 281 183l66 -61q-141 -110 -289 -195zM715 247h227v-85h-884v85h145v491q352 8 619 40l29 -87q-275 -26 -554 -35v-132h606v-85h-188v-192zM622 247v192h-325v-192h325z" />
    <glyph glyph-name="uni4E53" unicode="&#x4e53;" 
d="M713 245h228v-83h-879v83h141v493q347 6 618 39l30 -86q-272 -27 -555 -35v-133h606v-83h-189v-195zM621 245v195h-325v-195h325zM829 -105q-151 102 -280 181l56 66q126 -73 281 -172z" />
    <glyph glyph-name="uni4E54" unicode="&#x4e54;" 
d="M186 -109l-73 60q103 50 141 94q37 42 45 116q6 54 6 88h90q-3 -56 -7 -93q-10 -94 -50 -148q-43 -58 -152 -117zM708 246v-341h-89v343h85q-128 70 -192 204h-11q-41 -93 -132 -160q-97 -71 -273 -130l-42 86q144 41 230 92q81 48 121 112h-323v82h358q16 53 22 131
q-212 -6 -325 -8l-14 83q358 1 740 22l17 -82q-105 -5 -325 -13q-10 -81 -22 -133h388v-82h-319q94 -148 346 -192l-36 -91q-128 35 -204 77z" />
    <glyph glyph-name="uni4E56" unicode="&#x4e56;" 
d="M542 502v-604h-86v604h-393v77h393v92q-162 -6 -332 -9l-11 77q397 5 753 23l13 -74q-120 -6 -337 -15v-94h397v-77h-397zM720 253v-76q0 -30 12 -42q11 -11 40 -11h36q27 0 39 9t17 33q7 32 11 76l70 -23q-11 -67 -17 -96q-9 -40 -34 -58q-26 -18 -74 -18h-67
q-62 0 -88 26t-26 89v294h81v-125q95 40 167 82l43 -65q-96 -50 -210 -95zM277 123q-82 -22 -201 -49l-19 82q98 17 220 46v96h-196v73h196v85h81v-422h-81v89z" />
    <glyph glyph-name="uni4E58" unicode="&#x4e58;" 
d="M543 194v-296h-87v294q-55 -80 -137 -142q-81 -61 -217 -127l-47 81q157 65 248 138q92 73 153 181v211h-390v72h390v79q-240 -4 -332 -5l-15 70q403 2 758 19l19 -71q-100 -3 -343 -11v-81h393v-72h-393v-208q66 -119 163 -193q92 -70 239 -118l-42 -85
q-252 100 -360 264zM725 351v-40q0 -30 12 -42q11 -11 40 -11h40q30 0 42 9q11 8 17 31q5 18 10 60l61 -20q-8 -52 -14 -78q-16 -70 -100 -70h-75q-57 0 -84 27t-27 86v196h78v-82q86 25 171 61l31 -62q-98 -36 -202 -65zM272 231q-96 -24 -190 -42l-17 73q111 18 207 40v66
h-185v70h185v61h78v-314h-78v46z" />
    <glyph glyph-name="uni4E59" unicode="&#x4e59;" 
d="M301 -78q-209 0 -209 150q0 87 102 186q145 139 444 392h-514v93h667v-96q-331 -269 -524 -455q-38 -38 -54 -63q-15 -24 -15 -47q-2 -70 128 -67h318q87 0 123 24q32 21 39 72q7 50 16 156l99 -29q-13 -122 -26 -184q-15 -73 -64 -102q-50 -30 -161 -30h-369z" />
    <glyph glyph-name="uni4E5D" unicode="&#x4e5d;" 
d="M417 607h296v-539q0 -36 12 -49t41 -13h24q29 0 42 13t17 41q10 74 13 153l87 -24q-9 -110 -20 -175q-9 -57 -39 -81t-93 -24h-62q-65 0 -93 32t-28 107v469h-201q-2 -36 -3 -53q-8 -205 -68 -325q-61 -121 -225 -239l-66 79q150 107 203 208q52 102 59 281q2 25 3 49
h-237v90h240q4 152 4 196h99q0 -71 -5 -196z" />
    <glyph glyph-name="uni4E5E" unicode="&#x4e5e;" 
d="M328 -80q-87 1 -133 32q-41 28 -43 77q-2 64 61 118q123 100 353 239h-352v84h528v-88q-251 -144 -433 -272q-48 -36 -48 -64q2 -41 104 -41h304q78 0 110 22q29 20 36 70q5 26 11 117l96 -25q-11 -87 -21 -144q-12 -67 -57 -95q-49 -30 -157 -30h-359zM334 685h576v-87
h-636q-60 -80 -146 -162l-60 76q137 123 220 292l103 -16q-42 -78 -57 -103z" />
    <glyph glyph-name="uni4E5F" unicode="&#x4e5f;" 
d="M263 422v-314q0 -67 23 -89q21 -20 86 -20h351q63 0 88 16q23 15 31 56q10 54 15 119l91 -25q-8 -68 -23 -143q-13 -62 -55 -88q-41 -25 -128 -25h-396q-96 0 -136 39q-41 40 -41 136v315l-104 -26l-12 87l116 28v212h94v-190l195 47v247h92v-224l313 74l-15 -355
q-2 -62 -32 -82q-30 -21 -118 -21h-88l-13 85h89q43 0 58 10t16 41l10 214l-220 -54v-385h-92v363z" />
    <glyph glyph-name="uni4E60" unicode="&#x4e60;" 
d="M489 -74l-14 96h158q73 -1 99 18t26 71l16 532h-665v93h768l-20 -666q-1 -77 -36 -108q-42 -38 -172 -36h-160zM122 48l-39 102q323 113 613 224l19 -102q-321 -127 -593 -224zM473 346q-118 77 -260 164l54 74q96 -54 266 -159z" />
    <glyph glyph-name="uni4E61" unicode="&#x4e61;" 
d="M746 320q27 62 53 152l95 -24q-25 -88 -56 -159q-59 -147 -209 -238q-158 -95 -511 -156l-44 94q269 42 411 99q140 56 211 149q-260 -19 -532 -36l-22 85q62 17 97 38q124 70 253 160q-232 -10 -349 -13l-17 76q41 11 71 32q150 102 290 229l97 -42q-136 -113 -278 -212
q150 5 300 11q94 71 170 138l95 -49q-262 -210 -512 -355q129 5 387 21z" />
    <glyph glyph-name="uni4E66" unicode="&#x4e66;" 
d="M678 365l13 182h-219v-182h206zM791 631l-18 -266h135l-13 -259q-4 -68 -36 -90t-128 -22h-127l-13 85h123q53 0 70 12t19 49l7 136h-338v-377h-95v377h-315v89h315v182h-257v87h257v167h95v-167h314q-18 14 -115 86l58 64q101 -72 201 -144l-57 -71q-48 36 -82 62z" />
    <glyph glyph-name="uni4E70" unicode="&#x4e70;" 
d="M838 462l-88 23l64 181h-720v85h815v-81zM429 447q-103 65 -212 121l44 66q133 -67 213 -114zM348 289q-101 62 -218 124l43 68q100 -50 220 -120zM626 274h309v-86h-330q-8 -24 -14 -35q229 -106 334 -160l-48 -85q-210 111 -334 174q-99 -119 -421 -186l-45 92
q199 40 292 83q95 45 133 117h-436v86h466q4 21 8 67q13 121 15 280h96q-3 -174 -18 -284q-3 -32 -7 -63z" />
    <glyph glyph-name="uni4E71" unicode="&#x4e71;" 
d="M714 -87q-57 0 -84 30q-28 31 -28 96v754h90v-730q0 -34 13 -48q12 -13 39 -13h45q30 0 43 12q12 12 17 44q9 61 13 162l85 -24q-6 -89 -17 -170q-8 -60 -38 -86q-31 -27 -93 -27h-85zM411 -24h-229v-64h-86v405h157v136h-196v81h196v132q-56 -3 -165 -7l-14 82
q227 6 420 24l19 -80q-111 -10 -171 -13v-138h197v-81h-197v-136h155v-405h-86v64zM411 55v183h-229v-183h229z" />
    <glyph glyph-name="uni4E73" unicode="&#x4e73;" 
d="M457 463l-66 28q42 82 78 164l71 -27q-41 -83 -83 -165zM136 486q-33 82 -55 133l73 19q27 -66 53 -132zM291 501q-29 96 -42 138l71 13q27 -78 42 -135zM84 669l-16 81q227 4 471 23l13 -80q-292 -16 -468 -24zM736 -81q-67 0 -96 31q-30 32 -30 104v738h88v-723
q0 -34 13 -48q14 -15 46 -15h32q32 0 46 13q14 14 18 51q8 74 11 176l83 -20q-7 -109 -17 -194q-7 -62 -38 -88q-30 -25 -97 -25h-59zM362 145v-131q0 -57 -28 -77q-27 -19 -106 -19h-87l-12 81h87q35 0 47 9q11 8 11 33v96q-140 -12 -210 -17l-9 89q73 5 219 17v58l134 96
h-313v80h433v-78q-31 -25 -166 -124v-25q123 11 194 19l-5 -87q-126 -14 -189 -20z" />
    <glyph glyph-name="uni4E7E" unicode="&#x4e7e;" 
d="M305 565h129v-358h-129v-83h156v-75h-156v-148h-82v148h-165v75h165v83h-132v358h132v77h-158v75h158v85h82v-85h154v-75h-154v-77zM361 274v84h-197v-84h197zM361 417v81h-197v-81h197zM635 684h302v-85h-343q-27 -56 -83 -148l-69 57q92 134 141 293l95 -9
q-15 -43 -43 -108zM606 -80q-51 0 -81 31q-28 29 -30 76q-2 55 34 104q83 115 217 254h-218v83h337v-86q-143 -137 -259 -285q-20 -30 -18 -55q2 -39 51 -39h131q41 0 60 19q19 18 24 61q9 69 12 122l80 -26q-9 -91 -16 -140q-9 -60 -42 -89q-34 -30 -98 -30h-184z" />
    <glyph glyph-name="uni4E86" unicode="&#x4e86;" 
d="M258 -78l-14 93h142q49 0 66 12q16 12 16 47v375l297 207h-674v88h805v-104l-328 -234v-369q0 -68 -34 -92q-33 -23 -127 -23h-149z" />
    <glyph glyph-name="uni4E88" unicode="&#x4e88;" 
d="M589 417h324v-86l-80 -205l-93 33l68 172h-253v-303q0 -67 -33 -90t-126 -23h-138l-13 89h125q52 0 70 13t18 50v264h-386v86h379q-101 80 -202 161l57 63q90 -70 174 -138q218 151 234 162h-569v86h701v-100q-169 -118 -296 -203q13 -11 39 -31z" />
    <glyph glyph-name="uni4E89" unicode="&#x4e89;" 
d="M757 388v98h-226v-98h226zM757 212v99h-226v-99h226zM373 729h368v-67l-98 -101h201v-173h102v-77h-102v-230h-87v56h-226v-117q0 -64 -32 -86q-30 -21 -119 -21h-121l-12 84h115q46 0 61 11t15 44v85h-304v75h304v99h-382v77h382v98h-259v50q-36 -29 -66 -50l-52 67
q163 116 261 256l102 -11q-32 -46 -51 -69zM309 655q-43 -45 -99 -94h323l86 94h-310z" />
    <glyph glyph-name="uni4E8B" unicode="&#x4e8b;" 
d="M862 191v-173h-87v49h-230v-52q0 -60 -30 -81t-114 -21h-120l-11 72h113q39 0 55 9q16 10 17 37v36h-345v59h345v65h-397v61h397v64h-340v58h340v57h-299v177h299v56h-394v65h394v76h90v-76h392v-65h-392v-56h299v-177h-299v-57h317v-122h81v-61h-81zM775 126v65h-230
v-65h230zM775 252v64h-230v-64h230zM759 486v67h-214v-67h214zM455 486v67h-213v-67h213z" />
    <glyph glyph-name="uni4E8C" unicode="&#x4e8c;" 
d="M138 593v100h724v-100h-724zM72 -6v99h855v-99h-855z" />
    <glyph glyph-name="uni4E8E" unicode="&#x4e8e;" 
d="M566 332v-305q0 -66 -33 -89q-32 -22 -124 -22h-148l-14 95h141q47 0 62 11q16 12 16 45v265h-404v93h404v226h-333v92h738v-92h-305v-226h372v-93h-372z" />
    <glyph glyph-name="uni4E8F" unicode="&#x4e8f;" 
d="M334 438l-38 -135h544l-20 -238q-5 -74 -40 -105q-43 -38 -172 -36h-194l-14 94h203q65 0 89 16t28 62l13 120h-541v77l42 145h-176v86h885v-86h-609zM142 655v88h723v-88h-723z" />
    <glyph glyph-name="uni4E91" unicode="&#x4e91;" 
d="M142 649v93h714v-93h-714zM776 -6q-436 -18 -653 -26l-20 87q49 26 88 72q91 96 181 244h-309v91h875v-91h-443q-122 -182 -235 -306q300 10 450 16q-47 62 -128 167l75 48q151 -184 256 -319l-83 -58q-27 37 -54 75z" />
    <glyph glyph-name="uni4E92" unicode="&#x4e92;" 
d="M784 37h153v-87h-874v87h625l8 138h-523l64 479h-142v87h810v-87h-571l-18 -130h496zM701 258l11 182h-408l-25 -182h422z" />
    <glyph glyph-name="uni4E94" unicode="&#x4e94;" 
d="M806 33h139v-89h-888v89h197l55 314h-197v88h212l38 220h-269v89h814v-89h-444l-38 -220h381v-402zM709 33v314h-300l-54 -314h354z" />
    <glyph glyph-name="uni4E95" unicode="&#x4e95;" 
d="M744 229v-323h-96v323h-279q-9 -117 -52 -190q-42 -71 -146 -147l-78 63q94 65 133 126q39 60 45 148h-214v89h218v5v205h-188v88h188v186h96v-186h277v186h96v-186h173v-88h-173v-210h202v-89h-202zM648 318v210h-277v-202v-8h277z" />
    <glyph glyph-name="uni4E9A" unicode="&#x4e9a;" 
d="M663 39h274v-88h-874v88h273v618h-249v88h827v-88h-251v-618zM571 39v618h-143v-618h143zM224 161q-63 171 -140 359l76 30q74 -170 146 -354zM762 161l-76 36q82 168 155 353l81 -33q-87 -206 -160 -356z" />
    <glyph glyph-name="uni4E9B" unicode="&#x4e9b;" 
d="M73 -60v85h853v-85h-853zM152 132v82h694v-82h-694zM400 410q37 5 136 20v-85q-244 -39 -466 -68l-15 90q38 4 75 9v342h84v-333l102 14v405h84v-157h130v-76h-130v-161zM662 515v-78q0 -36 12 -48t45 -12h69q32 0 47 12q14 11 18 39q6 38 10 97l81 -28q-12 -89 -17 -114
q-10 -46 -41 -67t-87 -21h-112q-60 0 -86 29t-26 96v384h87v-196q121 61 208 123l48 -75q-105 -68 -256 -141z" />
    <glyph glyph-name="uni4EA1" unicode="&#x4ea1;" 
d="M604 618h334v-93h-658v-480h608v-93h-707v573h-122v93h438q-36 90 -68 161l98 27q33 -76 77 -188z" />
    <glyph glyph-name="uni4EA2" unicode="&#x4ea2;" 
d="M122 -100l-60 82q62 35 97 66q37 32 58 72q36 68 36 216v122h449v-398q0 -33 13 -47q12 -13 40 -13h33q47 -1 55 53q9 54 12 109l89 -26q-3 -28 -19 -125q-8 -51 -39 -76q-32 -26 -91 -26h-74q-59 0 -87 30q-29 31 -29 97v332h-255v-61q2 -149 -46 -238
q-47 -89 -182 -169zM576 671h350v-90h-850v90h393q-35 85 -50 119l102 18q25 -60 55 -137z" />
    <glyph glyph-name="uni4EA4" unicode="&#x4ea4;" 
d="M575 678h352v-89h-855v89h394q-20 58 -44 110l103 17q42 -105 50 -127zM578 128q129 -85 362 -131l-47 -95q-251 59 -392 162q-135 -97 -399 -167l-42 94q247 61 363 137q-79 78 -155 211l84 43q73 -126 149 -195q80 75 138 201l89 -43q-70 -135 -150 -217zM124 285
l-54 82q152 84 286 199l65 -69q-140 -116 -297 -212zM873 298q-115 84 -289 199l58 70q133 -82 288 -186z" />
    <glyph glyph-name="uni4EA5" unicode="&#x4ea5;" 
d="M651 142q39 -22 258 -154l-51 -81q-138 93 -280 179q-161 -111 -413 -193l-52 82q248 72 402 174q149 98 278 270l72 -48q-104 -137 -214 -229zM563 432q56 59 100 126l75 -44q-117 -160 -258 -258q-140 -97 -366 -176l-47 83q264 79 410 191q-228 -10 -333 -14l-17 70
q46 14 73 37q68 58 151 152h-276v82h397q-26 81 -41 117l99 14q30 -87 43 -131h351v-82h-456q-95 -100 -177 -175q88 2 272 8z" />
    <glyph glyph-name="uni4EA6" unicode="&#x4ea6;" 
d="M125 155l-78 43q68 116 125 262l82 -32q-67 -163 -129 -273zM683 565v-541q0 -60 -30 -81q-29 -20 -112 -20h-108l-14 90h102q41 0 55 10t14 39v503h-156q-1 -56 -5 -160q-4 -185 -58 -294q-55 -110 -203 -218l-73 70q138 93 188 189q51 96 54 254q4 98 5 159h-268v89
h402q-28 83 -49 136l101 16q28 -76 50 -152h357v-89h-252zM869 145q-77 150 -148 274l76 39q57 -94 151 -264z" />
    <glyph glyph-name="uni4EA7" unicode="&#x4ea7;" 
d="M589 699h349v-85h-852v85h398q-10 30 -36 95l105 11q20 -52 36 -106zM364 423h214q72 112 108 175l88 -39q-40 -62 -95 -136h237v-84h-674v-71q0 -122 -22 -198q-24 -82 -89 -174l-80 57q58 76 79 145q20 66 20 176v149h211q-63 88 -100 134l76 46q67 -84 103 -134z" />
    <glyph glyph-name="uni4EA8" unicode="&#x4ea8;" 
d="M296 -93l-12 80h127q38 0 51 9t13 36v108l224 69h-601v75h772v-83l-301 -103v-96q0 -57 -28 -76t-108 -19h-137zM572 711h362v-77h-869v77h402q-14 37 -36 84l102 14q24 -58 39 -98zM822 350h-646v217h646v-217zM734 418v81h-469v-81h469z" />
    <glyph glyph-name="uni4EA9" unicode="&#x4ea9;" 
d="M770 -36h-539v-61h-92v600h723v-600h-92v61zM770 46v150h-225v-150h225zM770 273v148h-225v-148h225zM457 46v150h-226v-150h226zM457 273v148h-226v-148h226zM571 684h365v-85h-873v85h405q-24 72 -38 107l99 16q19 -48 42 -123z" />
    <glyph glyph-name="uni4EAB" unicode="&#x4eab;" 
d="M732 439v74h-469v-74h469zM819 375h-644v204h644v-204zM566 713h369v-73h-870v73h397q-7 22 -32 83l103 10q19 -48 33 -93zM574 152h368v-72h-377v-78q0 -57 -27 -76t-106 -19h-136l-11 74h126q37 0 48 8q12 8 12 35v56h-415v72h415v28l205 66h-538v68h702v-69z" />
    <glyph glyph-name="uni4EAC" unicode="&#x4eac;" 
d="M105 -54l-51 77q142 75 246 158l56 -65q-108 -82 -251 -170zM887 -46q-126 83 -246 153l51 69q114 -64 244 -143zM572 688h365v-82h-872v82h403q-20 53 -40 107l102 16q28 -78 42 -123zM470 226h-303v294h670v-294h-272v-216q0 -59 -30 -80q-29 -20 -111 -20h-94l-13 84
h91q37 0 49 9q13 9 13 36v187zM744 307v132h-484v-132h484z" />
    <glyph glyph-name="uni4EAD" unicode="&#x4ead;" 
d="M722 459v68h-444v-68h444zM811 397h-622v192h622v-192zM571 119v-114q0 -56 -27 -75t-105 -19h-127l-10 74h114q38 0 49 8q12 9 12 36v90h-293v70h632v-70h-245zM77 168v169h848v-169h-87v96h-675v-96h-86zM561 723h372v-73h-866v73h390q-22 63 -26 74l103 9
q7 -19 27 -83z" />
    <glyph glyph-name="uni4EAE" unicode="&#x4eae;" 
d="M803 394h-607v194h607v-194zM715 455v72h-431v-72h431zM81 177v157h838v-157h-86v86h-666v-86h-86zM109 -105l-49 76q170 31 204 84q22 33 21 85v58h399v-165q0 -28 11 -40t40 -12h52q31 0 45 11q13 10 18 35q6 31 11 87l82 -22q-9 -71 -16 -102q-9 -43 -38 -62t-88 -19
h-100q-57 0 -82 24t-25 78v117h-221l-2 -24q-5 -86 -59 -130q-57 -47 -203 -79zM562 720h370v-71h-865v71h392q-14 38 -28 77l104 11q6 -18 27 -88z" />
    <glyph glyph-name="uni4EB2" unicode="&#x4eb2;" 
d="M686 470h254v-80h-384v-109h347v-78h-347v-187q0 -62 -31 -84q-30 -21 -117 -21h-93l-12 84h94q38 0 52 10q13 9 13 37v161h-365v78h365v109h-401v80h258q-58 92 -73 114l85 27q48 -68 90 -141h160q53 73 93 141l88 -27q-14 -22 -76 -114zM566 702h331v-80h-794v80h361
q-14 45 -33 96l100 12q18 -50 35 -108zM874 -52q-118 82 -241 161l52 66q99 -61 241 -153zM118 -56l-50 76q122 73 231 162l59 -61q-128 -105 -240 -177z" />
    <glyph glyph-name="uni4EBA" unicode="&#x4eba;" 
d="M541 678q16 -255 111 -408t291 -261l-70 -92q-159 102 -246 218q-89 118 -125 281q-34 -161 -121 -276q-88 -116 -263 -233l-61 88q202 125 289 268q78 129 94 331q7 92 7 201h99q-1 -35 -5 -117z" />
    <glyph glyph-name="uni4EBF" unicode="&#x4ebf;" 
d="M531 -81q-91 0 -139 34t-48 97q0 77 65 170q45 64 155 201q117 146 184 220h-352v88h475v-93q-77 -82 -208 -242q-122 -149 -173 -220q-45 -64 -45 -106q0 -32 24 -47q25 -15 82 -15h177q62 0 87 22q25 21 31 78q9 87 11 135l92 -25q-16 -160 -17 -163q-11 -69 -53 -101
q-43 -33 -130 -33h-218zM268 579v-678h-91v506q-42 -73 -94 -145l-46 95q142 191 220 446l92 -25q-30 -88 -81 -199z" />
    <glyph glyph-name="uni4EC0" unicode="&#x4ec0;" 
d="M702 387v-486h-97v486h-257v94h257v318h97v-318h245v-94h-245zM281 567v-664h-91v501q-43 -69 -103 -142l-48 84q152 204 234 453l95 -25q-39 -110 -87 -207z" />
    <glyph glyph-name="uni4EC1" unicode="&#x4ec1;" 
d="M275 578v-680h-92v508q-40 -68 -96 -146l-48 94q147 200 227 449l92 -26q-36 -104 -83 -199zM398 594v95h505v-95h-505zM352 -27v94h592v-94h-592z" />
    <glyph glyph-name="uni4EC5" unicode="&#x4ec5;" 
d="M687 173q89 -86 263 -178l-56 -87q-176 104 -270 196q-109 -108 -281 -206l-56 86q171 90 273 190q-121 150 -180 418l82 26q55 -242 160 -374q120 151 170 402h-438v86h536v-81q-36 -161 -81 -269q-49 -117 -122 -209zM258 575v-673h-90v501q-45 -73 -85 -128l-43 93
q135 191 209 435l88 -25q-36 -110 -79 -203z" />
    <glyph glyph-name="uni4EC6" unicode="&#x4ec6;" 
d="M534 -99v898h95v-898h-95zM878 237q-178 183 -249 249l65 60q56 -52 252 -241zM283 578v-676h-91v512q-53 -84 -104 -147l-46 86q147 204 229 447l94 -25q-34 -96 -82 -197z" />
    <glyph glyph-name="uni4EC7" unicode="&#x4ec7;" 
d="M251 571v-669h-89v489q-39 -69 -78 -125l-41 92q123 202 189 439l93 -26q-36 -114 -74 -200zM547 613h230v-569q0 -23 9 -33q8 -9 28 -9h11q19 0 26 9t11 35q10 66 12 160l80 -23q-9 -122 -17 -176q-8 -52 -33 -75q-26 -23 -77 -23h-36q-55 0 -80 27q-26 28 -26 89v501
h-140q0 -15 -1 -30q-6 -227 -47 -346q-42 -124 -161 -248l-63 80q101 105 138 212q37 108 43 304q1 14 1 28h-129v87h131q2 142 2 187h92q0 -45 -4 -187z" />
    <glyph glyph-name="uni4ECA" unicode="&#x4eca;" 
d="M467 801h78q131 -200 419 -349l-41 -89q-268 149 -417 331q-152 -183 -417 -331l-41 89q288 148 419 349zM516 333q-40 58 -117 156l68 50q50 -56 124 -151zM556 -108l-79 52q91 103 225 271h-552v88h672v-86q-117 -150 -266 -325z" />
    <glyph glyph-name="uni4ECB" unicode="&#x4ecb;" 
d="M190 -107l-73 71q95 68 130 140q36 72 36 196v119h95q0 -78 -1 -117q-1 -146 -41 -236q-40 -91 -146 -173zM617 -96v516h95v-516h-95zM463 799h81q127 -219 412 -378l-56 -87q-252 152 -397 350q-147 -201 -396 -350l-56 87q285 159 412 378z" />
    <glyph glyph-name="uni4ECD" unicode="&#x4ecd;" 
d="M254 586v-684h-90v499q-35 -66 -82 -134l-42 89q130 215 191 443l92 -26q-29 -94 -69 -187zM540 650q0 -55 -2 -143q-2 -226 -41 -357q-38 -130 -146 -255l-76 66q96 109 131 227q36 117 38 325q2 82 2 137h-89v88h492v-90l-95 -194h159l-14 -413q-2 -70 -35 -93
t-130 -23h-122l-13 88h119q53 0 71 13q17 12 19 50l11 294h-163v85l93 195h-209z" />
    <glyph glyph-name="uni4ECE" unicode="&#x4ece;" 
d="M688 636q18 -235 78 -378t183 -262l-65 -87q-97 104 -150 207q-54 105 -81 243q-25 -128 -82 -234q-60 -110 -171 -225l-75 73q141 135 200 269q56 128 67 325q7 115 7 227h95q-2 -78 -6 -158zM327 509q95 -102 190 -203l-61 -78q-79 95 -139 163q-30 -260 -187 -482
l-79 69q98 140 136 261q38 122 48 326q6 150 6 227h96q0 -14 -9 -260q0 -12 -1 -23z" />
    <glyph glyph-name="uni4ED1" unicode="&#x4ed1;" 
d="M218 445q-49 -33 -115 -69l-49 83q281 144 410 342h85q129 -198 410 -342l-49 -83q-257 141 -404 321q-112 -138 -288 -252zM218 445h95v-166q227 72 416 163l45 -87q-200 -82 -461 -168v-107q0 -44 21 -63q22 -20 74 -20h247q52 0 75 18q22 17 27 60q9 76 13 117l94 -26
q-8 -67 -23 -143q-12 -61 -51 -87q-41 -27 -127 -27h-280q-166 -5 -165 163v373z" />
    <glyph glyph-name="uni4ED3" unicode="&#x4ed3;" 
d="M248 469h515l-8 -223q-2 -62 -32 -83t-117 -21h-138l-13 82h130q46 0 62 11q15 11 16 44l5 107h-365v-305q0 -46 20 -66t66 -20h300q50 0 73 16q22 15 31 55q10 41 19 108l90 -30q-25 -126 -26 -129q-15 -57 -54 -81q-40 -25 -120 -25h-344q-76 0 -113 38q-36 37 -36 116
v380q-76 -46 -109 -63l-49 85q143 70 253 161q102 84 163 176h83q61 -91 163 -176q110 -91 253 -161l-49 -85q-265 143 -409 319q-99 -123 -260 -230z" />
    <glyph glyph-name="uni4ED4" unicode="&#x4ed4;" 
d="M718 305v-284q0 -61 -31 -83q-30 -21 -116 -21h-126l-13 88h120q43 0 57 10t14 41v249h-288v91h288v85l165 176h-376v88h493v-95l-187 -197v-57h229v-91h-229zM262 574v-673h-90v501q-45 -74 -83 -126l-49 89q137 198 206 438l95 -28q-32 -98 -79 -201z" />
    <glyph glyph-name="uni4ED5" unicode="&#x4ed5;" 
d="M692 42h234v-89h-566v89h237v388h-258v88h258v277h95v-277h254v-88h-254v-388zM272 573v-673h-90v507q-56 -90 -97 -147l-46 94q145 195 228 448l92 -25q-34 -97 -87 -204z" />
    <glyph glyph-name="uni4ED6" unicode="&#x4ed6;" 
d="M247 572v-671h-86v496q-38 -69 -79 -131l-43 88q129 212 193 446l91 -22q-31 -100 -76 -206zM672 489v-394h-86v369l-135 -39v-343q0 -53 19 -72q18 -18 69 -18h207q52 0 75 16q21 15 29 52q11 53 17 103l82 -30q-7 -51 -25 -125q-13 -56 -48 -78q-33 -21 -105 -21h-267
q-76 0 -108 33t-32 112v347l-69 -21l-14 87l83 23v216h87v-191l135 38v247h86v-223l228 63l-13 -364q-2 -45 -24 -61q-21 -15 -84 -15h-66l-12 77h55q31 0 41 7t10 28l7 218z" />
    <glyph glyph-name="uni4ED7" unicode="&#x4ed7;" 
d="M764 629h168v-90h-169q-2 -20 -2 -29q-3 -227 -98 -365q97 -78 281 -139l-46 -92q-187 71 -296 160q-88 -88 -260 -175l-56 85q165 78 246 156q-110 121 -161 330l83 25q49 -180 137 -283q76 114 77 307q1 10 1 20h-342v90h344q2 114 2 168h93q0 -54 -2 -168zM257 568
v-667h-90v492q-36 -62 -83 -127l-44 86q140 210 206 450l90 -26q-30 -97 -79 -208z" />
    <glyph glyph-name="uni4ED8" unicode="&#x4ed8;" 
d="M526 166q-77 110 -162 214l70 48q72 -83 168 -206zM816 512v-489q0 -65 -32 -87t-122 -22h-130l-13 89h123q48 0 64 11t16 46v452h-385v89h385v191h94v-191h121v-89h-121zM265 568v-667h-92v496q-43 -71 -87 -128l-45 91q140 198 210 443l97 -25q-33 -103 -83 -210z" />
    <glyph glyph-name="uni4ED9" unicode="&#x4ed9;" 
d="M245 573v-671h-85v497q-43 -75 -79 -127l-41 93q127 208 192 437l90 -24q-31 -99 -77 -205zM815 -34h-456v636h87v-549h139v740h89v-740h141v548h88v-692h-88v57z" />
    <glyph glyph-name="uni4EDF" unicode="&#x4edf;" 
d="M701 307v-407h-96v407h-260v91h260v240q-45 -3 -200 -13l-17 91q262 10 507 35l18 -90q-106 -9 -212 -17v-246h247v-91h-247zM270 582v-684h-92v508q-42 -70 -92 -138l-47 89q141 202 213 445l94 -25q-31 -95 -76 -195z" />
    <glyph glyph-name="uni4EE3" unicode="&#x4ee3;" 
d="M814 573q-57 55 -151 139l58 58q76 -59 156 -132zM615 419q19 -213 72 -322q42 -93 98 -93q40 0 55 60q12 47 23 130l83 -29q-15 -89 -29 -142q-16 -61 -46 -89t-79 -28q-116 0 -185 140q-61 116 -83 362l-193 -23l-11 92l197 24v2q-9 120 -16 298h92q5 -123 15 -290
l316 38l9 -91zM269 567v-666h-91v500q-39 -63 -95 -134l-44 87q142 197 221 444l93 -27q-43 -122 -84 -204z" />
    <glyph glyph-name="uni4EE4" unicode="&#x4ee4;" 
d="M466 801h79q135 -200 419 -339l-42 -87q-269 146 -416 321q-147 -175 -416 -321l-42 87q285 140 418 339zM515 368q-54 69 -118 143l68 47q63 -69 126 -137zM583 33q29 -17 110 -64l-61 -77q-169 110 -405 249l52 66q90 -50 222 -126q118 101 212 185h-564v85h690v-93
q-113 -103 -256 -225z" />
    <glyph glyph-name="uni4EE5" unicode="&#x4ee5;" 
d="M148 -43l-63 77q20 20 27 39q8 20 8 49v640h96v-636q134 95 224 165l41 -93q-181 -137 -333 -241zM759 221q75 -84 190 -225l-76 -74q-58 80 -162 212q-86 -126 -289 -238l-61 83q205 107 279 223q74 115 81 320q5 87 5 254h98q-4 -183 -8 -257q-11 -188 -57 -298z
M476 504q-63 125 -136 251l80 42q40 -63 142 -245z" />
    <glyph glyph-name="uni4EEA" unicode="&#x4eea;" 
d="M620 555q-57 150 -88 219l83 26q45 -108 90 -215zM690 172q92 -89 257 -174l-55 -91q-167 97 -265 195q-107 -106 -283 -204l-55 85q174 93 274 190q-102 133 -163 344q-11 37 -40 161l88 20q12 -71 34 -151q52 -189 144 -305q105 128 159 342q11 43 27 130l88 -19
q-19 -93 -31 -137q-59 -232 -179 -386zM260 568v-668h-89v495q-44 -75 -85 -131l-46 84q147 222 210 450l89 -27q-36 -110 -79 -203z" />
    <glyph glyph-name="uni4EEC" unicode="&#x4eec;" 
d="M478 602q-52 75 -108 150l75 47q75 -92 113 -143zM366 -93v676h95v-676h-95zM626 -87l-14 92h118q46 0 61 11q16 11 16 44v584h-208v88h304v-715q0 -62 -31 -83t-117 -21h-129zM247 580v-681h-89v494q-34 -62 -74 -123l-41 93q124 210 183 437l91 -24q-34 -109 -70 -196z
" />
    <glyph glyph-name="uni4EF0" unicode="&#x4ef0;" 
d="M597 711q-75 -35 -163 -63v-507q84 43 115 63l24 -85q-107 -60 -213 -112l-40 73q28 23 28 54v576q115 33 198 76l51 -74v7h308v-595q0 -51 -25 -69q-24 -17 -95 -17h-62l-12 81h56q32 0 42 7q11 8 11 31v481h-137v-739h-86v812zM240 574v-672h-85v485q-32 -61 -72 -121
l-40 86q114 207 177 452l89 -19q-30 -109 -69 -211z" />
    <glyph glyph-name="uni4EF2" unicode="&#x4ef2;" 
d="M581 287v243h-149v-243h149zM822 287v243h-150v-243h150zM822 203h-150v-302h-91v302h-149v-56h-85v469h234v183h91v-183h235v-468h-85v55zM245 579v-678h-86v500q-41 -75 -76 -127l-44 87q128 214 189 443l92 -22q-34 -106 -75 -203z" />
    <glyph glyph-name="uni4EF6" unicode="&#x4ef6;" 
d="M711 202v-303h-92v303h-311v90h311v212h-160q-28 -85 -60 -155l-86 33q75 150 116 356l89 -17q-16 -68 -33 -128h134v209h92v-209h209v-89h-209v-212h238v-90h-238zM253 571v-672h-89v492q-43 -75 -79 -127l-44 91q132 207 196 442l90 -24q-31 -101 -74 -202z" />
    <glyph glyph-name="uni4EF7" unicode="&#x4ef7;" 
d="M586 793h77q81 -193 295 -328l-43 -88q-191 133 -291 296q-98 -163 -290 -296l-43 88q214 135 295 328zM382 -106l-75 64q79 72 107 143q27 69 27 200v121h94v-127q0 -144 -32 -228q-32 -85 -121 -173zM701 -90v511h95v-511h-95zM255 581v-679h-90v495q-31 -58 -79 -129
l-44 91q132 213 195 442l91 -24q-34 -105 -73 -196z" />
    <glyph glyph-name="uni4EFB" unicode="&#x4efb;" 
d="M696 38h228v-89h-561v89h239v264h-264v90h264v241q-146 -10 -218 -13l-14 91q297 10 529 38l19 -89q-122 -12 -222 -20v-248h251v-90h-251v-264zM266 579v-680h-91v504q-39 -67 -89 -133l-45 86q137 200 208 445l93 -24q-29 -93 -76 -198z" />
    <glyph glyph-name="uni4EFD" unicode="&#x4efd;" 
d="M913 367q-104 86 -165 176q-62 91 -103 222l81 26q71 -212 220 -327zM390 415h447l-14 -377q-3 -69 -36 -92t-130 -23h-105l-13 85h103q52 0 70 12q19 12 20 49l10 260h-185q-6 -150 -49 -242q-45 -96 -156 -188l-67 68q100 75 140 154q39 78 42 208h-79v84
q-18 -21 -59 -62l-40 87q138 131 211 338l84 -31q-71 -190 -194 -330zM250 562v-661h-90v491q-31 -52 -75 -116l-45 91q133 195 202 431l92 -22q-35 -111 -84 -214z" />
    <glyph glyph-name="uni4EFF" unicode="&#x4eff;" 
d="M710 651h236v-85h-388q-2 -43 -4 -125v-12h327l-16 -390q-2 -68 -35 -91t-129 -23h-106l-13 89h112q47 0 64 12t18 45l12 274h-237q-8 -153 -44 -244q-37 -94 -132 -203l-79 63q97 100 130 184q32 81 37 239q1 24 3 182h-131v85h270q-22 73 -46 138l103 17
q38 -120 48 -155zM266 581v-680h-90v498q-38 -66 -87 -134l-46 85q133 200 206 451l89 -27q-32 -98 -72 -193z" />
    <glyph glyph-name="uni4F01" unicode="&#x4f01;" 
d="M467 800h82q63 -97 160 -176q100 -82 256 -160l-54 -85q-138 74 -237 153q-94 75 -166 165q-72 -90 -166 -165q-99 -79 -237 -153l-54 85q156 78 256 160q97 79 160 176zM578 31h337v-86h-834v86h129v349h92v-349h182v483h94v-187h247v-83h-247v-213z" />
    <glyph glyph-name="uni4F0A" unicode="&#x4f0a;" 
d="M783 519v150h-198q0 -75 -1 -150h199zM783 290v150h-201q0 -24 -1 -48q0 -62 -4 -102h206zM873 440v-296h-90v68h-213q-16 -102 -63 -172q-45 -68 -145 -144l-69 67q86 62 125 114q42 56 58 135h-153v78h163q3 33 5 110q0 27 1 40h-196v79h197q1 75 1 150h-137v78h516
v-228h74v-79h-74zM244 567v-663h-87v488q-32 -57 -74 -120l-44 88q127 204 192 441l91 -23q-38 -120 -78 -211z" />
    <glyph glyph-name="uni4F0D" unicode="&#x4f0d;" 
d="M772 33v313h-209l-39 -313h248zM862 33h84v-84h-650v84h136l39 313h-125v84h135l28 225h-164v84h569v-84h-312l-28 -225h288v-397zM248 588v-688h-88v497q-28 -53 -74 -125l-48 89q119 199 187 441l89 -23q-31 -101 -66 -191z" />
    <glyph glyph-name="uni4F0E" unicode="&#x4f0e;" 
d="M698 103q92 -56 248 -109l-47 -87q-177 68 -277 135q-111 -79 -284 -146l-46 86q155 58 254 121q-83 77 -160 216l75 41q72 -129 160 -203q97 82 166 214h-441v81h234v129h-247v81h247v140h92v-140h262v-81h-262v-129h215v-87q-78 -161 -189 -262zM258 574v-673h-91v496
q-39 -67 -81 -125l-45 94q137 194 206 438l88 -25q-35 -111 -77 -205z" />
    <glyph glyph-name="uni4F0F" unicode="&#x4f0f;" 
d="M835 574q-96 103 -124 131l58 53q60 -56 129 -125zM650 525h283v-87h-279q23 -147 92 -252q68 -103 198 -191l-67 -87q-107 81 -169 168q-64 90 -98 210q-52 -211 -267 -389l-62 81q131 99 195 209q62 106 77 251h-237v87h243q4 127 4 277h95q-2 -177 -8 -277zM260 565
v-663h-89v500q-42 -68 -86 -127l-43 92q138 188 213 435l93 -27q-37 -106 -88 -210z" />
    <glyph glyph-name="uni4F10" unicode="&#x4f10;" 
d="M665 160q11 -27 24 -51q49 -108 104 -108q29 0 43 46q14 47 29 145l82 -29q-12 -80 -31 -152q-30 -107 -117 -107q-111 0 -187 150q-22 44 -26 54q-80 -51 -218 -114l-52 83q135 54 241 120q-30 112 -43 261l-176 -19l-7 84l177 20v4q-7 103 -10 252h92q3 -142 9 -246
l323 35l6 -82l-323 -37q9 -122 33 -217q111 80 203 192l67 -56q-111 -133 -243 -228zM802 599q-67 58 -141 118l52 60q82 -60 144 -113zM273 569v-666h-89v498q-44 -72 -94 -137l-46 86q144 201 222 450l89 -27q-33 -98 -82 -204z" />
    <glyph glyph-name="uni4F11" unicode="&#x4f11;" 
d="M679 515q49 -137 108 -226q59 -88 161 -177l-57 -84q-156 153 -229 340v-468h-90v464q-79 -189 -237 -345l-60 83q108 99 171 192q64 94 109 221h-229v87h246v196h90v-196h259v-87h-242zM257 571v-670h-90v498q-30 -51 -82 -125l-43 93q137 196 207 437l88 -24
q-36 -112 -80 -209z" />
    <glyph glyph-name="uni4F17" unicode="&#x4f17;" 
d="M355 343q63 -52 167 -145l-55 -74q-43 44 -127 122q-35 -186 -221 -338l-69 71q108 85 156 169q48 82 59 200q8 89 10 124h91q-2 -36 -5 -72q-1 -25 -6 -57zM468 800h78q126 -192 409 -331l-50 -82q-258 135 -398 308q-142 -173 -398 -308l-50 82q283 139 409 331z
M700 397q19 -139 77 -234q57 -93 169 -174l-66 -81q-170 135 -212 308q-45 -180 -230 -320l-65 73q118 86 173 178q54 91 64 216q5 67 7 117h88q-1 -34 -5 -83z" />
    <glyph glyph-name="uni4F18" unicode="&#x4f18;" 
d="M731 -91q-61 0 -88 29q-26 28 -26 92v403h90v-382q0 -28 11 -40t38 -12h34q28 0 41 12q14 13 17 46q7 53 13 141l83 -30q-7 -90 -18 -152q-10 -57 -39 -82t-89 -25h-67zM806 590q-48 44 -144 121l56 61q104 -80 147 -116zM491 562q1 14 1 28q3 69 5 210h91
q-1 -81 -5 -211q0 -14 -1 -27h342v-86h-346q-11 -189 -60 -312q-52 -129 -177 -266l-69 71q112 117 159 229q45 108 56 278h-174v86h178zM255 562v-660h-89v496q-35 -58 -81 -122l-43 91q141 199 207 434l94 -27q-41 -115 -88 -212z" />
    <glyph glyph-name="uni4F19" unicode="&#x4f19;" 
d="M422 342q-69 149 -114 242l77 33q50 -97 118 -238zM798 343l-76 44q72 117 132 233l78 -39q-56 -106 -134 -238zM654 546q20 -197 86 -320t207 -232l-65 -88q-110 96 -168 183q-61 92 -93 214q-27 -118 -90 -212q-64 -96 -183 -194l-63 83q157 118 216 241q60 123 63 307
q5 167 5 273h93q-2 -121 -8 -255zM262 570v-669h-89v504q-41 -70 -89 -134l-43 91q147 206 213 442l93 -27q-35 -105 -85 -207z" />
    <glyph glyph-name="uni4F1A" unicode="&#x4f1a;" 
d="M751 -40q-259 -13 -587 -25l-17 79q31 13 72 49q58 50 129 143h-265v84h834v-84h-456q-83 -102 -166 -183q258 8 388 13q-60 66 -92 101l65 48q45 -45 222 -227l-72 -60q-27 31 -55 62zM269 486h472v-84h-482v78q-74 -51 -154 -93l-52 82q282 140 415 331h77
q133 -190 414 -331l-51 -82q-254 135 -402 310q-93 -112 -237 -211z" />
    <glyph glyph-name="uni4F1E" unicode="&#x4f1e;" 
d="M465 802h79q136 -188 417 -314l-51 -84q-257 126 -405 301q-147 -174 -406 -301l-50 84q282 127 416 314zM546 98v-199h-94v199h-379v87h379v371h94v-371h382v-87h-382zM312 242q-36 44 -129 147l65 56q61 -58 136 -142zM672 241l-65 63q77 71 142 144l71 -61
q-67 -69 -148 -146z" />
    <glyph glyph-name="uni4F1F" unicode="&#x4f1f;" 
d="M628 239v-339h-91v339h-240v82h240v104h-192v82h192v100h-217v81h217v115h91v-115h279v-81h-279v-100h245v-82h-245v-104h284l-11 -211q-3 -65 -34 -87t-122 -22h-65l-13 84h81q40 0 53 9t14 37l4 108h-191zM253 586v-683h-87v498q-37 -71 -81 -135l-46 90
q122 201 193 445l89 -22q-28 -94 -68 -193z" />
    <glyph glyph-name="uni4F20" unicode="&#x4f20;" 
d="M260 577v-675h-87v499q-41 -73 -87 -136l-44 84q130 193 202 451l88 -22q-35 -113 -72 -201zM712 34q65 -31 129 -61l-49 -79q-241 126 -426 211l43 72q32 -14 222 -103q73 74 145 149h-360v78q13 38 33 105h-137v80h161q15 54 30 109h-149v80h169q19 76 29 126l98 -3
q-6 -25 -31 -123h297v-80h-319q-15 -55 -31 -109h378v-80h-401q-16 -53 -32 -105h381v-84q-90 -92 -180 -183z" />
    <glyph glyph-name="uni4F24" unicode="&#x4f24;" 
d="M529 415v4q3 38 5 129h92l-6 -130v-3h284l-15 -374q-3 -69 -35 -91q-33 -23 -129 -23h-117l-13 91h117q53 0 70 12t19 50l9 251h-195q-12 -139 -63 -228q-54 -95 -190 -200l-68 68q124 91 172 168q45 72 57 192h-188v84h194zM529 682h411v-83h-458q-50 -84 -107 -155
l-67 64q110 130 176 295l94 -19q-28 -61 -49 -102zM258 573v-672h-90v488q-39 -71 -79 -126l-48 85q132 208 199 453l93 -22q-34 -110 -75 -206z" />
    <glyph glyph-name="uni4F26" unicode="&#x4f26;" 
d="M595 796h74q97 -194 299 -323l-48 -81q-187 128 -288 290q-101 -162 -288 -290l-48 81q202 129 299 323zM509 185v-114q0 -43 17 -60t60 -17h128q40 0 60 17q19 16 25 54q7 46 14 123l89 -27q-10 -86 -21 -145q-11 -55 -47 -81q-37 -26 -106 -26h-172q-72 0 -105 34
q-32 33 -32 107v393h90v-167q163 71 275 154l55 -73q-142 -94 -330 -172zM260 578v-676h-89v502q-46 -79 -85 -133l-43 93q131 194 201 438l94 -25q-36 -106 -78 -199z" />
    <glyph glyph-name="uni4F2A" unicode="&#x4f2a;" 
d="M432 584q-34 49 -94 124l63 44q48 -55 99 -120zM708 164q-71 91 -120 147l63 50q63 -73 125 -145zM522 561q1 11 1 22q2 37 9 217h94q-8 -186 -10 -216q0 -12 -1 -23h294l-16 -521q-2 -69 -34 -92q-33 -23 -129 -23h-129l-13 90h125q53 0 70 12q18 13 19 50l12 399h-206
q-18 -191 -77 -317q-57 -123 -185 -254l-69 73q118 114 170 222q53 110 69 276h-199v85h205zM252 582v-682h-89v495q-36 -66 -78 -129l-45 92q126 205 190 446l93 -23q-35 -115 -71 -199z" />
    <glyph glyph-name="uni4F2F" unicode="&#x4f2f;" 
d="M807 365v217h-335v-217h335zM807 61v221h-335v-221h335zM807 -22h-335v-75h-93v762h164q21 72 36 138l104 -9q-20 -65 -41 -129h258v-762h-93v75zM252 568v-668h-89v490q-38 -67 -77 -120l-48 86q133 200 201 448l92 -22q-32 -105 -79 -214z" />
    <glyph glyph-name="uni4F30" unicode="&#x4f30;" 
d="M796 52v222h-328v-222h328zM796 -35h-328v-65h-90v460h207v175h-261v87h261v180h93v-180h265v-87h-265v-175h208v-460h-90v65zM255 573v-672h-89v498q-34 -60 -82 -131l-47 91q132 193 211 445l88 -23q-35 -108 -81 -208z" />
    <glyph glyph-name="uni4F34" unicode="&#x4f34;" 
d="M804 496l-77 41q50 69 116 184l76 -37q-37 -68 -115 -188zM451 500q-33 59 -106 185l74 35q62 -97 108 -181zM675 143v-243h-93v243h-268v86h268v136h-237v85h237v351h93v-351h240v-85h-240v-136h269v-86h-269zM258 571v-671h-89v498q-42 -72 -84 -130l-44 94
q139 206 207 442l88 -26q-33 -105 -78 -207z" />
    <glyph glyph-name="uni4F36" unicode="&#x4f36;" 
d="M579 797h77q100 -194 300 -319l-42 -87q-190 132 -298 299q-106 -167 -295 -299l-43 87q202 126 301 319zM622 369q-45 67 -96 138l68 42q48 -58 103 -138zM679 37q37 -24 113 -74l-57 -70q-284 189 -362 238l52 64q102 -61 178 -111q49 49 166 174h-428v84h541v-86
q-93 -104 -203 -219zM253 571v-668h-88v497q-38 -67 -79 -127l-46 90q125 188 207 441l90 -22q-37 -107 -84 -211z" />
    <glyph glyph-name="uni4F38" unicode="&#x4f38;" 
d="M580 427v142h-144v-142h144zM580 213v141h-144v-141h144zM814 427v142h-146v-142h146zM814 213v141h-146v-141h146zM814 134h-146v-235h-88v235h-144v-54h-86v567h230v152h88v-152h231v-567h-85v54zM243 554v-653h-87v480q-39 -68 -73 -115l-42 88q126 200 195 449
l89 -22q-36 -122 -82 -227z" />
    <glyph glyph-name="uni4F3A" unicode="&#x4f3a;" 
d="M644 -88l-13 87h101q45 0 60 11t15 43v614h-446v83h536v-735q0 -62 -30 -83q-29 -20 -115 -20h-108zM322 485v80h429v-80h-429zM620 146v162h-178v-162h178zM703 70h-345v314h345v-314zM249 578v-678h-88v491q-36 -68 -78 -129l-42 88q123 200 185 451l92 -22
q-30 -105 -69 -201z" />
    <glyph glyph-name="uni4F3C" unicode="&#x4f3c;" 
d="M796 179q125 -137 159 -176l-60 -79q-73 92 -143 176q-64 -93 -222 -203l-60 74q171 108 233 214q64 109 68 327q4 101 4 261h88q-1 -96 -7 -264q-9 -213 -60 -330zM618 500q-56 119 -113 239l74 35q64 -122 119 -233zM384 34l-52 76q18 18 24 34q6 15 6 42v544h87v-540
q64 42 169 121l35 -84q-164 -123 -269 -193zM248 578v-677h-87v491q-39 -72 -78 -126l-42 89q126 199 188 448l88 -21q-26 -96 -69 -204z" />
    <glyph glyph-name="uni4F43" unicode="&#x4f43;" 
d="M586 392v252h-140v-252h140zM586 58v254h-140v-254h140zM811 392v252h-140v-252h140zM811 58v254h-140v-254h140zM811 -25h-365v-73h-88v826h541v-825h-88v72zM246 571v-671h-87v487q-37 -66 -73 -120l-45 89q122 203 185 447l93 -24q-30 -101 -73 -208z" />
    <glyph glyph-name="uni4F46" unicode="&#x4f46;" 
d="M245 559v-659h-88v481q-34 -60 -72 -114l-44 92q124 198 190 440l94 -24q-38 -123 -80 -216zM886 162h-506v587h506v-587zM794 245v169h-322v-169h322zM794 498v168h-322v-168h322zM309 -52v86h636v-86h-636z" />
    <glyph glyph-name="uni4F4D" unicode="&#x4f4d;" 
d="M491 94q-51 204 -106 372l87 25q33 -107 110 -370zM700 634h225v-86h-589v86h264q-31 102 -48 151l99 16q28 -89 49 -167zM726 31h219v-88h-631v88h318q78 228 144 464l95 -26q-75 -233 -145 -438zM259 576v-678h-90v497q-40 -71 -81 -127l-47 89q133 205 202 447l90 -28
q-31 -100 -74 -200z" />
    <glyph glyph-name="uni4F4E" unicode="&#x4f4e;" 
d="M633 442v6q-4 91 -6 206q-90 -8 -174 -12v-200h180zM582 54q30 -39 86 -119l-77 -44q-27 46 -78 123q-75 -41 -137 -74l-44 74q33 29 33 78v630q242 9 529 43l23 -83q-104 -12 -202 -21q2 -145 6 -215v-4h215v-82h-210q15 -203 63 -295q22 -49 44 -49q12 0 18 9t11 34
q9 48 16 123l79 -27q-10 -82 -21 -134q-12 -54 -37 -78q-23 -22 -63 -22q-80 -1 -128 107q-53 100 -71 332h-184v-286q69 37 151 88l26 -79q-24 -15 -48 -29zM252 569v-668h-85v499q-34 -60 -84 -129l-44 86q134 196 203 446l88 -24q-33 -108 -78 -210z" />
    <glyph glyph-name="uni4F4F" unicode="&#x4f4f;" 
d="M712 632h212v-87h-236v-201h212v-87h-212v-223h256v-87h-615v87h265v223h-215v87h215v201h-239v87h257q-19 71 -49 155l96 16q21 -63 53 -171zM269 575v-674h-90v503q-38 -65 -91 -138l-47 86q144 209 219 451l92 -23q-42 -116 -83 -205z" />
    <glyph glyph-name="uni4F50" unicode="&#x4f50;" 
d="M711 32h231v-84h-605v84h284v262h-157q-61 -104 -139 -201l-64 70q159 187 229 401h-164v84h189q17 57 36 154l92 -10q-14 -67 -35 -144h329v-84h-354q-35 -107 -74 -186h394v-84h-192v-262zM257 569v-668h-91v490q-43 -71 -80 -119l-44 84q132 195 204 444l89 -26
q-40 -119 -78 -205z" />
    <glyph glyph-name="uni4F51" unicode="&#x4f51;" 
d="M796 53v255h-287v-255h287zM515 391h369v-489h-88v68h-287v-68h-88v345q-49 -66 -101 -124l-47 85q153 171 232 356h-173v84h207q23 66 46 155l92 -8q-15 -59 -45 -147h309v-84h-342q-37 -92 -84 -173zM246 555v-655h-88v489q-37 -63 -73 -114l-47 91q128 187 208 435
l90 -23q-40 -115 -90 -223z" />
    <glyph glyph-name="uni4F53" unicode="&#x4f53;" 
d="M679 545q95 -242 267 -382l-43 -97q-94 98 -154 189q-61 93 -106 210v-313h145v-81h-145v-171h-86v171h-144v81h144v306q-80 -218 -252 -403l-49 95q96 90 159 184q59 89 108 211h-204v82h238v173h86v-173h264v-82h-228zM246 561v-659h-87v484q-33 -59 -75 -118l-43 87
q124 202 193 447l91 -22q-37 -121 -79 -219z" />
    <glyph glyph-name="uni4F55" unicode="&#x4f55;" 
d="M873 648v-617q0 -68 -34 -91q-33 -23 -128 -23h-124l-13 85h119q52 0 70 13q17 12 17 50v583h-433v85h597v-85h-71zM671 133h-304v399h304v-399zM591 211v243h-143v-243h143zM255 581v-678h-88v503q-37 -65 -83 -131l-47 91q130 197 203 435l88 -23q-33 -106 -73 -197z
" />
    <glyph glyph-name="uni4F59" unicode="&#x4f59;" 
d="M871 -58q-132 112 -230 184l54 65q63 -44 233 -172zM119 -66l-56 74q99 68 224 189l62 -62q-117 -114 -230 -201zM746 504v-78h-186v-111h349v-85h-349v-219q0 -63 -31 -84q-29 -20 -116 -20h-94l-13 85h92q39 0 53 10q13 10 13 38v190h-374v85h374v111h-209v74
q-75 -43 -155 -81l-50 86q286 119 420 297h72q125 -177 420 -300l-50 -86q-93 44 -166 88zM739 508q-142 88 -233 193q-95 -107 -238 -193h471z" />
    <glyph glyph-name="uni4F5B" unicode="&#x4f5b;" 
d="M464 398h-83l-14 -121h96q1 26 1 85v36zM642 475v125h-99v-125h99zM642 277v121h-99v-51q0 -35 -1 -70h100zM813 475v125h-92v-125h92zM724 677h167v-279h-167v-121h200l-7 -200q-2 -46 -23 -61q-22 -15 -87 -15h-46l-11 72h48q26 0 35 6t10 25l2 97h-121v-290h-82v290
h-106q-12 -99 -58 -168t-139 -136l-60 69q87 58 123 106q39 52 50 129h-164l26 274h150v125h-155v77h152v124h82v-124h99v124h82v-124zM230 573v-671h-81v488q-35 -68 -67 -119l-42 87q110 198 169 443l87 -16q-27 -108 -66 -212z" />
    <glyph glyph-name="uni4F5C" unicode="&#x4f5c;" 
d="M639 106v-205h-92v671h-53q-56 -120 -128 -218l-59 73q112 154 179 378l94 -19q-26 -72 -48 -128h414v-86h-307v-148h255v-84h-255v-149h283v-85h-283zM265 583v-680h-89v499q-41 -73 -88 -138l-45 84q133 202 204 456l90 -23q-30 -101 -72 -198z" />
    <glyph glyph-name="uni4F60" unicode="&#x4f60;" 
d="M392 42l-82 37q73 141 133 315l82 -27q-50 -150 -133 -325zM860 42q-54 149 -123 323l82 25q65 -159 129 -318zM455 -86l-13 85h88q36 0 48 9t12 35v476h92v-509q0 -57 -29 -77q-28 -19 -107 -19h-91zM528 673h400v-80l-61 -165l-88 21l56 138h-346q-47 -95 -106 -181
l-68 64q107 153 161 330l93 -15q-15 -46 -41 -112zM259 561v-660h-89v487q-42 -72 -82 -125l-47 86q139 203 208 455l94 -24q-38 -116 -84 -219z" />
    <glyph glyph-name="uni4F63" unicode="&#x4f63;" 
d="M583 507v162h-147v-162h147zM583 266v162h-147v-88q0 -51 -1 -74h148zM817 507v162h-151v-162h151zM817 266v162h-151v-162h151zM817 188h-151v-253h-83v253h-151q-7 -90 -27 -154q-19 -61 -64 -137l-72 58q51 86 66 158q16 75 16 231v406h550v-752q0 -50 -24 -67
t-94 -17h-67l-11 76h61q31 0 41 7t10 29v162zM242 572v-670h-83v495q-36 -66 -75 -126l-43 87q124 206 183 446l91 -23q-33 -113 -73 -209z" />
    <glyph glyph-name="uni4F69" unicode="&#x4f69;" 
d="M291 -95l-60 69q44 82 59 165q15 84 15 251v365h545v-445q-2 -176 4 -258q5 -56 22 -56q12 0 18 36q8 51 10 139l56 -15q-3 -65 -12 -139q-13 -105 -74 -105q-40 0 -62 27q-23 29 -30 93q-7 68 -7 278v369h-396v-293q0 -190 -17 -283t-71 -198zM611 435h117v-352
q0 -35 -17 -47t-65 -12h-26l-11 74h29q17 0 23 4t6 16v250h-60v-461h-64v461h-58v-352h-60v419h116v91h-128v69h325v-69h-127v-91zM215 580v-678h-75v485q-29 -62 -56 -110l-41 86q100 191 147 437l79 -16q-18 -91 -54 -204z" />
    <glyph glyph-name="uni4F6C" unicode="&#x4f6c;" 
d="M782 481h157v-80h-239q-85 -75 -189 -140v-77q182 64 325 139l49 -73q-158 -78 -374 -147v-42q0 -41 17 -57t62 -16h141q40 0 57 13q18 13 24 47q11 62 14 99l88 -26q-9 -61 -19 -109q-12 -56 -44 -79q-33 -24 -101 -24h-194q-71 0 -104 28t-33 92v180q-53 -29 -120 -62
l-34 85q177 74 304 169h-281v80h224v122h-155v78h155v118h90v-118h150v-78h-150v-122h62q103 97 188 234l77 -44q-73 -110 -147 -190zM243 549v-648h-88v478q-30 -50 -73 -111l-41 90q133 202 199 444l89 -20q-32 -113 -86 -233z" />
    <glyph glyph-name="uni4F6F" unicode="&#x4f6f;" 
d="M750 627h166v-81h-240v-131h207v-81h-207v-138h261v-82h-261v-214h-90v214h-263v82h263v138h-206v81h206v131h-237v81h308q75 113 110 177l87 -28q-57 -86 -104 -149zM511 635q-42 73 -91 141l80 29q32 -46 90 -137zM267 579v-679h-89v505q-47 -80 -91 -140l-46 86
q139 202 212 453l92 -24q-34 -104 -78 -201z" />
    <glyph glyph-name="uni4F70" unicode="&#x4f70;" 
d="M799 288v167h-324v-167h324zM799 44v165h-324v-165h324zM799 -36h-324v-64h-91v635h166q1 5 25 122h-217v82h577v-82h-260q-9 -38 -30 -122h245v-634h-91v63zM254 578v-678h-90v497q-43 -75 -77 -125l-46 91q128 193 201 439l88 -22q-35 -109 -76 -202z" />
    <glyph glyph-name="uni4F73" unicode="&#x4f73;" 
d="M682 457h249v-83h-592v83h250v128h-212v81h212v127h93v-127h213v-81h-213v-128zM682 20h260v-82h-613v82h260v140h-215v82h215v95h93v-95h218v-82h-218v-140zM263 574v-674h-91v501q-36 -60 -83 -124l-47 86q134 196 212 439l92 -22q-37 -107 -83 -206z" />
    <glyph glyph-name="uni4F7F" unicode="&#x4f7f;" 
d="M900 243h-237q-9 -116 -58 -182q112 -53 334 -69l-33 -87q-243 29 -362 95q-72 -53 -219 -105l-51 78q130 39 194 80q-55 46 -110 124l59 47q56 -75 111 -116q37 48 45 135h-229v286h233q1 28 1 90h-260v76h260v106h90v-106h266v-76h-266q0 -62 -1 -90h233v-286zM815 317
v138h-148q0 -69 -1 -138h149zM577 317v138h-149v-138h149zM239 562v-659h-85v479q-34 -61 -71 -115l-41 87q123 211 180 449l91 -22q-30 -112 -74 -219z" />
    <glyph glyph-name="uni4F84" unicode="&#x4f84;" 
d="M668 18h272v-81h-633v81h274v141h-229v81h229v111h87v-111h232v-81h-232v-141zM805 396q-223 -8 -447 -15l-15 71q29 14 54 41q55 58 123 163h-166v82h560v-82h-288q-80 -113 -149 -194q137 3 277 9q-34 50 -74 105l68 40q99 -129 175 -236l-76 -46q-14 22 -42 62z
M247 563v-663h-86v493q-29 -52 -77 -123l-45 88q133 205 200 447l91 -24q-41 -124 -83 -218z" />
    <glyph glyph-name="uni4F88" unicode="&#x4f88;" 
d="M640 512q92 54 162 133h-267q-73 -69 -171 -133l-53 62q166 103 255 227l95 -12q-24 -35 -56 -72h298v-76q-87 -115 -216 -191q-130 -77 -337 -133l-40 76q145 33 254 81q-53 51 -93 84l62 44q41 -34 107 -90zM660 110q91 59 166 151h-243q-95 -87 -230 -162l-44 72
q190 97 306 239l94 -13q-14 -17 -52 -62h266v-79q-96 -141 -231 -224q-139 -85 -367 -136l-38 77q185 38 302 97q-60 54 -94 84l62 43q54 -43 103 -87zM255 564v-663h-88v496q-40 -67 -82 -126l-43 87q135 200 207 444l94 -20q-41 -117 -88 -218z" />
    <glyph glyph-name="uni4F8B" unicode="&#x4f8b;" 
d="M502 287q23 74 36 182h-111q-40 -132 -121 -263l-44 79q100 172 131 388h-79v77h325v-77h-168q-17 -97 -24 -128h167v-38q-12 -208 -75 -345q-63 -138 -203 -264l-57 64q133 117 192 243q-20 19 -98 83l45 64q30 -21 84 -65zM672 127v553h74v-553h-74zM684 -84l-13 84h95
q37 0 49 9t12 35v751h80v-788q0 -55 -26 -73t-102 -18h-95zM231 578v-678h-79v490q-31 -62 -67 -123l-42 89q109 198 170 448l84 -15q-28 -108 -66 -211z" />
    <glyph glyph-name="uni4F8D" unicode="&#x4f8d;" 
d="M506 23q-45 52 -125 134l64 51q40 -37 130 -127zM675 490h270v-81h-632v81h270v114h-221v79h221v117h92v-117h222v-79h-222v-114zM806 223v-207q0 -62 -31 -84q-30 -21 -118 -21h-106l-13 85h102q45 0 59 10q15 11 15 43v174h-389v80h389v73h92v-73h131v-80h-131z
M259 580v-679h-89v505q-44 -76 -86 -132l-43 94q128 183 205 436l92 -24q-32 -97 -79 -200z" />
    <glyph glyph-name="uni4F97" unicode="&#x4f97;" 
d="M456 498v76h319v-76h-319zM677 163v167h-124v-167h124zM748 89h-266v316h266v-316zM324 -99v850h584v-739q0 -60 -30 -81q-29 -20 -112 -20h-93l-12 81h98q39 0 52 9t13 37v632h-416v-769h-84zM231 574v-674h-84v486q-35 -67 -64 -112l-43 87q110 192 169 441l87 -24
q-26 -99 -65 -204z" />
    <glyph glyph-name="uni4F9B" unicode="&#x4f9b;" 
d="M800 287h142v-85h-644v85h145v241h-111v84h111v187h90v-187h177v187h90v-187h114v-84h-114v-241zM710 287v241h-177v-241h177zM867 -94q-20 21 -200 207l66 57q97 -91 204 -200zM367 -101l-70 65q109 94 201 203l74 -52q-110 -122 -205 -216zM253 573v-675h-91v499
q-36 -63 -78 -120l-43 93q132 191 200 432l91 -22q-42 -123 -79 -207z" />
    <glyph glyph-name="uni4F9D" unicode="&#x4f9d;" 
d="M646 561q24 -133 64 -230q76 58 156 130l56 -68q-86 -65 -180 -132q71 -134 205 -232l-59 -80q-117 88 -189 212q-73 127 -112 312q-36 -69 -72 -118v-324q70 32 140 73l22 -81q-132 -71 -237 -119l-43 73q19 17 27 35t8 43v200q-60 -63 -134 -121l-42 79
q190 144 286 348h-229v82h271q-30 86 -54 143l87 21q31 -78 58 -164h260v-82h-289zM250 569v-668h-86v495q-40 -70 -80 -124l-42 84q126 192 196 444l87 -23q-32 -110 -75 -208z" />
    <glyph glyph-name="uni4FA0" unicode="&#x4fa0;" 
d="M788 367l-64 42q57 72 109 146l66 -40q-66 -94 -111 -148zM447 371q-46 74 -97 144l65 38q47 -61 101 -141zM672 250q35 -93 103 -156q64 -60 172 -105l-50 -82q-202 93 -276 259q-33 -79 -100 -141q-68 -63 -189 -125l-53 80q126 58 193 121q68 64 91 149h-255v81h268
q4 37 6 126l2 134h-237v81h237v126h89q0 -80 -1 -126h232v-81h-232l-3 -138q-2 -75 -7 -122h276v-81h-266zM251 566v-664h-87v492q-32 -57 -80 -124l-43 87q129 205 199 445l90 -23q-37 -117 -79 -213z" />
    <glyph glyph-name="uni4FA3" unicode="&#x4fa3;" 
d="M814 45v192h-371v-192h371zM814 -34h-371v-65h-90v415h551v-415h-90v65zM783 499v167h-311v-167h311zM870 420h-486v325h486v-325zM245 563v-664h-89v487q-38 -67 -73 -116l-46 90q122 182 202 443l89 -23q-40 -120 -83 -217z" />
    <glyph glyph-name="uni4FA5" unicode="&#x4fa5;" 
d="M735 206v-155q0 -27 10 -38t36 -11h29q25 0 37 10q11 10 15 35q4 28 8 86l75 -26q-3 -59 -10 -94q-8 -47 -36 -69t-80 -22h-68q-104 -1 -103 107v177h-106q-5 -124 -51 -189q-47 -66 -173 -123l-54 77q106 41 147 91q42 50 44 144h-159v76h633v-76h-194zM687 458
q53 -53 105 -53q38 0 56 33q17 32 35 80l62 -43q-16 -50 -38 -87q-36 -61 -112 -61q-105 0 -190 94q-122 -52 -273 -87l-32 79q137 28 256 72q-36 56 -61 118l-171 -26l-12 77l156 23q-18 62 -33 123l90 4q13 -57 32 -115l328 47l12 -73l-312 -48q25 -54 54 -96
q91 40 195 103l47 -53q-97 -63 -194 -111zM242 562v-661h-85v486q-36 -65 -72 -119l-44 88q126 201 192 446l88 -21q-30 -101 -79 -219z" />
    <glyph glyph-name="uni4FA6" unicode="&#x4fa6;" 
d="M651 169q250 -165 293 -195l-52 -72q-159 113 -270 189q-32 -59 -100 -105q-70 -47 -187 -90l-47 81q165 53 223 111t64 151q6 54 6 156h86q0 -96 -5 -158q-3 -41 -11 -68zM640 529h246v-401h-86v319h-356v-324h-86v406h192v273h90v-95h293v-78h-293v-100zM247 552v-654
h-87v492q-34 -59 -75 -114l-48 90q133 185 213 439l90 -23q-41 -118 -93 -230z" />
    <glyph glyph-name="uni4FA7" unicode="&#x4fa7;" 
d="M291 178v578h334v-578h-67v499h-200v-499h-67zM691 127v579h66v-579h-66zM706 -83l-12 79h80q34 0 45 8t11 32v758h75v-795q0 -49 -24 -66q-23 -16 -92 -16h-83zM214 569v-669h-76v486q-35 -72 -55 -105l-42 88q104 184 160 433l77 -23q-28 -111 -64 -210zM480 171
q91 -87 182 -173l-57 -63l-150 154q-43 -97 -168 -190l-49 71q61 45 94 79q37 38 56 77q34 71 34 228v247h71v-252q0 -107 -13 -178z" />
    <glyph glyph-name="uni4FA8" unicode="&#x4fa8;" 
d="M710 -92v340h86v-340h-86zM391 -105l-79 48q77 52 106 97q27 42 33 111q2 12 4 98h86q0 -65 -3 -104q-6 -84 -35 -135q-31 -56 -112 -115zM705 460q65 -129 244 -191l-40 -82q-116 54 -179 113q-64 60 -102 152q-32 -82 -97 -143q-68 -64 -199 -131l-47 79q108 46 168 94
t89 109h-220v78h245q11 49 14 126q-67 -3 -211 -7l-9 78q261 5 519 24l11 -78q-124 -10 -223 -14q-4 -71 -15 -129h280v-78h-228zM244 564v-663h-84v496q-28 -50 -78 -126l-45 85q131 207 196 446l91 -24q-32 -106 -80 -214z" />
    <glyph glyph-name="uni4FA9" unicode="&#x4fa9;" 
d="M796 -41q-73 -4 -472 -22l-15 76q34 16 68 51q54 57 108 147h-185v81h612v-81h-320q-71 -106 -142 -188q148 5 291 12q-43 60 -79 108l71 39q143 -186 179 -235l-75 -47q-13 19 -41 59zM412 482h391v-80h-395v77q-39 -32 -92 -69l-43 83q202 126 300 303h75
q98 -176 301 -303l-43 -83q-188 128 -296 281q-79 -113 -198 -209zM254 570v-669h-86v503q-37 -63 -84 -130l-42 87q133 208 202 442l93 -21q-41 -119 -83 -212z" />
    <glyph glyph-name="uni4FAE" unicode="&#x4fae;" 
d="M638 120q-54 46 -110 89l44 49q57 -42 114 -83zM649 351q-44 37 -109 88l47 48q71 -51 110 -83zM865 344h81v-75h-83l-4 -153h69v-74h-71v-22q-2 -66 -33 -88q-32 -22 -126 -22h-123l-12 72h129q48 0 64 11t17 46v3h-434l24 227h-76v75h83l21 201q-26 -31 -69 -74l-27 87
q105 111 164 246l91 -8q-12 -26 -36 -74h411v-74h-455q-21 -32 -55 -75h456zM781 344l4 155h-314l-16 -155h326zM779 269h-332l-16 -153h344zM241 568v-667h-84v501q-36 -63 -75 -120l-43 89q128 193 197 431l87 -22q-34 -103 -82 -212z" />
    <glyph glyph-name="uni4FAF" unicode="&#x4faf;" 
d="M832 579h110v-74h-642v74h442l9 98h-375v74h472zM673 148q28 -59 92 -97q63 -38 183 -67l-37 -80q-226 59 -291 182q-32 -58 -99 -103q-69 -46 -190 -87l-49 78q129 38 193 78q63 39 85 96h-266v76h281q1 4 1 9q3 30 5 100h-141q-31 -48 -66 -90l-67 45q86 94 125 194
l82 -10q-16 -36 -31 -64h408v-75h-224q0 -45 -6 -109h280v-76h-268zM243 568v-667h-84v492q-38 -69 -74 -124l-43 88q121 202 186 444l89 -22q-35 -118 -74 -211z" />
    <glyph glyph-name="uni4FB5" unicode="&#x4fb5;" 
d="M789 635v62h-445v66h529v-312h-541v66h457v61h-424v57h424zM841 239v-51q-65 -91 -146 -147q85 -31 240 -56l-36 -81q-192 39 -291 86q-109 -53 -292 -95l-35 81q149 29 242 65q-63 46 -121 127l41 25h-73v44h-81v152h635v-150h-83zM841 260v63h-469v-63h469zM607 81
q73 41 135 112h-263q59 -73 128 -112zM235 560v-659h-83v480q-31 -59 -69 -114l-42 87q119 202 179 447l87 -22q-30 -113 -72 -219z" />
    <glyph glyph-name="uni4FBF" unicode="&#x4fbf;" 
d="M898 203h-242q-12 -92 -58 -151q114 -47 347 -62l-35 -85q-256 28 -376 88q-74 -51 -222 -98l-42 75q125 33 188 70q-55 42 -111 111l58 49q58 -69 118 -108q37 42 49 111h-228v395h236q1 25 1 81h-253v74h605v-74h-268q0 -56 -1 -81h234v-395zM819 274v94h-156v-65
q0 -20 -1 -29h157zM819 433v94h-155v-94h155zM580 527h-155v-94h155v94zM578 274q1 11 1 34q1 30 1 60h-155v-94h153zM241 576v-676h-83v493q-40 -75 -76 -131l-41 88q120 208 180 451l86 -23q-28 -105 -66 -202z" />
    <glyph glyph-name="uni4FC3" unicode="&#x4fc3;" 
d="M793 495v176h-334v-176h334zM457 204q38 -137 138 -171v381h-222v338h508v-338h-198v-143h230v-81h-230v-172h266l-14 -83h-247q-100 0 -161 35q-59 34 -96 111q-28 -90 -101 -187l-64 66q63 81 86 153q25 78 30 222h85q-3 -78 -10 -131zM244 548v-648h-87v475
q-36 -63 -73 -114l-42 88q130 204 196 452l88 -22q-31 -112 -82 -231z" />
    <glyph glyph-name="uni4FC4" unicode="&#x4fc4;" 
d="M861 574q-44 49 -124 127l58 53q75 -70 128 -124zM750 131q2 -12 3 -17q24 -114 68 -114q11 0 19 10q9 11 15 37q12 47 20 128l74 -30q-8 -60 -25 -139q-11 -53 -35 -76q-25 -24 -68 -24q-99 0 -143 162q-55 -43 -122 -86l-50 77q79 45 152 107q-14 92 -24 281h-148v-143
l112 24v-82q-56 -14 -112 -27v-219q0 -52 -25 -69t-97 -17h-72l-13 85h67q33 0 44 8t11 32v162q-40 -9 -120 -25l-18 88q92 16 138 25v158h-132v80h132v116q-33 -4 -97 -12l-15 82q157 16 280 38l17 -80q-32 -6 -100 -16v-128h145q-8 185 -9 275h88q0 -69 6 -275h230v-80
h-227q6 -123 15 -208q74 75 127 162l70 -53q-81 -123 -181 -217zM229 574v-674h-83v488q-30 -57 -63 -111l-43 87q110 194 168 438l88 -15q-25 -100 -67 -213z" />
    <glyph glyph-name="uni4FCA" unicode="&#x4fca;" 
d="M326 307l-38 70q103 48 223 127l46 -57q-115 -78 -231 -140zM910 319q-145 79 -235 125l41 60q135 -66 228 -118zM824 539q-79 -5 -477 -22l-16 72q27 11 55 34q94 74 180 183l93 -31q-111 -109 -192 -178q200 6 290 10q-54 54 -80 79l59 43q132 -124 200 -192l-64 -49
q-22 24 -48 51zM699 65q93 -41 247 -70l-41 -85q-180 46 -281 104q-112 -65 -301 -119l-40 81q168 40 265 88q-57 46 -105 112q-41 -42 -89 -80l-56 57q140 106 218 239l83 -12q-38 -59 -42 -65h288v-79q-62 -104 -146 -171zM622 107q76 51 129 134h-249q-2 -3 -7 -8
q52 -76 127 -126zM254 557v-655h-87v495q-30 -51 -82 -124l-45 93q141 192 218 437l88 -25q-43 -121 -92 -221z" />
    <glyph glyph-name="uni4FCF" unicode="&#x4fcf;" 
d="M813 364v102h-361v-102h361zM813 184v103h-361v-103h361zM813 107h-361v-204h-87v644h222v255h90v-255h224v-534q0 -59 -29 -79t-110 -20h-105l-12 80h99q43 0 56 9t13 40v64zM458 582q-64 81 -117 141l63 46q70 -73 122 -135zM800 578l-60 56q73 71 128 135l61 -51
q-72 -81 -129 -140zM241 575v-676h-86v493q-33 -61 -72 -124l-43 86q122 213 181 447l92 -23q-32 -107 -72 -203z" />
    <glyph glyph-name="uni4FD0" unicode="&#x4fd0;" 
d="M663 122v557h76v-557h-76zM684 -83l-12 82h92q39 0 51 9t12 36v749h80v-784q0 -55 -27 -74q-26 -18 -102 -18h-94zM418 285q-51 -126 -124 -218l-37 94q100 121 152 278h-125v80h134v140q-38 -3 -109 -7l-14 80q113 7 305 26l18 -78q-99 -12 -120 -14v-147h125v-80h-125
v-69q67 -57 133 -114l-37 -78q-16 16 -96 91v-367h-80v383zM229 575v-675h-79v494q-32 -63 -68 -121l-43 87q113 197 168 441l87 -14q-26 -107 -65 -212z" />
    <glyph glyph-name="uni4FD7" unicode="&#x4fd7;" 
d="M754 40v175h-284v-175h284zM366 511l-61 62q105 98 198 212l67 -51q-99 -123 -204 -223zM869 526q-79 79 -217 206l61 55q132 -113 218 -197zM843 272v-373h-89v61h-284v-61h-88v373q-36 -25 -64 -41l-46 77q107 58 183 133q72 72 123 166h70q51 -94 123 -166
q76 -75 182 -133l-45 -77q-49 30 -65 41zM812 295q-119 89 -199 209q-83 -122 -199 -209h398zM243 561v-661h-87v492q-38 -65 -75 -119l-42 87q131 204 200 444l90 -25q-37 -110 -86 -218z" />
    <glyph glyph-name="uni4FD8" unicode="&#x4fd8;" 
d="M412 476q-15 32 -65 135l79 20q33 -67 65 -133zM602 488q-20 67 -48 144l79 16q49 -139 50 -142zM810 470l-72 30q49 78 83 150l77 -30q-56 -100 -88 -150zM345 660l-15 80q301 8 574 28l16 -80q-297 -20 -575 -28zM676 148v-136q0 -60 -30 -81q-29 -20 -113 -20h-100
l-13 83h97q42 0 55 9q14 10 14 40v105h-291v82h291v42l156 101h-391v78h530v-77l-205 -130v-14h266v-82h-266zM245 583v-683h-86v503q-26 -47 -76 -127l-41 86q123 213 181 439l92 -21q-32 -104 -70 -197z" />
    <glyph glyph-name="uni4FDD" unicode="&#x4fdd;" 
d="M788 519v160h-339v-160h339zM875 439h-513v319h513v-319zM712 248q74 -122 236 -204l-47 -84q-170 106 -239 242v-300h-90v298q-86 -146 -251 -249l-54 75q166 94 251 222h-227v79h281v88h90v-88h278v-79h-228zM241 571v-668h-85v484q-41 -74 -73 -120l-41 85
q121 210 180 449l89 -22q-31 -109 -70 -208z" />
    <glyph glyph-name="uni4FDE" unicode="&#x4fde;" 
d="M425 298v81h-206v-81h206zM425 151v84h-206v-84h206zM425 88h-206v-184h-81v543h368v-449q0 -51 -24 -68t-94 -17h-74l-11 71h71q30 0 41 8q10 7 10 29v67zM601 78v338h80v-338h-80zM638 -88l-12 82h94q38 0 51 9t13 36v416h84v-446q0 -57 -29 -77t-107 -20h-94zM705 569
v-54h-409v49q-92 -51 -207 -97l-36 84q144 52 245 113q96 58 172 137h71q75 -78 172 -137q101 -61 245 -113l-37 -84q-127 51 -216 102zM678 585q-101 60 -173 131q-72 -71 -173 -131h346z" />
    <glyph glyph-name="uni4FE1" unicode="&#x4fe1;" 
d="M358 313v74h533v-74h-533zM358 462v73h533v-73h-533zM690 691h252v-79h-627v79h273q-27 76 -37 101l100 10q16 -40 39 -111zM805 30v132h-360v-132h360zM805 -46h-360v-55h-87v339h533v-338h-86v54zM242 569v-669h-86v490q-37 -67 -73 -120l-42 86q120 198 185 447
l90 -22q-29 -102 -74 -212z" />
    <glyph glyph-name="uni4FE9" unicode="&#x4fe9;" 
d="M827 161l-35 -42q-65 94 -86 123q-27 -99 -87 -202l-58 47q57 90 81 174q23 81 28 195h-113q-3 -50 -9 -93q73 -73 91 -93l-35 -67q-35 40 -70 81q-26 -110 -91 -223l-48 41v-200h-82v632h171q1 42 1 126h-177v81h628v-81h-189q-1 -32 -1 -126h162v-532q0 -53 -26 -71
t-100 -18h-82l-12 75h83q34 0 45 8t11 32v133zM827 197v259h-87q-5 -78 -15 -129q51 -63 102 -130zM560 660v-126h111q1 45 1 126h-112zM488 456h-93v-328q46 81 67 153q22 77 26 175zM227 571v-671h-82v481q-34 -67 -62 -111l-43 88q111 203 166 444l87 -16
q-29 -114 -66 -215z" />
    <glyph glyph-name="uni4FED" unicode="&#x4fed;" 
d="M775 25h147v-81h-616v81h388q65 184 104 318l82 -22q-43 -128 -105 -296zM601 106q-18 84 -56 233l77 12q29 -108 56 -230zM425 64q-36 129 -78 248l77 20l80 -246zM824 477v-75h-411v74q-45 -35 -83 -60l-43 82q204 122 294 299h77q89 -177 293 -299l-42 -82
q-48 32 -85 61zM819 481q-119 93 -200 215q-81 -122 -200 -215h400zM253 557v-656h-89v490q-29 -50 -77 -119l-47 89q137 200 212 441l93 -23q-40 -113 -92 -222z" />
    <glyph glyph-name="uni4FEE" unicode="&#x4fee;" 
d="M416 -101l-36 72q311 75 512 216l47 -61q-212 -148 -523 -227zM464 62l-36 68q222 64 394 177l44 -57q-199 -125 -402 -188zM467 210l-35 66q168 46 302 129l45 -52q-141 -82 -312 -143zM297 48v600h78v-600h-78zM748 497q78 -34 200 -57l-27 -78q-149 34 -245 88
q-93 -55 -253 -103l-33 72q129 34 215 77q-51 40 -90 88q-36 -42 -76 -78l-47 62q116 110 172 237l89 -11q-14 -29 -39 -73h277v-73q-66 -92 -143 -151zM674 536q68 44 121 113h-229q-3 -5 -6 -9q52 -64 114 -104zM229 579v-677h-83v485q-25 -50 -61 -110l-42 84
q103 188 164 442l87 -16q-27 -102 -65 -208z" />
    <glyph glyph-name="uni4FEF" unicode="&#x4fef;" 
d="M685 125q-25 52 -85 162l60 31q15 -25 88 -160zM869 374v-361q0 -60 -29 -80q-28 -20 -110 -20h-78l-11 80h78q42 0 56 10t14 41v330h-185v78h185v129h80v-129h72v-78h-72zM560 427v-524h-81v379q-36 -52 -40 -58l-41 39q-8 -199 -87 -358l-64 71q41 90 56 171
q15 83 15 227v321h282q-15 50 -30 101l97 9l28 -110h247v-81h-542v-242q0 -47 -1 -69q91 128 145 296l78 -28q-34 -87 -62 -144zM226 565v-665h-83v479q-28 -54 -60 -108l-42 87q121 224 168 445l87 -18q-31 -118 -70 -220z" />
    <glyph glyph-name="uni4FF1" unicode="&#x4ff1;" 
d="M867 179h79v-73h-659v73h79v579h501v-579zM780 179v82h-328v-82h328zM780 323v81h-328v-81h328zM780 465v81h-328v-81h328zM780 607v79h-328v-79h328zM895 -101q-105 66 -226 133l43 63q141 -75 226 -127zM331 -104l-39 72q114 50 225 126l50 -62q-144 -93 -236 -136z
M246 572v-671h-85v494q-39 -66 -80 -127l-40 87q128 211 192 447l87 -22q-31 -104 -74 -208z" />
    <glyph glyph-name="uni4FFA" unicode="&#x4ffa;" 
d="M850 413v-326h-216v-56q0 -29 14 -41t46 -12h101q32 0 46 10q15 11 20 38q11 64 13 81l75 -23q-6 -45 -17 -93q-10 -44 -38 -63q-29 -19 -88 -19h-139q-61 0 -88 26q-26 25 -26 79v73h-136v-52h-79v363q-12 -8 -38 -24l-46 70q136 73 209 170h-152v73h198q26 53 42 115
l87 -9q-19 -62 -41 -106h316v-73h-189q68 -100 225 -157l-37 -74q-37 17 -62 30zM793 447q-99 66 -155 167h-81q-59 -92 -152 -167h148v94h81v-94h159zM771 237h-137v-85h137v85zM771 298v85h-137v-85h137zM553 152v85h-136v-85h136zM553 383h-136v-85h136v85zM243 573v-671
h-84v491q-30 -57 -74 -125l-44 87q125 202 187 445l85 -22q-32 -112 -70 -205z" />
    <glyph glyph-name="uni500D" unicode="&#x500d;" 
d="M688 685h225v-77h-577v77h259q-37 94 -42 107l92 17q20 -55 43 -124zM793 31v163h-339v-163h339zM793 -45h-339v-55h-87v370h514v-370h-88v55zM497 438h168q45 66 95 155l87 -24q-43 -70 -84 -131h181v-77h-638v77h178q-34 57 -81 129l79 29q38 -57 83 -132zM239 562
v-662h-85v482q-32 -61 -71 -116l-41 88q122 210 180 448l91 -22q-31 -112 -74 -218z" />
    <glyph glyph-name="uni5012" unicode="&#x5012;" 
d="M674 129v548h74v-548h-74zM688 -83l-12 83h91q36 0 48 9t12 35v752h80v-787q0 -55 -27 -74q-26 -18 -103 -18h-89zM570 418q-45 -3 -286 -16l-15 63q25 20 40 43q40 60 84 157h-101v77h338v-77h-151q-62 -117 -105 -186q83 3 165 9q-30 64 -48 100l61 22
q60 -113 106 -212l-67 -28q-10 24 -21 48zM495 55q48 5 144 17l-2 -83q-195 -26 -366 -41l-10 85q47 4 153 14v149h-128v76h128v102h81v-102h125v-76h-125v-141zM224 597v-697h-79v499q-33 -70 -63 -124l-42 86q100 194 158 444l83 -14q-24 -101 -57 -194z" />
    <glyph glyph-name="uni5014" unicode="&#x5014;" 
d="M815 301v136h73v-208h-166v-211h115v151h76v-268h-76v45h-382v223h77v-151h113v211h-165v209h72v-137h93v186h77v-186h93zM826 577v104h-404v-104h404zM422 501v-83q0 -190 -20 -296t-78 -224l-74 50q52 107 70 198q18 94 18 269v342h571v-256h-487zM230 572v-672h-83
v484q-26 -51 -64 -113l-42 88q117 219 168 444l89 -19q-28 -105 -68 -212z" />
    <glyph glyph-name="uni5018" unicode="&#x5018;" 
d="M775 572l-57 54q50 50 125 137l62 -51q-9 -11 -130 -140zM460 574q-48 57 -124 140l59 49q66 -67 127 -135zM679 151v148h-121v-148h121zM749 80h-261v289h261v-289zM663 537h243v-529q0 -58 -29 -78q-28 -20 -108 -20h-90l-11 79h93q37 0 50 9q12 9 12 35v424h-409v-553
h-82v633h244v262h87v-262zM238 563v-663h-84v488q-38 -70 -71 -117l-41 89q120 193 185 443l87 -22q-34 -119 -76 -218z" />
    <glyph glyph-name="uni5019" unicode="&#x5019;" 
d="M839 584h100v-74h-535v74h351q6 69 8 102h-308v73h395zM297 60v607h76v-607h-76zM726 156q58 -120 224 -173l-46 -77q-166 67 -225 189q-30 -62 -94 -109q-65 -48 -180 -91l-45 75q122 42 182 86q57 42 76 100h-216v73h228q1 5 1 10q2 29 4 103h-109q-26 -48 -59 -88
l-68 40q75 83 106 196l78 -10q-13 -43 -23 -65h344v-73h-186q-2 -31 -4 -103q0 -5 -1 -10h228v-73h-215zM224 575v-675h-80v489q-32 -63 -64 -114l-40 87q106 196 163 442l85 -15q-28 -114 -64 -214z" />
    <glyph glyph-name="uni501A" unicode="&#x501a;" 
d="M669 710h248v-74h-260q-7 -22 -10 -28q30 -12 256 -100l-38 -69q-100 46 -259 112q-62 -65 -237 -114l-37 70q111 28 163 57q51 28 69 72h-227v74h244q4 32 4 90h88q-2 -61 -4 -90zM865 361v-347q0 -61 -30 -82q-29 -20 -114 -20h-108l-13 82h111q42 0 56 10t14 41v316
h-484v74h648v-74h-80zM669 34h-316v259h316v-259zM432 105h158v116h-158v-116zM248 568v-668h-84v496q-37 -67 -80 -125l-41 88q131 211 190 444l91 -22q-31 -103 -76 -213z" />
    <glyph glyph-name="uni501F" unicode="&#x501f;" 
d="M788 180v91h-335v-91h335zM788 26v89h-335v-89h335zM788 -48h-335v-52h-88v445h511v-445h-88v52zM705 500v112h-171v-112h171zM793 500h148v-76h-640v76h146v112h-114v76h114v110h87v-110h171v110h88v-110h125v-76h-125v-112zM244 566v-667h-87v486q-37 -64 -74 -117
l-41 86q119 203 184 450l91 -21q-32 -117 -73 -217z" />
    <glyph glyph-name="uni5021" unicode="&#x5021;" 
d="M783 611v80h-322v-80h322zM783 470v79h-322v-79h322zM869 399h-494v363h494v-363zM818 167v89h-393v-89h393zM818 15v89h-393v-89h393zM818 -56h-393v-45h-86v428h566v-428h-87v45zM241 566v-665h-85v484q-35 -64 -71 -117l-42 88q117 195 180 445l90 -22
q-30 -110 -72 -213z" />
    <glyph glyph-name="uni5026" unicode="&#x5026;" 
d="M775 620l-57 46q59 63 99 117l63 -42q-52 -61 -105 -121zM444 624q-64 80 -95 113l60 42q44 -47 96 -111zM771 258l-5 -111q-2 -46 -24 -61q-23 -16 -87 -16h-79l-8 61h70q31 0 41 7t11 29l4 54h-211v-164q0 -40 17 -57t61 -17h160q40 0 60 13q17 11 24 38q8 28 15 81
l78 -26q-8 -41 -22 -97q-11 -44 -44 -63q-34 -20 -99 -20h-200q-132 0 -132 129v174q-44 -35 -108 -76l-42 76q147 79 218 179h-182v71h224q19 42 28 78v2h-219v71h234q13 81 19 186h86q-4 -102 -19 -186h268v-71h-282v-4q-1 -21 -10 -40l-16 -36h339v-71h-186
q68 -99 197 -152l-38 -78q-86 46 -141 97zM737 291q-43 46 -72 100h-100q-31 -55 -75 -100h247zM232 562v-662h-84v478q-35 -65 -67 -113l-41 88q118 209 172 450l90 -21q-26 -107 -70 -220z" />
    <glyph glyph-name="uni502A" unicode="&#x502a;" 
d="M879 252h-143v-202q0 -32 11 -44q9 -10 35 -10h28q27 0 39 12t16 42q4 29 9 97l72 -27q-4 -45 -14 -118q-12 -95 -121 -93h-51q-59 0 -85 27t-26 90v226h-96q-1 -21 -2 -41q-6 -108 -50 -174q-46 -69 -162 -139l-58 70q104 60 140 109q36 48 41 133q1 14 1 42h-126v470
q125 27 225 67l37 -76q-102 -35 -176 -51v-128h153v-74h-153v-132h370v132h-153v74h153v130h-163v75h249v-487zM242 586v-685h-86v495q-30 -58 -74 -128l-41 85q119 219 177 448l89 -23q-27 -92 -65 -192z" />
    <glyph glyph-name="uni503A" unicode="&#x503a;" 
d="M645 109q173 -78 293 -136l-42 -74q-124 66 -283 144q-34 -49 -104 -85q-72 -37 -196 -65l-39 80q160 32 227 75q55 35 65 94q7 42 7 93h87q-1 -13 -2 -25q-4 -53 -7 -72q-4 -20 -6 -29zM345 70v269h533v-261h-86v193h-361v-201h-86zM659 467h282v-65h-653v65h283v66
h-233v62h233v65h-254v65h254v79h88v-79h262v-65h-262v-65h231v-62h-231v-66zM233 579v-680h-84v487q-33 -63 -66 -116l-42 87q113 207 167 445l88 -15q-27 -106 -63 -208z" />
    <glyph glyph-name="uni503C" unicode="&#x503c;" 
d="M789 425v75h-342v-75h342zM789 285v77h-342v-77h342zM789 145v78h-342v-78h342zM789 5v77h-342v-77h342zM875 5h69v-73h-659v73h76v565h211v77h-251v72h251v85h89v-85h265v-72h-265v-77h214v-565zM237 570v-668h-85v488q-38 -69 -70 -119l-43 84q117 200 186 449l87 -22
q-32 -107 -75 -212z" />
    <glyph glyph-name="uni503E" unicode="&#x503e;" 
d="M736 165q37 -33 211 -192l-54 -68q-100 103 -183 182q-49 -106 -211 -192l-52 72q139 69 183 138q40 62 44 199q1 30 1 135h77q0 -104 -1 -135q-3 -85 -15 -139zM752 677l-24 -106h179v-445h-76v369h-237v-371h-76v447h127q8 39 21 106h-180v77h450v-77h-184zM392 464
v-342q40 25 85 59l27 -74q-84 -60 -174 -114l-43 67q26 25 26 76v644h79v-240h86v-76h-86zM226 585v-684h-80v492q-28 -60 -60 -114l-42 81q100 188 163 444l79 -15q-22 -95 -60 -204z" />
    <glyph glyph-name="uni5047" unicode="&#x5047;" 
d="M517 529v150h-123v-150h123zM394 96v-195h-80v854h276v-302h-196v-102h171v-75h-171v-104h181v-76h-181zM819 535v141h-185v77h264v-296h-268v78h189zM802 79q53 -50 150 -97l-45 -77q-99 57 -159 114q-68 -64 -184 -125l-48 75q115 53 179 110q-55 75 -90 197l68 29
q27 -100 76 -168q51 68 74 173h-233v78h316v-73q-34 -147 -104 -236zM227 596v-696h-80v497q-31 -67 -63 -122l-41 81q103 197 157 444l82 -18q-21 -86 -55 -186z" />
    <glyph glyph-name="uni504F" unicode="&#x504f;" 
d="M822 545v97h-423v-97h423zM838 123h-82v-179h-61v179h-80v-180h-62v180h-80v-221h-71v493h508v-412q0 -42 -18 -56t-71 -14h-48l-10 67h41q20 0 27 6t7 25v112zM838 192v130h-82v-130h82zM695 322h-80v-130h80v130zM674 714h227v-238h-502v-37q-1 -160 -22 -270
q-27 -139 -94 -259l-48 78q51 104 68 193q17 90 17 265v268h262q-14 56 -23 83l94 10q16 -68 21 -93zM553 322h-80v-130h80v130zM227 565v-665h-81v483q-34 -64 -63 -112l-41 88q117 211 171 445l86 -19q-31 -112 -72 -220z" />
    <glyph glyph-name="uni505A" unicode="&#x505a;" 
d="M492 92v212h-117v-212h117zM476 379h92v-362h-193v-48h-77v410h94v165h-116v77h116v177h84v-177h114v-77h-114v-165zM806 143q46 -69 140 -154l-47 -83q-87 79 -140 159q-62 -85 -160 -170l-53 74q108 93 166 177q-52 112 -72 276q-20 -39 -41 -70l-34 82q85 155 130 367
l85 -11q-22 -85 -48 -160h212v-78h-43q-15 -254 -95 -409zM760 230q53 117 64 322h-123v-3q11 -206 59 -319zM224 588v-687h-80v496q-36 -72 -61 -116l-43 83q100 184 163 437l83 -16q-26 -97 -62 -197z" />
    <glyph glyph-name="uni505C" unicode="&#x505c;" 
d="M860 397h-486v191h486v-191zM778 459v68h-324v-68h324zM675 716h262v-70h-626v70h272q-22 73 -23 77l92 9q12 -43 23 -86zM683 136v-142q0 -49 -24 -66q-23 -16 -91 -16h-111l-11 72h100q30 0 41 8q10 7 10 29v115h-214v68h465v-68h-165zM237 586v-685h-84v494
q-41 -81 -72 -128l-40 87q119 212 176 449l84 -22q-26 -93 -64 -195zM294 189v151h642v-151h-82v82h-478v-82h-82z" />
    <glyph glyph-name="uni5065" unicode="&#x5065;" 
d="M821 582v73h-93v-73h93zM821 517h-93v-72h93v72zM892 517v-136h-164v-68h175v-65h-175v-70h191v-65h-191v-98h-77v98h-160v65h160v70h-140v65h140v68h-129v64h129v72h-162v65h162v73h-125v64h125v84h77v-84h164v-137h50v-65h-50zM420 100q44 -49 105 -70t165 -21h252
l-13 -79h-245q-112 0 -182 25q-66 23 -117 76q-37 -65 -102 -135l-43 72q58 64 94 128q-47 72 -79 191l59 37q18 -83 54 -150q28 79 37 200h-131v76l129 200h-118v74h201v-78l-127 -198h119v-34q-11 -198 -58 -314zM217 577v-675h-77v489q-26 -54 -57 -109l-43 80
q102 185 160 442l80 -15q-27 -111 -63 -212z" />
    <glyph glyph-name="uni5076" unicode="&#x5076;" 
d="M581 599v92h-139v-92h139zM581 450v91h-139v-91h139zM802 599v92h-140v-92h140zM802 450v91h-140v-91h140zM749 71q-153 -15 -304 -21l-6 69q96 2 142 5v115h-173v-338h-81v406h254v79h-221v369h524v-369h-222v-79h257v-310q0 -51 -25 -69t-96 -18h-99l-10 67h93
q34 0 45 8t11 32v222h-182v-111q23 1 71 5q-10 28 -21 60l53 12q12 -29 61 -164l-57 -15q-7 22 -14 45zM240 569v-669h-83v498q-34 -62 -72 -120l-45 87q126 199 188 439l88 -22q-34 -115 -76 -213z" />
    <glyph glyph-name="uni5077" unicode="&#x5077;" 
d="M528 301v79h-127v-79h127zM528 157v82h-127v-82h127zM528 95h-127v-192h-73v543h274v-466q0 -41 -21 -56q-20 -14 -78 -14h-52l-10 71h45q26 0 34 6t8 24v84zM670 69v344h68v-344h-68zM689 -90l-12 75h74q34 0 45 8t11 32v428h75v-457q0 -52 -25 -69q-24 -17 -96 -17h-72
zM763 560v-49h-307v46q-65 -50 -144 -95l-45 73q206 107 310 266h69q104 -159 310 -266l-46 -73q-79 44 -147 98zM738 580q-71 61 -127 131q-54 -70 -127 -131h254zM235 551v-651h-82v486q-37 -67 -70 -116l-41 87q125 206 190 447l90 -21q-39 -122 -87 -232z" />
    <glyph glyph-name="uni507F" unicode="&#x507f;" 
d="M780 603l-60 51q46 45 110 117l65 -46q-45 -52 -115 -122zM449 608q-54 65 -101 117l60 45q61 -59 107 -112zM842 419v-76h-452v77h-82v176h264v201h91v-201h266v-177h-87zM842 420v101h-449v-101h449zM815 -46q-230 -12 -478 -21l-16 70q35 16 72 51q49 47 101 118h-192
v78h633v-78h-336q-80 -101 -136 -156q99 3 288 11q-38 42 -76 85l63 43q99 -103 191 -202l-69 -52q-24 29 -45 53zM240 573v-671h-84v484q-29 -57 -71 -124l-44 87q117 209 180 449l88 -21q-30 -105 -69 -204z" />
    <glyph glyph-name="uni5080" unicode="&#x5080;" 
d="M569 460h-145v-106h131q11 53 14 106zM573 529v15q1 45 1 91h-150v-106h149zM806 529v106h-149q0 -46 -1 -91q-1 -5 -1 -15h151zM806 354v106h-156q-3 -56 -12 -106h168zM874 125l74 -26q-9 -73 -16 -107q-9 -41 -35 -61q-30 -22 -84 -22h-117q-62 0 -89 26t-27 90v153
q-72 -141 -248 -282l-61 72q207 144 263 309h-191v435h170q16 46 31 92l97 -9q-11 -25 -35 -83h280v-435h-267q-12 -39 -25 -68h65v-60q27 42 60 116l59 -20q-39 -73 -68 -117q63 4 95 5q-11 26 -29 61l50 21q23 -39 48 -90zM870 71l-26 -17q-4 9 -14 29q-76 -7 -171 -10
v-32q0 -34 12 -46t45 -12h86q32 0 46 11t18 38q2 19 4 39zM244 576v-675h-84v494q-38 -70 -77 -129l-39 87q129 226 184 450l86 -20q-28 -102 -70 -207z" />
    <glyph glyph-name="uni5085" unicode="&#x5085;" 
d="M571 451v64h-152v-64h152zM571 330v63h-152v-63h152zM806 451v64h-152v-64h152zM806 330v63h-152v-63h152zM519 -35l-164 76l38 63q8 -4 70 -29q80 -34 94 -41zM821 224v-51h124v-68h-124v-96q0 -59 -30 -80q-29 -20 -112 -20h-95l-12 75h98q39 0 53 10q13 10 13 38v73
h-453v68h453v51h70v49h-152v-53h-83v53h-152v-60h-80v366h232v60h-262v67h262v94h83v-94h113q-15 44 -32 79l78 9q13 -31 34 -88h83v-67h-276v-60h233v-355h-66zM238 584v-683h-83v494q-36 -70 -72 -128l-39 85q118 222 172 451l86 -20q-24 -94 -64 -199z" />
    <glyph glyph-name="uni5088" unicode="&#x5088;" 
d="M488 410v117h-100v-117h100zM662 594v92h-98v-92h98zM662 410v117h-98v-117h98zM838 410v117h-100v-117h100zM738 594h171v-251h-591v251h170v92h-181v72h620v-72h-189v-92zM690 179q91 -100 257 -157l-43 -80q-169 74 -248 177v-218h-87v218q-91 -110 -255 -183l-47 74
q176 71 267 169h-244v71h279v65h87v-65h285v-71h-251zM239 591v-689h-84v490q-36 -70 -72 -125l-42 89q113 198 173 446l80 -19q-24 -106 -55 -192z" />
    <glyph glyph-name="uni508D" unicode="&#x508d;" 
d="M681 342h261v-72h-412q0 -32 -6 -78h338l-14 -163q-5 -66 -38 -88t-125 -22h-115l-10 74h124q47 0 62 10q16 10 18 43l5 74h-259q-20 -70 -65 -122q-42 -49 -126 -103l-61 71q104 61 142 122q39 63 43 182h-151v72h301q-26 58 -38 84l84 13q10 -21 42 -97zM761 526h159
v-145h-80v73h-446v-73h-79v145h164q-46 70 -52 79l86 15q22 -33 59 -94h95q42 66 59 95l89 -15q-3 -5 -54 -80zM677 711h237v-74h-583v74h252q-17 44 -35 84l91 11q16 -37 38 -95zM236 583v-682h-85v490q-31 -60 -68 -120l-41 85q117 215 175 448l85 -22q-30 -103 -66 -199z
" />
    <glyph glyph-name="uni50A3" unicode="&#x50a3;" 
d="M887 -45q-90 53 -232 129l42 64q111 -56 230 -119zM310 -32l-37 71q111 51 230 117l27 -68q-127 -74 -220 -120zM455 -89l-10 73h66q29 0 39 7t10 28v305h82v-331q0 -49 -24 -66q-23 -16 -90 -16h-73zM234 568v-668h-83v485q-32 -60 -69 -118l-40 88q122 211 177 447
l86 -21q-29 -109 -71 -213zM752 375q73 -94 196 -143l-33 -73q-59 28 -107 62q-17 -11 -107 -66l-41 62q51 28 90 53q-45 45 -80 105h-133q-34 -53 -88 -106q42 -24 83 -47l-37 -66q-35 24 -102 65q-42 -34 -103 -74l-39 70q129 79 190 158h-157v69h201q16 30 28 67h-176v67
h194q5 25 12 67h-225v68h232q1 8 6 88h87q-4 -57 -7 -88h268v-68h-277q-5 -38 -12 -67h263v-67h-280q-11 -37 -25 -67h360v-69h-181z" />
    <glyph glyph-name="uni50A8" unicode="&#x50a8;" 
d="M809 186v96h-194v-96h194zM809 24v96h-194v-96h194zM380 576q-30 75 -75 173l74 26q43 -92 77 -170zM351 -64l-48 60q23 26 23 60v374h-67v78h144v-428q36 30 67 60l36 -69q-81 -76 -155 -135zM690 622v-110h36q77 89 146 215l67 -37q-56 -99 -116 -178h118v-72h-180
q-38 -43 -92 -88h219v-451h-79v54h-194v-54h-78v352q-38 -25 -77 -49l-28 76q133 73 224 160h-194v72h149v110h-109v72h109v110h79v-110h111v-72h-111zM225 582v-683h-79v494q-30 -61 -63 -116l-42 86q105 194 159 442l86 -15q-27 -114 -61 -208z" />
    <glyph glyph-name="uni50AC" unicode="&#x50ac;" 
d="M826 654v110h84v-181h-554v181h84v-110h149v146h85v-146h152zM478 471h174q-15 39 -35 82l84 14q27 -63 40 -96h190v-67h-210v-83h193v-67h-193v-83h193v-66h-193v-87h220v-67h-489v-51h-84v391q-31 -41 -74 -87l-38 82q109 114 172 280l88 -12q-20 -48 -38 -83zM452 18
h185v87h-185v-87zM452 171h185v83h-185v-83zM452 321h185v83h-185v-83zM238 575v-676h-85v491q-29 -57 -69 -119l-42 86q120 210 176 446l90 -20q-32 -112 -70 -208z" />
    <glyph glyph-name="uni50B2" unicode="&#x50b2;" 
d="M812 153q46 -72 138 -158l-46 -91q-85 84 -137 167q-57 -91 -145 -173l-51 70q-11 -20 -37 -28q-24 -7 -76 -7h-58l-12 77h64q33 0 43 7t11 31l5 147h-102q-8 -94 -34 -159q-25 -64 -81 -135l-57 68q52 68 72 129t23 163q1 23 1 77h-68v70h139v78h-107v66h107v78h-122v68
h122v104h83v-104h122v-68h-122v-78h97v-66h-97v-78h125v-70h-198q0 -31 -2 -75h177l-8 -243q0 -25 -6 -41q94 86 148 176q-49 111 -68 262q-4 -8 -8 -15l-64 48q85 164 126 354l84 -13q-15 -62 -43 -150h195v-78h-44q-13 -242 -89 -410zM767 244q49 121 59 319h-104
q-5 -13 -10 -25q12 -185 55 -294zM224 578v-677h-80v486q-30 -59 -61 -112l-42 87q101 186 160 441l84 -15q-27 -112 -61 -210z" />
    <glyph glyph-name="uni50BB" unicode="&#x50bb;" 
d="M897 377h-169q138 -58 214 -93l-31 -60q-117 58 -225 105l36 48h-232l46 -46q-106 -64 -218 -122l-39 61q135 64 208 107h-145v346h176q15 47 24 82l96 -9q-14 -37 -29 -73h288v-346zM814 438v223h-389v-223h389zM736 661l43 -40q-37 -29 -97 -69q78 -44 106 -61l-39 -49
q-13 9 -123 75q-80 -48 -147 -77l-33 51q84 38 123 60q-82 46 -112 63l36 44q12 -6 133 -73q64 39 110 76zM703 37q88 -33 244 -53l-38 -76q-182 33 -285 83q-113 -54 -304 -94l-40 71q173 34 265 70q-51 38 -96 92q-48 -39 -104 -72l-48 57q146 82 235 185l78 -14
q-12 -16 -40 -46h272v-65q-60 -84 -139 -138zM623 75q69 37 124 102h-242q57 -67 118 -102zM244 568v-668h-85v494q-39 -69 -76 -126l-43 85q123 205 190 450l91 -24q-31 -104 -77 -211z" />
    <glyph glyph-name="uni50CF" unicode="&#x50cf;" 
d="M670 533q-6 -50 -18 -81h168v81h-150zM627 123q-131 -122 -324 -199l-33 68q214 75 344 199q-13 36 -20 49q-111 -102 -285 -164l-31 62q179 55 289 150q-9 13 -27 34q-82 -56 -234 -110l-35 64q184 50 249 113h-179v146l-10 -8l-51 61q138 95 206 218l91 -11
q-26 -42 -39 -61h263v-60l-68 -79h169v-206h-286q-12 -14 -19 -21q45 -48 70 -98q126 72 186 114l48 -59q-35 -23 -103 -63q22 -84 56 -138q33 -53 92 -103l-48 -73q-65 63 -102 126q-38 65 -60 153q-7 -3 -44 -23q17 -59 17 -151q0 -75 -33 -109q-34 -35 -109 -35h-86
l-10 68h83q40 0 58 17q19 18 19 63q0 38 -4 66zM589 533h-166v-81h143q17 34 23 81zM487 669q-37 -42 -73 -74h221l66 74h-214zM236 573v-671h-83v490q-37 -70 -69 -119l-41 88q112 198 175 443l89 -17q-33 -119 -71 -214z" />
    <glyph glyph-name="uni50DA" unicode="&#x50da;" 
d="M239 572v-667h-81v492q-32 -63 -77 -131l-41 87q122 200 184 448l86 -21q-30 -106 -71 -208zM770 338v70h-323v-70h323zM878 -67q-81 72 -165 142l52 55q107 -84 168 -135zM330 -71l-57 57q91 75 157 147l60 -46q-76 -83 -160 -158zM849 379v-228h-193v-151
q0 -54 -26 -72t-101 -18h-70l-10 73h76q30 0 40 7q9 7 9 28v133h-206v225q-13 -9 -63 -38l-41 66q83 43 140 88q-65 54 -93 76l49 48q38 -28 98 -77q45 48 72 108h-210v68h234q12 47 17 90l88 -5q-10 -48 -21 -85h286v-68h-237q32 -62 77 -109q55 39 104 78l50 -51
q-16 -13 -103 -73q55 -43 135 -74l-35 -71q-24 10 -66 32zM770 214v68h-323v-68h323zM722 470q-68 66 -113 165q-42 -94 -117 -165h230z" />
    <glyph glyph-name="uni50E7" unicode="&#x50e7;" 
d="M731 454l-50 33q51 68 75 110l52 -31q-49 -70 -77 -112zM782 151v80h-338v-80h338zM782 12v80h-338v-80h338zM782 -55h-338v-46h-85v397h508v-397h-85v46zM578 429v196h-182v-196h182zM833 429v196h-182v-196h182zM495 457q-11 18 -75 111l51 30q54 -78 74 -111zM760 693
h150v-332h-591v332h149q-41 65 -61 93l84 23q26 -38 76 -116h101q35 54 66 114l92 -18q-24 -36 -66 -96zM234 579v-680h-83v492q-32 -65 -71 -125l-40 87q113 199 177 447l84 -21q-32 -110 -67 -200z" />
    <glyph glyph-name="uni50F3" unicode="&#x50f3;" 
d="M755 220l-47 50q78 56 122 95l50 -47q-61 -52 -125 -98zM462 221q-42 38 -111 98l49 44q86 -69 115 -95zM909 369h-591v238h170v82h-178v70h619v-70h-190v-82h170v-238zM839 436v104h-100v-104h100zM686 149q93 -88 263 -139l-43 -77q-165 65 -253 159v-191h-81v193
q-89 -99 -257 -169l-45 73q178 61 270 151h-250v70h282v138h81v-138h285v-70h-252zM663 540h-99v-104h99v104zM663 607v82h-99v-82h99zM488 540h-100v-104h100v104zM238 590v-688h-84v488q-31 -63 -71 -123l-41 88q110 196 170 447l80 -20q-18 -85 -54 -192z" />
    <glyph glyph-name="uni50F5" unicode="&#x50f5;" 
d="M569 557v52h-158v-52h158zM569 464v53h-158v-53h158zM804 557v52h-159v-52h159zM804 464v53h-159v-53h159zM884 418h-553v237h553v-237zM569 174v52h-159v-52h159zM569 80v52h-159v-52h159zM805 174v52h-160v-52h160zM805 80v52h-160v-52h160zM884 33h-554v240h554v-240z
M305 703v55h618v-55h-618zM274 319v53h666v-53h-666zM267 -13h675v-55h-675v55zM226 579v-678h-80v494q-29 -58 -62 -112l-43 88q109 194 165 431l83 -14q-30 -122 -63 -209z" />
    <glyph glyph-name="uni50FB" unicode="&#x50fb;" 
d="M507 503v177h-124v-177h124zM516 49v197h-92v-197h92zM695 425q-38 98 -60 152l66 20q39 -93 60 -150zM826 692h101v-74h-308v74h124q-14 54 -29 103l83 11q13 -47 29 -114zM837 402h105v-74h-127v-138h114v-74h-114v-217h-82v217h-116v74h116v138h-128v74h160
q50 115 79 195l70 -20q-56 -130 -77 -175zM373 318h212v-343h-161v-59h-68v307q-26 -113 -87 -237l-42 80q87 170 83 422v264h270v-321h-198v-16q-3 -50 -9 -97zM223 588v-688h-79v495q-32 -65 -63 -119l-40 88q103 193 158 440l83 -15q-23 -98 -59 -201z" />
    <glyph glyph-name="uni5112" unicode="&#x5112;" 
d="M685 400v39h138v-39h-138zM687 487v40h127v-40h-127zM402 400v39h131v-39h-131zM726 147v-221h-68v221h-96v-222h-69v222h-96v-244h-76v306h198q9 35 17 70h-252v64h653v-64h-317l-20 -70h302v-225q0 -45 -22 -61q-21 -15 -84 -15h-48l-10 66h45q25 0 34 6q8 6 8 24v143
h-99zM407 487v40h126v-40h-126zM649 578v-201h-78v201h-201v-120h-74v179h275v61h-236v61h550v-61h-236v-61h276v-176h-75v117h-201zM231 586v-686h-81v496q-35 -70 -70 -126l-39 85q113 210 171 449l81 -22q-27 -99 -62 -196z" />
    <glyph glyph-name="uni5121" unicode="&#x5121;" 
d="M745 170v101h-68v-101h68zM745 14v102h-68v-102h68zM858 170v101h-67v-101h67zM858 14v102h-67v-102h67zM858 -47h-181v-46h-58v425h299v-424h-60v45zM558 604v83h-148v-83h148zM558 461v84h-148v-84h148zM785 604v83h-150v-83h150zM785 461v84h-150v-84h150zM865 396
h-535v356h535v-356zM398 170v101h-64v-101h64zM398 14v102h-64v-102h64zM507 170v101h-64v-101h64zM507 14v102h-64v-102h64zM507 -47h-173v-46h-58v425h290v-424h-59v45zM216 544v-645h-76v481q-26 -50 -61 -105l-37 87q117 219 170 437l82 -16q-37 -136 -78 -239z" />
    <glyph glyph-name="uni513F" unicode="&#x513f;" 
d="M131 -93l-74 74q137 111 180 229q38 105 36 283v292h97v-311q2 -190 -42 -309q-49 -133 -197 -258zM706 -91q-77 0 -111 35q-35 36 -35 116v729h98v-717q0 -37 15 -54q14 -16 48 -16h35q42 0 59 15q18 16 23 58q9 78 16 156l92 -21q-9 -108 -22 -186q-10 -63 -46 -89
t-116 -26h-56z" />
    <glyph glyph-name="uni5141" unicode="&#x5141;" 
d="M790 405l-144 -6v-332q0 -39 15 -55q14 -15 51 -15h43q41 0 59 15q17 15 24 54q10 65 13 121l91 -31q-5 -46 -19 -129q-11 -66 -45 -92t-111 -26h-83q-69 0 -101 32t-32 101v354q-49 -1 -147 -5q-1 -26 -2 -51q-5 -166 -66 -262q-61 -97 -215 -180l-59 80q135 72 188 149
q52 77 57 213q1 14 1 48q-99 -3 -199 -6l-17 81q50 22 79 53q141 135 251 290l112 -22q-117 -152 -272 -308q453 15 458 15q-33 40 -120 142l71 51q131 -147 253 -292l-78 -59q-44 57 -56 72z" />
    <glyph glyph-name="uni5143" unicode="&#x5143;" 
d="M656 388v-322q0 -41 15 -56q14 -14 51 -14h34q43 0 60 14q16 13 23 55q10 61 13 128l92 -32q-5 -55 -19 -136q-11 -66 -47 -92q-34 -24 -111 -24h-75q-134 -5 -133 132v347h-159q-1 -35 -3 -69q-8 -157 -66 -244q-57 -86 -210 -174l-59 82q131 71 183 144t57 200
q2 30 3 61h-239v91h866v-91h-276zM145 654v91h708v-91h-708z" />
    <glyph glyph-name="uni5144" unicode="&#x5144;" 
d="M840 315h-191v-251q0 -36 14 -51t46 -15h62q34 0 49 12q16 13 20 46q8 61 12 129l92 -32q-6 -75 -18 -140q-11 -56 -42 -80q-32 -24 -98 -24h-108q-66 0 -95 30q-30 31 -30 100v276h-144q0 -25 -3 -50q-14 -139 -74 -215q-62 -79 -219 -155l-57 82q141 63 195 128
q55 65 60 176l2 34h-161v441h688v-441zM743 403v263h-494v-263h494z" />
    <glyph glyph-name="uni5145" unicode="&#x5145;" 
d="M786 314q-47 -2 -135 -4v-251q0 -37 14 -51t50 -14h55q38 0 55 13q16 12 22 46q8 42 12 106l87 -29q-10 -76 -21 -131q-10 -48 -42 -69t-98 -21h-108q-64 0 -92 29t-28 96v273q-45 -2 -137 -4q-6 -165 -67 -248q-65 -88 -241 -157l-53 85q154 52 210 122q57 69 57 195
q-64 -2 -188 -4l-17 78q46 21 80 49q96 79 177 175h-306v85h397q-22 70 -38 111l106 10q22 -62 39 -121h353v-85h-428q-124 -130 -221 -215q143 3 421 13l-114 110l61 49q78 -67 266 -241l-68 -61q-19 20 -60 61z" />
    <glyph glyph-name="uni5146" unicode="&#x5146;" 
d="M709 433l-63 63q88 77 178 175l68 -57q-103 -109 -183 -181zM228 437q-88 104 -156 175l64 54q72 -72 163 -170zM319 403v393h91v-399q2 -157 -39 -258q-53 -131 -244 -245l-60 82q132 76 184 144q53 69 64 183q-105 -65 -213 -123l-42 87q153 77 259 136zM634 308v-240
q0 -43 15 -59t55 -16h61q41 0 58 14q18 14 24 51q10 62 13 117l82 -27q-5 -57 -17 -127q-10 -60 -44 -86t-103 -26h-100q-72 0 -103 32t-31 108v747h90v-392q145 -79 256 -142l-51 -81q-120 76 -205 127z" />
    <glyph glyph-name="uni5148" unicode="&#x5148;" 
d="M659 298v-239q0 -35 14 -49q13 -13 47 -13h62q32 0 48 13t21 44q7 42 11 112l87 -30q-8 -77 -17 -123q-11 -55 -42 -79q-33 -25 -97 -25h-108q-64 0 -93 29q-30 30 -30 96v264h-161q0 -9 -2 -31q-11 -138 -70 -215q-61 -80 -217 -152l-57 85q136 53 189 116q53 62 60 168
q1 11 1 29h-240v87h409v163h-222q-34 -67 -74 -126l-81 51q101 131 150 305l92 -15q-31 -88 -47 -128h182v169h95v-169h315v-87h-315v-163h370v-87h-280z" />
    <glyph glyph-name="uni5149" unicode="&#x5149;" 
d="M655 339v-279q0 -36 14 -50t48 -14h63q33 0 48 13t20 47q6 42 11 129l87 -32q-7 -67 -20 -140q-10 -55 -42 -79q-33 -25 -97 -25h-96q-68 0 -99 31t-31 100v299h-161q-1 -20 -2 -39q-11 -151 -70 -236q-61 -88 -216 -166l-59 83q136 60 190 131q54 70 61 192q2 22 3 35
h-244v87h391v377h92v-377h394v-87h-285zM283 488q-65 80 -168 198l67 54q76 -79 173 -192zM707 484l-66 60q91 98 170 199l72 -55q-65 -82 -176 -204z" />
    <glyph glyph-name="uni514B" unicode="&#x514b;" 
d="M545 525h292v-310h-192v-165q0 -33 15 -47t46 -14h67q35 0 52 13q16 12 21 42q9 57 12 99l88 -29q-8 -54 -21 -115q-16 -91 -129 -90h-127q-118 0 -118 121v185h-132q-9 -133 -75 -202q-69 -73 -237 -116l-51 87q147 31 204 82q56 50 63 149h-164v310h291v99h-379v84h379
v100h95v-100h381v-84h-381v-99zM744 295v151h-493v-151h493z" />
    <glyph glyph-name="uni514D" unicode="&#x514d;" 
d="M621 -91q-69 0 -99 29q-29 28 -29 95v158h88v-133q0 -40 15 -55t58 -15h107q38 0 56 13t24 46q9 49 12 107l86 -27q-9 -79 -20 -124q-13 -51 -45 -73q-31 -21 -94 -21h-159zM455 459h-220v-158h198q2 4 6 27q11 56 16 131zM756 301v158h-211q-3 -38 -17 -136
q-1 -9 -5 -22h233zM386 717h354v-65l-112 -117h215v-309h-343q-40 -109 -130 -187q-92 -80 -258 -147l-56 84q145 50 229 111q83 60 120 139h-256v250q-13 -11 -41 -31l-52 74q181 124 279 285l100 -13q-19 -31 -49 -74zM326 641q-51 -59 -105 -106h294l103 106h-292z" />
    <glyph glyph-name="uni5151" unicode="&#x5151;" 
d="M757 335v224h-517v-224h517zM399 643h158q97 144 108 161l102 -22q-49 -73 -98 -139h183v-392h-201v-191q0 -38 15 -53q14 -14 49 -14h59q35 0 52 13t22 44q8 51 13 110l86 -29q-8 -75 -20 -130q-18 -95 -130 -92h-120q-122 -3 -121 120v222h-145q-5 -141 -68 -216
q-65 -79 -236 -139l-56 86q151 45 207 104q57 59 58 165h-171v392h187q-49 75 -94 135l97 25q45 -60 103 -147z" />
    <glyph glyph-name="uni5154" unicode="&#x5154;" 
d="M723 59q-27 36 -99 119l63 39q98 -110 104 -117zM456 468h-221v-151h200q17 69 21 151zM759 317v151h-215q-4 -74 -19 -151h234zM489 203h79v-145q0 -40 15 -55q16 -15 60 -15h122q39 0 57 13t24 46q10 53 14 114l86 -29q-8 -67 -22 -129q-12 -52 -44 -73
q-31 -21 -97 -21h-174q-70 0 -100 29q-29 28 -29 95v151q-44 -90 -131 -159q-88 -70 -237 -131l-56 85q154 55 236 116q80 60 118 147h-262v228q-29 -22 -38 -28l-53 74q178 123 281 288l104 -11q-14 -22 -49 -73h350v-66l-107 -111h209v-301h-341v-3q-4 -19 -15 -36z
M334 645q-43 -52 -98 -102h289l96 102h-287z" />
    <glyph glyph-name="uni515A" unicode="&#x515a;" 
d="M795 182h-151v-130q0 -34 14 -48t49 -14h61q39 0 54 11t20 42q9 42 14 106l90 -29q-8 -63 -22 -123q-11 -47 -41 -67q-31 -21 -93 -21h-119q-62 0 -91 29q-30 30 -30 95v149h-113q-6 -115 -72 -176q-67 -62 -241 -110l-52 89q153 33 209 74q55 40 62 123h-140v292h592
v-292zM730 642h184v-201h-92v120h-645v-120h-91v201h180q-70 80 -109 119l93 25q57 -58 107 -121l-82 -23h177v161h95v-161h170l-77 23q58 58 110 119l93 -25q-45 -50 -113 -117zM702 262v132h-406v-132h406z" />
    <glyph glyph-name="uni515C" unicode="&#x515c;" 
d="M676 -91q-67 0 -95 29q-29 30 -29 98v169h92v-154q0 -35 13 -47t46 -12h75q36 0 51 13t20 47q7 49 10 101l87 -21q-6 -60 -18 -128q-9 -50 -39 -72q-31 -23 -94 -23h-119zM525 718h149v-465h-349v465h108q16 38 31 87l94 -10q-16 -39 -33 -77zM594 326v124h-189v-124h189
zM594 521v124h-189v-124h189zM96 -102l-39 87q146 27 201 65q51 35 59 105q4 34 4 49h93q0 -7 -5 -61q-9 -98 -74 -151q-70 -58 -239 -94zM121 204l-41 71q25 21 25 50v381q81 18 168 53l35 -79q-35 -13 -119 -36v-317q52 25 101 54l20 -82q-90 -50 -189 -95zM813 327v317
h-97v76h180v-470h-180v77h97z" />
    <glyph glyph-name="uni5162" unicode="&#x5162;" 
d="M893 236h-86v-222q0 -17 7 -26q7 -8 21 -8h8q17 0 25 8q7 8 9 27q7 50 10 108l63 -24q-7 -67 -15 -114q-7 -40 -27 -58t-60 -18h-37q-43 0 -62 21t-19 68v238h-65v-5q-5 -129 -38 -198t-123 -138l-58 64q81 55 110 109q31 58 32 163v5h-69v288h142v96h-157v80h157v102h85
v-102h184v-80h-184v-96h147v-288zM815 312v136h-219v-136h219zM453 236h-72v-191q45 34 90 72l29 -68q-75 -61 -172 -129l-44 64q12 15 16 27t4 35v190h-65v-6q-1 -126 -31 -195q-29 -66 -112 -138l-48 73q66 54 89 104q24 53 25 158v4h-69v288h139v96h-166v80h166v103h85
v-103h147v-80h-147v-96h136v-288zM375 312v136h-204v-136h204z" />
    <glyph glyph-name="uni5165" unicode="&#x5165;" 
d="M502 452q-54 -167 -141 -290q-90 -127 -243 -251l-64 87q160 121 249 252q90 134 139 324q-55 89 -145 169l76 52q68 -62 117 -133q50 -73 104 -193q74 -167 152 -270q76 -99 197 -190l-76 -91q-129 116 -203 222q-79 113 -156 298z" />
    <glyph glyph-name="uni5168" unicode="&#x5168;" 
d="M245 477h517v-85h-215v-129h284v-85h-284v-146h365v-86h-825v86h364v146h-280v85h280v129h-213v81q-66 -45 -141 -84l-50 82q287 146 413 330h88q61 -89 162 -171q106 -86 250 -159l-50 -82q-258 137 -405 316q-100 -121 -260 -228z" />
    <glyph glyph-name="uni516B" unicode="&#x516b;" 
d="M124 -88l-73 82q118 115 173 234q56 120 76 302q10 88 16 231l94 -5q-8 -164 -14 -222q-21 -207 -78 -340q-59 -137 -194 -282zM873 -84q-134 130 -198 271q-65 143 -84 358q-9 106 -14 223l91 3q8 -160 16 -229q21 -194 83 -318q59 -118 181 -221z" />
    <glyph glyph-name="uni516C" unicode="&#x516c;" 
d="M111 321l-61 80q195 148 299 376l89 -37q-121 -249 -327 -419zM893 331q-124 91 -197 186q-71 92 -132 239l85 32q55 -129 124 -213t177 -154zM756 -17q-306 -17 -612 -30l-19 83q36 17 73 59q62 71 133 174q77 111 119 197l93 -46q-101 -167 -267 -373q210 7 420 18
q-72 100 -133 181l70 49q133 -168 264 -341l-81 -55z" />
    <glyph glyph-name="uni516D" unicode="&#x516d;" 
d="M70 461v91h860v-91h-860zM507 569q-53 96 -111 193l94 36q55 -86 112 -188zM159 -88l-81 63q150 181 256 392l90 -46q-141 -252 -265 -409zM829 -79q-118 200 -254 401l81 46q136 -196 264 -393z" />
    <glyph glyph-name="uni5170" unicode="&#x5170;" 
d="M161 239v91h678v-91h-678zM65 -44v91h869v-91h-869zM350 602h203q91 127 138 201l94 -39q-104 -134 -126 -162h240v-91h-799v91h240q-70 96 -120 158l85 43q82 -102 124 -157z" />
    <glyph glyph-name="uni5171" unicode="&#x5171;" 
d="M730 299h215v-90h-891v90h215v235h-184v88h184v178h96v-178h268v178h97v-178h185v-88h-185v-235zM633 299v235h-268v-235h268zM128 -97l-58 80q165 90 297 187l67 -69q-159 -112 -306 -198zM855 -92q-169 115 -293 193l61 69q124 -75 294 -186z" />
    <glyph glyph-name="uni5173" unicode="&#x5173;" 
d="M553 284q41 -109 129 -175q90 -67 258 -112l-54 -91q-157 53 -246 119q-90 67 -139 169q-38 -94 -126 -161q-85 -65 -255 -133l-59 84q187 65 271 134q81 66 103 166h-362v87h372v2q5 72 5 153h-331v85h210q-49 69 -114 150l84 41q69 -83 123 -156l-67 -35h206
q84 112 131 192l95 -40q-52 -71 -119 -152h215v-85h-336q-2 -80 -5 -155h387v-87h-376z" />
    <glyph glyph-name="uni5174" unicode="&#x5174;" 
d="M59 285v90h882v-90h-882zM141 -98l-65 74q140 107 276 259l73 -63q-137 -146 -284 -270zM853 -89q-129 125 -282 262l66 64q117 -101 285 -253zM258 430q-70 131 -149 266l83 41q39 -64 150 -261zM732 427l-80 47q79 120 161 272l86 -40q-105 -182 -167 -279zM491 465
q-34 121 -88 295l91 23q53 -171 88 -295z" />
    <glyph glyph-name="uni5175" unicode="&#x5175;" 
d="M716 247h226v-85h-884v85h146v491q353 6 618 40l29 -87q-276 -26 -554 -35v-132h605v-85h-186v-192zM623 247v192h-326v-192h326zM880 -101q-234 125 -295 154l48 73q159 -76 294 -145zM106 -104l-45 81q170 74 299 151l50 -74q-169 -101 -304 -158z" />
    <glyph glyph-name="uni5176" unicode="&#x5176;" 
d="M899 -102q-214 85 -322 123l35 71q184 -61 323 -114zM796 196h147v-78h-886v78h147v423h-129v77h129v104h91v-104h409v104h92v-104h129v-77h-129v-423zM704 196v94h-409v-94h409zM704 363v92h-409v-92h409zM704 528v91h-409v-91h409zM97 -106l-36 78q119 37 317 123
l45 -72q-204 -90 -326 -129z" />
    <glyph glyph-name="uni5177" unicode="&#x5177;" 
d="M889 -100q-150 54 -322 107l33 67q162 -48 324 -95zM833 170h110v-74h-886v74h112v589h664v-589zM745 170v83h-488v-83h488zM745 316v83h-488v-83h488zM745 462v81h-488v-81h488zM745 605v82h-488v-82h488zM110 -104l-36 77q131 33 319 105l39 -68q-189 -77 -322 -114z
" />
    <glyph glyph-name="uni5178" unicode="&#x5178;" 
d="M859 205h75v-80h-866v80h74v484h211v113h85v-113h126v113h84v-113h211v-484zM775 205v167h-127v-167h127zM775 449v163h-127v-163h127zM564 205v167h-126v-167h126zM564 449v163h-126v-163h126zM353 205v167h-126v-167h126zM353 449v163h-126v-163h126zM891 -99
q-210 87 -317 126l33 71q149 -52 318 -116zM107 -104l-33 80q138 47 306 126l40 -73q-152 -74 -313 -133z" />
    <glyph glyph-name="uni5179" unicode="&#x5179;" 
d="M821 -22q-110 -6 -309 -14q7 -20 14 -39l-77 -26q-12 33 -26 75q-107 -7 -319 -17l-19 77q33 19 70 66q66 80 134 183q-94 -3 -189 -6l-16 72q29 17 59 55q57 71 113 175h-193v78h265q-62 80 -103 126l94 21q58 -66 112 -133l-41 -14h181q75 90 117 146l100 -19
q-41 -51 -108 -127h260v-78h-218q-92 -138 -160 -223q113 2 168 5q26 39 74 117l80 -41q-175 -254 -287 -390q128 4 191 7q-4 9 -55 124l74 30q86 -180 128 -275l-81 -33q-4 11 -33 78zM619 579h-262q-72 -110 -157 -221q94 2 143 4q54 86 68 110l76 -41
q-155 -236 -282 -391q96 4 191 9q-20 61 -46 127l73 24q32 -78 61 -159q30 24 59 58q51 62 133 182q-140 -4 -209 -6l-16 74q24 15 52 53q59 82 116 177z" />
    <glyph glyph-name="uni517B" unicode="&#x517b;" 
d="M697 184v-275h-89v281h79q-78 46 -132 128h-98q-2 -4 -8 -12q-46 -66 -131 -116h78q0 -26 -5 -78q-8 -78 -46 -126q-39 -49 -133 -97l-66 60q88 45 119 78q32 35 38 94q4 38 4 63q-78 -45 -208 -91l-42 81q209 60 287 139q2 2 4 5h-278v71h327q18 35 31 83h-284v71h297
q6 44 7 80h-341v71h208q-39 51 -77 95l97 19q33 -37 92 -114h152q67 87 85 113l98 -18q-18 -25 -75 -95h210v-71h-358q-3 -40 -8 -80h325v-71h-338q-9 -44 -26 -83h439v-71h-279q80 -94 295 -132l-37 -83q-138 40 -213 81z" />
    <glyph glyph-name="uni517C" unicode="&#x517c;" 
d="M545 557v79h-131v-79h131zM545 406v83h-131v-83h131zM545 250v84h-131v-84h131zM766 406v83h-137v-83h137zM766 334h-137v-84h137v84zM641 182q57 -60 125 -100q70 -41 171 -72l-43 -79q-169 63 -265 164v-197h-84v284h-131v-284h-84v189q-86 -91 -237 -160l-44 77
q190 72 277 178h-213v68h217v84h-272v72h272v83h-207v68h207v79h-265v71h244q-34 43 -70 84l99 16q22 -25 80 -100h141q42 54 72 100l101 -14q-37 -53 -64 -86h267v-71h-306v-79h220v-151h93v-72h-93v-152h-208z" />
    <glyph glyph-name="uni517D" unicode="&#x517d;" 
d="M59 232v68h882v-68h-882zM743 8v95h-486v-95h486zM743 -60h-486v-42h-90v273h666v-273h-90v42zM456 562v74h-237v-74h237zM456 428v73h-237v-73h237zM780 562v74h-238v-74h238zM780 428v73h-238v-73h238zM677 704h192v-344h-739v344h195q-59 71 -71 85l90 19
q57 -66 88 -104h138q50 57 83 104l93 -18q-46 -59 -69 -86z" />
    <glyph glyph-name="uni5180" unicode="&#x5180;" 
d="M578 -32l24 57l326 -64l-24 -64q-85 19 -326 71zM340 599q-94 -13 -272 -33l-8 59q138 10 280 27v43h-261v55h261v53h85v-244h-85v40zM458 425v55h-228v-55h228zM458 316v58h-228v-58h228zM623 208v56h-248v-56h248zM623 96v59h-248v-59h248zM771 425v55h-227v-55h227z
M771 316v58h-227v-58h227zM288 264h-145v268h715v-268h-148v-56h192v-53h-192v-59h232v-56h-884v56h230v59h-194v53h194v56zM70 -39q208 33 327 64l31 -58q-189 -47 -330 -73zM632 671q0 -27 13 -38q12 -10 46 -10h103q32 0 46 8q11 6 16 23q6 20 9 49l74 -22
q-9 -47 -15 -63q-9 -30 -34 -41q-24 -11 -79 -11h-156q-107 -3 -107 90v147h84v-75q164 31 260 55l29 -55q-144 -32 -289 -57z" />
    <glyph glyph-name="uni5185" unicode="&#x5185;" 
d="M552 642h326v-609q0 -68 -33 -91q-32 -22 -127 -22h-130l-14 91h124q52 0 69 12t17 49v483h-234q-1 -4 -1 -11q-5 -81 -18 -133q126 -104 235 -206l-66 -69q-56 55 -202 187q-51 -100 -202 -206l-64 76q130 80 176 157t48 194v11h-239v-646h-95v733h336v157h95
q0 -107 -1 -157z" />
    <glyph glyph-name="uni5188" unicode="&#x5188;" 
d="M105 -92v836h789v-710q0 -70 -35 -94q-34 -24 -131 -24h-126l-13 91h124q52 0 69 12t17 50v588h-600v-749h-94zM566 335q99 -103 185 -199l-74 -68q-79 93 -173 197q-110 -118 -218 -210l-64 73q114 89 219 205q-114 122 -199 206l66 59q98 -99 195 -197q79 90 159 205
l77 -49q-77 -109 -173 -222z" />
    <glyph glyph-name="uni5189" unicode="&#x5189;" 
d="M852 170v-147q0 -64 -32 -86q-31 -21 -119 -21h-122l-13 88h125q42 0 56 10q13 10 13 40v116h-521v-264h-90v264h-90v83h90v434h305v115h91v-115h307v-434h92v-83h-92zM760 253v136h-215v-136h215zM760 470v135h-215v-135h215zM454 253v136h-215v-136h215zM454 470v135
h-215v-135h215z" />
    <glyph glyph-name="uni518C" unicode="&#x518c;" 
d="M143 419v4v337h306v-341h99v4v337h312v-341h81v-85h-81v-327q0 -51 -25 -68t-96 -17h-81l-13 83h77q32 0 42 7t10 30v292h-141q-1 -164 -21 -253q-19 -85 -73 -183l-70 59q45 79 61 155q16 75 18 222h-99v-316q0 -51 -24 -68t-95 -17h-77l-13 82h69q33 0 44 8t11 31v280
h-135q-2 -156 -23 -246q-21 -89 -78 -192l-68 66q49 86 65 159q17 74 18 213h-85v85h85zM774 419v261h-141v-258v-3h141zM364 419v260h-135v-257v-3h135z" />
    <glyph glyph-name="uni518D" unicode="&#x518d;" 
d="M845 128v-107q0 -63 -31 -84q-29 -20 -116 -20h-114l-12 82h117q41 0 54 9t13 39v81h-513v-222h-89v222h-96v80h96v371h302v96h-374v80h836v-80h-374v-96h301v-371h97v-80h-97zM756 208v112h-212v-112h212zM756 394v112h-212v-112h212zM456 208v112h-213v-112h213z
M456 394v112h-213v-112h213z" />
    <glyph glyph-name="uni5192" unicode="&#x5192;" 
d="M116 439v319h769v-319h-92v252h-584v-252h-93zM254 458v54h495v-54h-495zM736 -59h-471v-43h-92v494h655v-493h-92v42zM736 2v73h-471v-73h471zM736 132v71h-471v-71h471zM736 260v71h-471v-71h471zM254 575v54h495v-54h-495z" />
    <glyph glyph-name="uni5195" unicode="&#x5195;" 
d="M631 -91q-59 0 -84 23q-27 25 -27 82v80h91v-61q0 -30 12 -41t45 -11h118q34 0 48 10q15 10 21 37t9 61l82 -24q-7 -42 -18 -82t-40 -57q-28 -17 -82 -17h-175zM257 603v54h470v-54h-470zM256 506v54h472v-54h-472zM105 494v267h776v-267h-90v207h-595v-207h-91zM855 116
h-342q-39 -79 -126 -128q-92 -52 -279 -94l-46 76q161 31 241 64q77 32 114 82h-256v142q-12 -8 -38 -24l-56 59q167 94 243 200l97 -10q-13 -19 -32 -39h372v-54l-71 -65h179v-209zM769 176v89h-215q-6 -50 -18 -89h233zM575 325l66 61h-319q-29 -28 -69 -61h322zM467 265
h-219v-89h201q13 35 18 89z" />
    <glyph glyph-name="uni5197" unicode="&#x5197;" 
d="M129 -105l-64 75q146 81 178 177q23 65 22 167v177h433v-431q0 -32 13 -46q11 -12 38 -12h34q30 0 45 12q14 12 18 38q6 43 14 135l87 -28q-6 -74 -20 -150q-10 -54 -41 -77t-93 -23h-71q-62 0 -90 30q-29 31 -29 97v365h-242v-87q2 -143 -41 -233q-48 -99 -191 -186z
M95 509v230h807v-229h-93v140h-620v-141h-94z" />
    <glyph glyph-name="uni5199" unicode="&#x5199;" 
d="M89 557v195h821v-196h-92v115h-639v-114h-90zM312 545h508v-78h-520l-16 -106h590l-17 -311q-4 -80 -43 -107t-150 -27h-158l-13 86h165q62 0 83 14q22 15 24 59l11 207h-597l52 346h94zM60 106v80h646v-80h-646z" />
    <glyph glyph-name="uni519B" unicode="&#x519b;" 
d="M582 37v-139h-93v139h-429v79h429v114h-329v79q66 86 116 158h-180v80h234q38 60 60 102l105 -6q-28 -48 -60 -96h468v-80h-522q-68 -98 -115 -159h223v113h93v-113h290v-78h-290v-114h359v-79h-359zM93 591v165h819v-165h-91v85h-637v-85h-91z" />
    <glyph glyph-name="uni519C" unicode="&#x519c;" 
d="M515 568q43 -151 103 -244q112 72 189 132l62 -69q-93 -69 -197 -135q94 -110 279 -202l-58 -85q-180 101 -277 212q-95 108 -152 275q-34 -64 -84 -128v-291q111 43 203 85l19 -92q-162 -72 -306 -126l-45 83q38 27 38 77v165q-80 -76 -199 -155l-44 91q153 93 245 200
q90 104 138 237h-224v-137h-92v222h343q12 47 21 120h98q-9 -60 -23 -120h349v-197h-93v112h-282q-1 -6 -4 -11q-4 -12 -7 -19z" />
    <glyph glyph-name="uni51A0" unicode="&#x51a0;" 
d="M620 214q-42 71 -90 137l64 39q65 -89 93 -131zM124 482v81h332v-81h-332zM424 295v-243q0 -35 15 -49q16 -15 53 -15h282q41 0 60 15q17 13 23 46q9 44 12 116l78 -22q-6 -71 -17 -128q-11 -55 -44 -80q-35 -26 -102 -26h-318q-67 0 -96 30t-29 95v261h-87q0 -30 -2 -62
q-6 -117 -32 -183q-30 -75 -111 -154l-61 65q70 62 95 123q23 55 26 151l2 60h-102v80h431v-80h-76zM818 581v-67h109v-80h-109v-270q0 -59 -28 -79q-27 -19 -108 -19h-98l-11 81h99q38 0 51 9t13 36v242h-236v80h236v85h80v75h-642v-100h-91v180h823v-173h-88z" />
    <glyph glyph-name="uni51A4" unicode="&#x51a4;" 
d="M740 28q-38 38 -100 98l55 40q50 -47 100 -93zM94 566v187h815v-191h-91v114h-633v-110h-91zM466 365h-217v-114h198q14 54 19 114zM771 251v114h-216q-5 -60 -19 -114h235zM503 157h78v-110q0 -38 14 -51q12 -12 49 -12h130q36 0 52 11q15 11 21 39q8 38 13 84l84 -26
q-5 -43 -18 -98q-11 -46 -42 -66q-30 -19 -90 -19h-181q-62 0 -90 26t-28 86v120q-45 -82 -135 -139q-92 -58 -257 -108l-42 85q163 45 242 89t115 111v2h-256v177q-49 -33 -66 -43l-32 83q189 104 298 259l93 -13q-28 -38 -42 -56h319v-59l-79 -94h204v-254h-343
q-3 -8 -11 -24zM354 520q-42 -45 -91 -85h285l72 85h-266z" />
    <glyph glyph-name="uni51AC" unicode="&#x51ac;" 
d="M697 119q-247 51 -422 79l31 81q154 -25 421 -75zM765 -100q-319 62 -610 108l32 89q279 -45 605 -106zM602 427q138 -55 344 -77l-28 -95q-268 48 -411 120q-161 -79 -425 -138l-30 94q214 35 365 98q-81 57 -151 143q-57 -59 -135 -119l-47 76q165 120 260 277l97 -15
q-27 -41 -54 -78h445v-83q-102 -123 -230 -203zM509 473q122 66 202 158h-386q83 -99 184 -158z" />
    <glyph glyph-name="uni51AF" unicode="&#x51af;" 
d="M799 397h115l-18 -351q-4 -78 -42 -104t-147 -26h-136l-13 87h158q53 0 70 12t19 50l14 248h-484l32 312h92l-24 -228h271l27 275h-431v84h531zM277 115v84h474v-84h-474zM148 -42l-90 30q66 180 124 376l85 -29q-52 -183 -119 -377zM179 470q-73 169 -112 254l77 34
q71 -141 120 -252z" />
    <glyph glyph-name="uni51B0" unicode="&#x51b0;" 
d="M279 0l-54 84q89 98 133 192q42 89 64 217h-126v84h212v-94q-26 -151 -72 -251q-50 -107 -157 -232zM152 -48l-92 29q65 206 112 388l91 -30q-51 -195 -111 -387zM175 479q-53 133 -103 250l82 27q73 -157 109 -245zM650 411v-401q0 -58 -28 -77q-27 -19 -108 -19h-95
l-14 89h94q37 0 48 8q12 8 12 35v752h91v-162q20 -85 50 -166q71 61 169 163l60 -70q-93 -89 -193 -174q78 -160 215 -286l-60 -84q-171 188 -241 392z" />
    <glyph glyph-name="uni51B2" unicode="&#x51b2;" 
d="M812 204h-152v-302h-91v302h-155v-52h-86v470h241v179h91v-179h238v-469h-86v51zM812 288v250h-152v-250h152zM569 288v250h-155v-250h155zM183 478q-52 116 -116 251l80 34q32 -61 124 -248zM150 -54l-90 31q61 176 122 388l88 -30q-56 -200 -120 -389z" />
    <glyph glyph-name="uni51B3" unicode="&#x51b3;" 
d="M209 478q-41 71 -136 229l75 38q95 -144 143 -223zM148 -32l-89 33q69 188 132 378l87 -36q-53 -162 -130 -375zM621 261q79 -183 319 -267l-53 -88q-126 58 -201 125q-80 71 -124 171q-31 -88 -103 -163q-66 -69 -182 -143l-63 78q130 71 193 136q64 67 84 151h-205v86
h215q3 57 5 218h-179v83h179v152h94q0 -76 -1 -152h251v-301h91v-86h-320zM597 565q-1 -62 -6 -218h169v218h-163z" />
    <glyph glyph-name="uni51B5" unicode="&#x51b5;" 
d="M142 -49l-90 39q74 181 142 371l90 -34q-80 -224 -142 -376zM190 474q-77 148 -130 242l78 37q43 -69 139 -241zM877 324h-142v-281q0 -26 10 -37q9 -10 33 -10h30q25 0 37 10q11 10 15 34q7 44 9 123l80 -29q-6 -75 -17 -137q-8 -46 -35 -67t-81 -21h-57q-62 0 -88 27
t-26 89v299h-108q-2 -169 -51 -254q-50 -88 -199 -176l-58 75q128 66 174 140q45 75 44 215h-114v432h544v-432zM784 408v264h-359v-264h359z" />
    <glyph glyph-name="uni51B6" unicode="&#x51b6;" 
d="M826 436q-167 -9 -514 -23l-18 78q32 14 61 46q96 110 192 268l93 -37q-81 -116 -211 -267q192 5 343 13q-47 68 -95 136l72 38q110 -147 200 -275l-77 -45zM781 -46h-345v-54h-91v412h527v-412h-91v54zM781 35v196h-345v-196h345zM143 -42l-91 35q76 204 131 374l87 -31
q-56 -182 -127 -378zM189 480q-96 185 -126 237l79 38q46 -78 132 -237z" />
    <glyph glyph-name="uni51B7" unicode="&#x51b7;" 
d="M189 484q-96 197 -115 233l78 32q48 -84 120 -228zM154 -55l-90 28q69 212 118 387l85 -30q-59 -219 -113 -385zM561 800h80q106 -192 318 -318l-45 -87q-198 129 -313 296q-114 -167 -313 -296l-45 87q216 127 318 318zM664 36q100 -63 116 -73l-57 -71
q-237 156 -369 235l52 67q140 -85 182 -111q58 57 170 175h-440v84h558v-86q-141 -149 -212 -220zM605 369q-49 72 -99 139l73 41q58 -73 104 -138z" />
    <glyph glyph-name="uni51BB" unicode="&#x51bb;" 
d="M675 291v-285q0 -53 -27 -72q-26 -18 -100 -18h-93l-13 87h93q32 0 42 7t10 31v250h-262v84q56 107 105 221h-136v84h173q24 58 48 125l97 -10q-38 -91 -49 -115h367v-84h-405q-80 -171 -106 -222h168v152h88v-152h247v-83h-247zM333 -48l-75 49q84 110 155 236l80 -37
q-65 -113 -160 -248zM186 475q-40 92 -112 247l81 32q37 -73 119 -245zM151 -57l-90 35q71 195 128 383l87 -33q-63 -210 -125 -385zM872 -44l-156 236l73 43q85 -115 160 -229z" />
    <glyph glyph-name="uni51C0" unicode="&#x51c0;" 
d="M791 384v98h-162v-98h162zM791 211v98h-162v-98h162zM173 463q-26 72 -103 259l81 28q90 -210 107 -256zM153 -29l-89 27q48 156 98 361l86 -27q-42 -175 -95 -361zM519 727h286v-68l-89 -103h161v-172h67v-75h-67v-229h-86v57h-162v-121q0 -60 -30 -81q-29 -20 -112 -20
h-97l-13 84h94q42 0 56 10t14 40v88h-233v74h233v98h-267v75h267v98h-206v34q-6 -6 -13 -12l-55 68q120 102 201 235l95 -12q-26 -42 -44 -68zM464 653q-36 -45 -86 -97h233l84 97h-231z" />
    <glyph glyph-name="uni51C4" unicode="&#x51c4;" 
d="M172 476q-65 158 -107 249l78 30q69 -147 111 -246zM143 -40l-87 25q45 148 106 388l83 -25q-46 -192 -102 -388zM795 478v64h-168v-64h168zM795 350v64h-168v-64h168zM811 153q-44 -75 -104 -120q161 -48 214 -65l-43 -68q-113 39 -251 85q-120 -54 -358 -89l-29 73
q183 21 281 51q-149 47 -191 60q34 36 64 73h-146v67h201q24 31 46 65h-180v65h225v64h-282v64h282v64h-218v65h218v60h-257v67h257v67h87v-67h287v-67h-287v-60h249v-129h67v-64h-67v-129h-279q-8 -10 -50 -65h392v-67h-128zM716 153h-225q-35 -42 -41 -49q68 -18 166 -45
q60 33 100 94z" />
    <glyph glyph-name="uni51C6" unicode="&#x51c6;" 
d="M153 -49l-92 28q56 171 110 371l89 -27q-54 -206 -107 -372zM174 473q-32 88 -102 252l81 30q74 -162 108 -248zM633 439v125h-195v-125h195zM633 241v123h-195v-123h195zM633 37v129h-195v-129h195zM459 640h197q-38 106 -53 142l91 15q17 -43 57 -157h182v-76h-211
v-125h199v-75h-199v-123h199v-75h-199v-129h221v-76h-505v-61h-90v556q-34 -48 -75 -96l-36 91q123 151 193 355l95 -17q-35 -88 -66 -149z" />
    <glyph glyph-name="uni51C9" unicode="&#x51c9;" 
d="M669 695h267v-81h-650v81h280q-12 41 -32 99l104 10q19 -60 31 -109zM874 -45q-72 97 -152 194l70 42q77 -94 154 -187zM304 -51l-63 58q100 92 170 189l72 -47q-78 -97 -179 -200zM185 472q-44 102 -114 249l81 32q56 -108 120 -246zM147 -45l-89 34q76 209 127 373
l87 -33q-65 -210 -125 -374zM572 240h-223v289h522v-289h-210v-243q0 -51 -25 -69q-24 -17 -95 -17h-95l-13 85h83q26 0 38 4q19 7 18 35v205zM783 317v135h-347v-135h347z" />
    <glyph glyph-name="uni51CB" unicode="&#x51cb;" 
d="M168 468q-45 119 -99 253l78 28q68 -154 104 -249zM147 -24l-87 24q59 203 97 364l84 -27q-43 -182 -94 -361zM640 426h143v-70h-363v70h142v84h-119v69h119v77h78v-77h120v-69h-120v-84zM281 -106l-78 46q59 95 79 179q20 86 20 251v385h601v-745q0 -58 -29 -78
t-109 -20h-93l-10 79h91q40 0 53 9t13 38v643h-434v-310q1 -182 -22 -281q-22 -100 -82 -196zM742 33h-287v248h287v-248zM671 102v110h-144v-110h144z" />
    <glyph glyph-name="uni51CC" unicode="&#x51cc;" 
d="M175 473q-47 124 -104 255l81 28l108 -252zM309 278l-42 65q108 50 224 125l46 -53q-141 -89 -228 -137zM908 293q-137 72 -241 121l42 53q96 -43 230 -108zM153 -53l-89 24q54 195 98 382l84 -27q-41 -189 -93 -379zM656 548h275v-74h-640v74h274v85h-230v74h230v95h91
v-95h231v-74h-231v-85zM691 62q97 -43 254 -73l-40 -82q-187 44 -293 104q-115 -64 -323 -116l-40 80q185 40 286 87q-56 44 -102 109q-52 -49 -110 -91l-55 60q151 100 239 229l82 -12q-7 -11 -37 -53h286v-78q-64 -101 -147 -164zM613 105q75 49 129 127h-250l-4 -4
q53 -75 125 -123z" />
    <glyph glyph-name="uni51CF" unicode="&#x51cf;" 
d="M851 658q-27 33 -86 96l53 36q37 -37 87 -93zM162 481q-6 15 -96 234l73 27q50 -116 99 -231zM133 11l-80 25q48 153 98 350l76 -25q-38 -160 -94 -350zM394 426v71h234v-71h-234zM783 144q7 -32 22 -80q19 -57 43 -57q16 0 22 33q7 39 16 139l64 -24q-9 -92 -21 -158
q-8 -41 -28 -65q-21 -25 -52 -25q-40 0 -73 38q-34 38 -52 104v3q-47 -67 -122 -147l-60 53q94 95 158 196q-24 136 -36 386q-1 19 -2 39h-307v-191q0 -173 -21 -273q-21 -103 -83 -216l-75 46q58 105 78 198q20 92 20 249v265h385q-2 73 -3 145h81q1 -65 3 -145h201v-78
h-198q1 -21 1 -41q6 -163 18 -272q48 98 88 233l72 -31q-62 -190 -139 -324zM619 47h-218v296h218v-296zM466 114h88v161h-88v-161z" />
    <glyph glyph-name="uni51D1" unicode="&#x51d1;" 
d="M172 477q-46 114 -101 241l78 28l106 -238zM142 -23l-88 28q61 197 106 370l85 -27q-43 -172 -103 -371zM745 388q72 -94 203 -141l-32 -75q-118 55 -181 116v-40h-110q-2 -47 -3 -58l-2 -14h232v-66h-244q-1 -5 -5 -15q153 -62 294 -123l-37 -73q-162 78 -287 135
q-34 -47 -100 -79q-67 -32 -191 -61l-38 76q134 28 199 61q61 31 81 79h-212v66h227l2 16q3 27 3 56h-113v42q-66 -63 -164 -128l-42 71q122 75 189 155h-149v67h196q16 27 31 65h-170v64h190q4 13 10 39v3q2 8 3 16l2 8h-234v67h245q5 29 9 88h87q-5 -56 -10 -88h278v-67
h-288q0 -3 -2 -13t-2 -12v-3q-4 -19 -9 -38h273v-64h-293q-11 -31 -27 -65h379v-67h-188zM714 311q-29 33 -56 77h-144q-23 -35 -62 -77h262z" />
    <glyph glyph-name="uni51DB" unicode="&#x51db;" 
d="M305 203v56h573v-56h-573zM644 92v-97q0 -50 -25 -67t-94 -17h-87l-11 66h76q34 0 44 7q11 8 11 32v76h-314v59h693v-59h-293zM908 -77q-74 37 -205 95l33 57q110 -44 207 -89zM245 -82l-34 63q118 47 214 96l37 -56q-98 -52 -217 -103zM648 728h286v-58h-682v58h298
q-15 46 -24 71l98 8q2 -5 24 -79zM891 308h-599v313h599v-313zM810 360v209h-437v-209h437zM745 402h-308v125h308v-125zM680 440v49h-178v-49h178zM135 -14l-86 28q60 181 111 366l80 -25q-58 -219 -105 -369zM162 472q-51 125 -103 250l76 29q85 -191 108 -247z" />
    <glyph glyph-name="uni51DD" unicode="&#x51dd;" 
d="M129 -33l-78 19q47 208 80 388l77 -22q-30 -170 -79 -385zM144 479q-37 106 -86 239l72 22q52 -128 90 -233zM826 473h111v-72l-27 -100l-61 9l27 90h-84v-158h132v-72h-132v-161h14h139l-13 -75h-132q-62 0 -104 29q-41 29 -68 89q-19 -72 -71 -158l-58 56q44 65 61 117
q18 57 22 154q1 51 2 103l68 -5q-1 -50 -3 -99q0 -18 -2 -48q25 -98 71 -135v363h-164v73h173q-72 72 -123 119l50 49q28 -27 88 -85q99 113 107 123h-269v73h346v-92q-78 -92 -133 -154q18 -17 33 -33zM440 336q0 -55 -3 -104h103v-71h-110q-4 -21 -7 -34q76 -63 117 -98
l-48 -65q-47 47 -95 92q-38 -77 -145 -155l-55 63q72 48 108 93t49 104h-133v71h142q2 26 4 104h-49q-21 -46 -42 -79l-57 42q51 78 76 170l70 -10q-16 -49 -18 -53h181v-70h-88zM336 626v-23q0 -30 10 -41t36 -11h45q24 0 35 8q11 9 16 30q6 27 7 54l64 -22q-4 -37 -12 -67
q-15 -70 -97 -68h-87q-47 0 -69 24t-22 77v210h74v-103q95 30 174 63l29 -66q-101 -37 -203 -65z" />
    <glyph glyph-name="uni51E0" unicode="&#x51e0;" 
d="M125 -92l-68 77q129 114 158 239q20 86 19 225v304h473v-681q0 -40 13 -55q12 -14 42 -14h26q51 -3 59 56q6 40 10 112l89 -26q-5 -68 -15 -127q-9 -57 -41 -83t-96 -26h-61q-63 0 -94 34q-31 35 -31 108v611h-278v-242q0 -183 -41 -289q-44 -114 -164 -223z" />
    <glyph glyph-name="uni51E1" unicode="&#x51e1;" 
d="M117 -101l-63 83q103 98 132 213q23 92 22 249v306h513v-687q0 -36 12 -49q11 -12 37 -12h25q27 0 40 12q12 12 17 43q9 74 12 106l85 -26q-5 -47 -18 -123q-10 -56 -39 -80q-30 -25 -88 -25h-56q-60 0 -89 29q-33 33 -33 105v618h-325v-250q0 -188 -35 -290
q-38 -110 -149 -222zM501 226q-74 99 -166 207l71 54q123 -140 171 -200z" />
    <glyph glyph-name="uni51E4" unicode="&#x51e4;" 
d="M553 223q106 -110 152 -159l-66 -67q-65 76 -139 156q-86 -97 -228 -178l-55 74q147 80 224 168q-92 100 -159 170l61 53q75 -77 149 -153q51 82 73 206h-297v79h385v-77q-27 -158 -100 -272zM116 -99l-67 72q54 94 69 177q16 86 16 291v314h680v-400q0 -224 16 -301
q6 -36 22 -36q8 0 12 8t8 33q12 82 14 152l67 -23q-8 -108 -23 -184q-10 -51 -30 -73t-55 -22q-34 0 -59 26q-27 28 -38 80q-22 103 -22 333v323h-503v-258q0 -198 -21 -299q-21 -103 -86 -213z" />
    <glyph glyph-name="uni51ED" unicode="&#x51ed;" 
d="M110 -105l-48 84q126 29 168 72q39 39 39 127v53h424v-189q0 -29 11 -41q10 -11 36 -11h47q51 -2 58 49q8 49 12 104l87 -24q-6 -52 -21 -124q-17 -86 -120 -86h-95q-57 0 -83 27t-26 88v130h-241v-20q0 -89 -56 -144q-57 -56 -192 -95zM257 651v-371h-86v264
q-37 -45 -89 -97l-38 86q127 119 206 273l79 -44q-33 -56 -72 -111zM665 386h231v-74h-550v74h227v105h-264v74h264v107q-136 -6 -202 -8l-13 78q273 5 505 23l16 -76q-107 -7 -214 -13v-111h270v-74h-270v-105z" />
    <glyph glyph-name="uni51EF" unicode="&#x51ef;" 
d="M493 -106l-64 72q71 93 91 172t20 264v351h284v-726q0 -33 23 -33h7q15 0 22 8t9 32q5 49 7 166l61 -17q-7 -133 -10 -169q-5 -57 -26 -81t-67 -24h-22q-87 0 -87 95v665h-119v-265q1 -185 -22 -287q-26 -114 -107 -223zM399 585v167h69v-239h-383v240h72v-168h82v220h77
v-220h83zM375 253v107h-301v75h381v-257h-270v-149q102 16 247 48v-82q-169 -35 -333 -64l-24 76q31 17 30 56v190h270z" />
    <glyph glyph-name="uni51F0" unicode="&#x51f0;" 
d="M483 605h193v-285h-401v285h122q15 52 19 71l89 -9q-6 -20 -22 -62zM600 380v56h-250v-56h250zM600 490v54h-250v-54h250zM515 17h216v-63h-511v63h215v65h-170v61h170v61h-189v64h459v-64h-190v-61h172v-61h-172v-65zM113 -98l-64 73q50 90 64 172q15 86 15 290v317h696
v-399q0 -219 12 -298q6 -45 21 -45q13 0 18 47q8 50 12 146l64 -23q-7 -109 -19 -177q-10 -53 -30 -75q-19 -21 -54 -21q-33 0 -56 29t-32 81q-17 93 -17 329v329h-535v-273q0 -191 -19 -291t-76 -211z" />
    <glyph glyph-name="uni51F3" unicode="&#x51f3;" 
d="M718 373v72h-436v-72h436zM123 -107l-46 75q117 14 162 41q40 24 40 72v34h414v-90q0 -26 11 -36t39 -10h48q28 0 39 9q10 8 16 32q5 20 8 52l82 -29q-5 -33 -15 -66q-12 -38 -35 -53q-24 -15 -78 -15h-100q-103 0 -103 88v53h-245q0 -63 -49 -97q-53 -37 -188 -60z
M805 480v-166h-609v157q-59 -29 -110 -49l-31 73q98 32 169 73q-71 48 -115 75l51 46q101 -65 126 -82q53 39 100 94h-284v63h374v-62q-39 -52 -74 -87h213q-60 69 -109 180l79 7q19 -42 42 -79q106 45 168 75l46 -50q-80 -35 -176 -76q17 -20 47 -47q94 38 167 74l46 -52
q-93 -41 -153 -64q67 -41 171 -73l-30 -74q-56 20 -108 44zM754 506q-52 29 -100 70v-20h-303v13q-42 -34 -91 -63h494zM691 230h240v-65h-858v65h237q-25 30 -51 60l83 22q34 -37 71 -82h175q50 59 69 83l84 -24q-21 -27 -50 -59z" />
    <glyph glyph-name="uni51F6" unicode="&#x51f6;" 
d="M803 -45h-699v665h93v-578h606v578h93v-715h-93v50zM565 434q115 -144 203 -264l-80 -62q-108 153 -182 248q-100 -129 -224 -250l-65 76q127 118 230 251q-98 126 -231 286l73 54q87 -103 216 -262q92 129 170 275l84 -44q-94 -168 -194 -308z" />
    <glyph glyph-name="uni51F8" unicode="&#x51f8;" 
d="M803 -38h-605v-62h-92v569h185v287h418v-287h186v-569h-92v62zM803 49v333h-186v286h-234v-286h-185v-333h605z" />
    <glyph glyph-name="uni51F9" unicode="&#x51f9;" 
d="M803 -32h-607v-69h-90v847h321v-376h145v377h322v-848h-91v69zM803 54v607h-145v-375h-318v374h-144v-606h607z" />
    <glyph glyph-name="uni51FA" unicode="&#x51fa;" 
d="M763 464v246h92v-333h-308v-338h248v242h91v-373h-91v43h-683v330h92v-242h248v338h-308v333h92v-246h216v334h95v-334h216z" />
    <glyph glyph-name="uni51FB" unicode="&#x51fb;" 
d="M773 -50h-639v297h92v-212h225v294h-394v85h394v156h-336v84h336v149h96v-149h338v-84h-338v-156h394v-85h-394v-294h226v214h92v-347h-92v48z" />
    <glyph glyph-name="uni51FD" unicode="&#x51fd;" 
d="M341 74l-11 77h76q38 0 50 9t12 36v374l216 110h-516v82h659v-90l-272 -145v-357q0 -57 -28 -77q-27 -19 -106 -19h-80zM812 -59h-712v625h88v-544h624v543h88v-666h-88v42zM240 170l-45 72q130 78 206 131l46 -67q-104 -74 -207 -136zM371 387q-70 64 -143 122l55 55
q112 -89 146 -118zM754 163q-90 72 -186 143l51 59q114 -82 187 -136zM643 377l-52 58q77 56 146 120l56 -54q-71 -65 -150 -124z" />
    <glyph glyph-name="uni51FF" unicode="&#x51ff;" 
d="M800 -57h-684v500h85v-426h599v426h84v-544h-84v44zM645 589h295v-74h-875v74h290v213h86v-213h118v213h86v-213zM754 600l-56 55q67 65 119 126l62 -52q-103 -108 -125 -129zM242 605q-68 72 -120 124l60 53q62 -59 119 -122zM439 380h94q62 89 79 118l77 -24
q-31 -43 -70 -94h139v-71h-216v-86h195v-71h-195v-105h-85v105h-194v71h194v86h-216v71h140q-35 47 -71 94l74 24q33 -43 78 -108z" />
    <glyph glyph-name="uni5200" unicode="&#x5200;" 
d="M447 634q-3 -88 -9 -166q-11 -198 -79 -324q-67 -127 -232 -243l-70 78q152 107 211 213q59 105 69 285q7 100 9 157h-245v92h781l-26 -651q-1 -71 -33 -102q-39 -38 -166 -36h-158l-14 99h156q70 0 93 16q22 16 24 66l19 516h-330z" />
    <glyph glyph-name="uni5201" unicode="&#x5201;" 
d="M480 -69l-14 99h169q73 0 98 17q24 17 26 69l18 516h-660v95h764l-26 -654q-3 -86 -44 -114q-40 -28 -160 -28h-171zM128 106l-49 101q287 137 584 290l32 -101q-276 -147 -567 -290z" />
    <glyph glyph-name="uni5203" unicode="&#x5203;" 
d="M161 239l-84 49q82 126 134 258l86 -41q-58 -129 -136 -266zM514 642q-5 -82 -14 -178q-19 -201 -96 -324q-79 -126 -262 -241l-70 78q175 111 244 215t87 282q6 67 11 168h-314v93h782l-27 -666q-4 -83 -43 -110t-156 -27h-158l-15 96h157q72 0 95 16t25 67l18 531h-264
z" />
    <glyph glyph-name="uni5206" unicode="&#x5206;" 
d="M898 352q-123 83 -201 180q-81 99 -136 239l82 33q53 -128 125 -212q71 -84 180 -148zM191 420h598l-15 -362q-4 -80 -42 -106q-39 -27 -151 -27h-119l-13 89h137q56 0 75 13q18 13 20 53l10 255h-271q-2 -31 -8 -76q-15 -129 -74 -207q-63 -83 -212 -157l-56 81
q128 59 185 128q53 64 65 164q3 21 7 67h-140v81q-36 -32 -88 -71l-48 92q202 133 306 357l87 -38q-98 -198 -253 -336z" />
    <glyph glyph-name="uni5207" unicode="&#x5207;" 
d="M618 658q-6 -171 -6 -179q-7 -224 -53 -344q-46 -119 -175 -239l-76 66q121 110 163 209q42 100 47 300q5 111 6 187h-142v89h517l-19 -700q-2 -70 -35 -93t-132 -23h-116l-15 91h113q54 0 72 13t20 52l16 571h-185zM252 459v-287q91 69 150 120l40 -83
q-122 -104 -261 -207l-53 77q20 18 27 36q7 17 7 44v290l-105 -12l-6 90l111 13v262h90v-252l151 17l6 -90z" />
    <glyph glyph-name="uni520A" unicode="&#x520a;" 
d="M624 -81l-14 90h122q45 0 59 10t14 42v731h92v-770q0 -61 -30 -82t-115 -21h-128zM577 136v558h87v-558h-87zM339 318v-412h-93v412h-188v86h188v255h-162v86h412v-86h-157v-255h180v-86h-180z" />
    <glyph glyph-name="uni5211" unicode="&#x5211;" 
d="M637 -84l-15 91h119q42 0 56 10t14 40v736h89v-776q0 -60 -30 -81q-29 -20 -113 -20h-120zM616 134v560h85v-560h-85zM475 327v-413h-87v413h-136q-4 -161 -30 -245q-25 -80 -101 -184l-69 63q66 88 87 154q23 72 27 212h-108v85h109v16v237h-79v86h461v-86h-74v-253h103
v-85h-103zM388 412v253h-135v-238v-15h135z" />
    <glyph glyph-name="uni5212" unicode="&#x5212;" 
d="M616 148v549h83v-549h-83zM643 -83l-13 88h107q42 0 56 10t14 40v741h89v-778q0 -60 -30 -81q-29 -20 -113 -20h-110zM453 610q-68 62 -126 108l52 58q80 -59 129 -103zM336 161q20 -61 52 -110q28 -43 57 -43q27 0 41 46q17 56 28 124l79 -37q-22 -100 -38 -143
q-33 -88 -105 -88q-81 -3 -135 90q-31 51 -50 105q-72 -52 -168 -104l-48 82q112 57 189 112q-24 101 -35 265l-130 -17l-9 84l134 17q-3 48 -10 259h89q2 -142 7 -249l269 35l8 -80l-273 -37v-9q10 -130 24 -208q76 70 155 187l72 -46q-98 -144 -203 -235z" />
    <glyph glyph-name="uni5217" unicode="&#x5217;" 
d="M371 275q38 77 64 184h-178q-60 -122 -160 -232l-47 76q141 170 186 367h-153v86h480v-86h-233q-14 -63 -36 -125h231v-83q-34 -181 -115 -305q-88 -135 -266 -260l-62 74q162 111 243 227q-95 79 -129 105l52 64q74 -54 123 -92zM628 -85l-14 92h119q44 0 58 10
q15 11 15 43v735h90v-776q0 -63 -31 -84q-29 -20 -115 -20h-122zM607 134v554h86v-554h-86z" />
    <glyph glyph-name="uni5218" unicode="&#x5218;" 
d="M476 565q-33 -192 -97 -324q80 -111 159 -222l-76 -58q-49 73 -131 192q-76 -119 -214 -245l-62 73q142 126 218 253q-88 126 -175 244l70 46q113 -148 151 -202q46 101 69 243h-325v87h216q-27 88 -47 139l92 15q28 -78 50 -154h174v-87h-72zM635 -83l-14 92h116
q42 0 56 10q13 9 13 39v736h90v-778q0 -59 -29 -79t-111 -20h-121zM595 141v558h86v-558h-86z" />
    <glyph glyph-name="uni5219" unicode="&#x5219;" 
d="M644 -83l-13 90h109q42 0 55 9t13 39v737h86v-774q0 -60 -30 -81q-29 -20 -112 -20h-108zM621 142v555h83v-555h-83zM106 175v582h417v-582h-81v499h-256v-499h-80zM342 195q124 -110 223 -206l-60 -65q-52 54 -190 188q-26 -60 -76 -111q-46 -48 -130 -104l-59 72
q135 81 179 161q44 79 42 225q1 91 1 249h85q0 -167 -1 -251q-2 -96 -14 -158z" />
    <glyph glyph-name="uni521A" unicode="&#x521a;" 
d="M96 -89v842h479v-740q0 -55 -27 -74q-26 -18 -104 -18h-95l-11 80h93q36 0 49 9t13 35v629h-315v-763h-82zM659 128v568h76v-568h-76zM676 -86l-12 82h93q41 0 54 9t13 39v749h83v-781q0 -58 -28 -78t-109 -20h-94zM377 346q58 -120 106 -224l-65 -36q-49 108 -82 177
q-49 -97 -104 -188l-53 56q57 88 119 213q-56 119 -112 231l60 31q46 -90 91 -180q37 86 75 185l66 -31q-55 -137 -101 -234z" />
    <glyph glyph-name="uni521B" unicode="&#x521b;" 
d="M652 -84l-13 90h105q40 0 54 10q13 9 13 37v745h88v-782q0 -59 -30 -80q-29 -20 -111 -20h-106zM618 136v562h83v-562h-83zM169 478h338l-7 -232q-2 -54 -26 -71q-25 -18 -99 -18h-82l-11 77h81q33 0 45 8q11 8 12 31l3 126h-201v-318q0 -40 14 -55t50 -15h119
q35 0 53 13q17 12 23 41q7 31 14 90l80 -28q-9 -62 -20 -102q-15 -53 -45 -75t-90 -22h-153q-68 0 -98 33t-30 104v386q-24 -21 -51 -42l-37 83q166 126 251 315l91 -9q-17 -36 -20 -42q103 -103 217 -224l-62 -67q-77 89 -194 219q-67 -114 -165 -206z" />
    <glyph glyph-name="uni521D" unicode="&#x521d;" 
d="M631 644q-4 -127 -6 -165q-7 -217 -53 -339t-172 -242l-74 66q119 105 161 210q43 105 49 301q3 70 5 169h-131v83h493l-17 -683q1 -67 -34 -91t-129 -23h-110l-13 89h114q49 0 65 11t17 47l14 567h-179zM236 624q-34 66 -81 146l76 35q42 -68 82 -141zM268 271v-369h-86
v372q-41 -45 -104 -98l-28 97q143 105 218 268h-190v80h288v-73q-46 -94 -98 -167v-20q19 -15 37 -29q22 25 91 116l58 -46q-71 -86 -96 -114q44 -36 87 -72l-48 -61q-50 46 -129 116z" />
    <glyph glyph-name="uni5220" unicode="&#x5220;" 
d="M690 126v582h66v-582h-66zM699 -85l-11 80h78q38 0 51 9t13 36v754h74v-789q0 -54 -26 -72t-100 -18h-79zM616 340v-350q0 -40 -20 -54t-76 -14h-53l-11 74h50q24 0 32 6t8 23v315h-83v-4q0 -181 -14 -261q-14 -83 -63 -178l-53 53q38 74 50 146q12 74 12 242
q-29 3 -64 2v-339q0 -42 -20 -56t-79 -14h-47l-11 74h48q26 0 33 5q8 6 8 24v306h-79q1 -138 -11 -226q-17 -125 -65 -216l-60 56q40 77 53 154t13 232h-59v77h59v346h217v-346h64v344h221v-344h47v-77h-47zM546 417v270h-83v-270h83zM263 417v272h-79v-272h79z" />
    <glyph glyph-name="uni5224" unicode="&#x5224;" 
d="M645 -84l-13 90h107q43 0 57 10t14 40v741h90v-779q0 -61 -30 -82q-29 -20 -114 -20h-111zM615 138v552h84v-552h-84zM166 534q-47 89 -95 168l68 38q40 -58 101 -164zM465 532l-70 43q59 86 104 167l73 -37q-77 -128 -107 -173zM366 483h180v-82h-180v-28q0 -37 -4 -95
h198v-82h-207q-14 -93 -57 -159q-42 -67 -126 -141l-74 60q74 62 110 114q38 54 54 126h-195v82h206q5 47 5 94v29h-188v82h189v317h89v-317z" />
    <glyph glyph-name="uni5228" unicode="&#x5228;" 
d="M646 132v571h79v-571h-79zM667 -85l-13 84h97q41 0 54 9t13 39v750h83v-786q0 -57 -28 -77q-27 -19 -107 -19h-99zM202 225v-149q0 -40 15 -57q16 -18 54 -18h166q43 0 62 13q20 13 25 45q8 48 12 89l78 -26q-6 -52 -18 -101q-12 -51 -45 -73q-34 -23 -100 -23h-205
q-64 0 -93 32t-29 102v416q-20 -29 -37 -48l-40 82q100 119 158 297l86 -10q-20 -55 -37 -94h301l-8 -479q-1 -64 -32 -86q-30 -21 -120 -21h-62l-12 82h75q44 0 59 11t16 42l5 370h-262q-27 -53 -57 -99h238v-297h-193zM202 301h117v145h-117v-145z" />
    <glyph glyph-name="uni5229" unicode="&#x5229;" 
d="M630 -82l-13 90h125q38 0 52 10q13 10 13 37v740h89v-779q0 -59 -29 -79q-28 -19 -111 -19h-126zM586 134v560h85v-560h-85zM257 283q-61 -124 -166 -236l-50 96q135 123 209 292h-184v83h191v146q-46 -4 -169 -11l-13 83q219 10 427 32l16 -81q-100 -11 -173 -16v-153
h188v-83h-188v-75q123 -95 189 -151l-54 -70q-54 52 -135 120v-357h-88v381z" />
    <glyph glyph-name="uni522B" unicode="&#x522b;" 
d="M632 -84l-13 90h116q45 0 59 10t14 42v735h90v-773q0 -61 -31 -83q-30 -21 -116 -21h-119zM618 135v560h86v-560h-86zM521 442h-414v315h414v-315zM434 522v155h-240v-155h240zM297 330h233l-9 -299q-2 -65 -33 -86q-30 -21 -121 -21h-91l-12 82h93q44 0 60 11t17 43
l7 190h-150q-11 -115 -49 -190q-37 -74 -127 -161l-67 66q80 70 113 130q34 61 44 155h-135v80h142l2 84h86q-1 -41 -3 -84z" />
    <glyph glyph-name="uni522E" unicode="&#x522e;" 
d="M429 -27h-241v-57h-87v405h163v140h-208v80h208v129q-55 -4 -171 -8l-14 81q225 6 435 26l20 -80q-115 -10 -181 -14v-134h208v-80h-208v-140h163v-405h-87v57zM429 52v191h-241v-191h241zM644 -87l-14 89h104q44 0 58 10q15 10 15 41v741h88v-777q0 -62 -30 -83
q-29 -21 -114 -21h-107zM615 140v549h84v-549h-84z" />
    <glyph glyph-name="uni5230" unicode="&#x5230;" 
d="M617 136v562h83v-562h-83zM357 50q69 6 209 20l-5 -86q-265 -31 -496 -50l-9 94q74 4 214 16v149h-190v80h190v99h87v-99h187v-80h-187v-143zM473 416q-133 -8 -387 -16l-16 70q25 12 43 34q48 60 111 166h-155v82h495v-82h-241q-76 -122 -128 -190q77 2 232 10
q-33 53 -64 98l65 38l148 -220l-70 -45q-16 27 -33 55zM650 -84l-14 91h109q39 0 53 10q13 9 13 37v742h90v-780q0 -60 -29 -80q-28 -20 -112 -20h-110z" />
    <glyph glyph-name="uni5236" unicode="&#x5236;" 
d="M669 -85l-13 85h99q38 0 51 9t13 37v751h83v-787q0 -57 -28 -76q-27 -19 -107 -19h-98zM646 137v566h79v-566h-79zM379 222v-323h-83v323h-109v-257h-81v332h190v101h-241v78h241v112h-122q-21 -54 -36 -87l-73 28q52 111 79 236l77 -12q-10 -41 -23 -88h98v135h83v-135
h187v-77h-187v-112h220v-78h-220v-101h192v-255q0 -41 -20 -55t-75 -14h-56l-11 71h46q24 0 31 5t7 21v152h-114z" />
    <glyph glyph-name="uni5237" unicode="&#x5237;" 
d="M680 -83l-13 83h93q37 0 50 9q12 9 12 35v752h81v-788q0 -54 -27 -73q-26 -18 -102 -18h-94zM529 569v112h-330v-112h330zM199 498v-92q0 -181 -17 -281q-18 -105 -71 -220l-61 58q43 97 57 184q14 88 14 269v340h485v-258h-407zM673 139v555h73v-555h-73zM459 389h150
v-323q0 -40 -19 -53q-18 -13 -73 -13h-36l-9 68h35q21 0 27 5t6 20v223h-82v-416h-73v416h-76v-322h-68v395h142v78h76v-78z" />
    <glyph glyph-name="uni5238" unicode="&#x5238;" 
d="M279 622q-36 46 -107 119l72 41q63 -60 113 -114zM768 203l-12 -168q-5 -71 -40 -95q-34 -23 -133 -23h-127l-11 79h132q52 0 70 12q19 13 22 49l9 123h-241q-17 -111 -86 -175q-70 -64 -226 -112l-47 75q138 38 198 86q59 47 72 126h-95v36q-69 -45 -162 -92l-42 81
q182 78 273 173h-256v76h314q24 39 39 80q3 6 5 13h-320v74h341q17 75 26 184h93q-13 -118 -28 -184h174l-63 46q65 57 118 115l74 -41q-63 -66 -119 -120h174v-74h-377l-6 -18q-13 -39 -31 -75h454v-76h-254q96 -108 267 -160l-39 -85q-82 33 -140 70zM695 255
q-63 51 -113 123h-148q-48 -66 -125 -123h386z" />
    <glyph glyph-name="uni5239" unicode="&#x5239;" 
d="M635 127v572h79v-572h-79zM666 -86l-13 85h97q41 0 54 9q14 10 14 39v751h83v-788q0 -58 -28 -77t-109 -19h-98zM378 302v-298q0 -51 -25 -69t-96 -18h-78l-12 80h71q31 0 42 8t11 30v267h-222v78h222v103h87v-103h204v-78h-204zM115 -6l-67 41q61 92 118 212l73 -30
q-58 -120 -124 -223zM536 8q-40 71 -122 202l67 38q75 -114 126 -197zM410 625l166 -108l-48 -66q-95 63 -189 124q-103 -70 -226 -129l-46 69q106 48 200 108q-116 74 -173 109l49 61q89 -54 195 -122q84 60 156 127l61 -51q-77 -71 -145 -122z" />
    <glyph glyph-name="uni523A" unicode="&#x523a;" 
d="M644 126v572h79v-572h-79zM668 -85l-13 84h97q41 0 54 9t13 39v752h83v-788q0 -58 -28 -77q-27 -19 -108 -19h-98zM372 458v-232q78 -54 200 -145l-45 -67q-76 62 -155 123v-238h-82v288q-72 -123 -202 -230l-40 87q159 115 242 279v135h-107v-218h-80v293h187v93h-222
v77h222v100h82v-100h217v-77h-217v-93h190v-222q0 -43 -20 -57t-78 -14h-50l-10 72h42q23 0 30 5t7 21v120h-111z" />
    <glyph glyph-name="uni523B" unicode="&#x523b;" 
d="M627 126v564h84v-564h-84zM659 -83l-13 87h99q40 0 54 10q13 9 13 38v742h86v-775q0 -60 -30 -81t-113 -21h-96zM422 134q99 -84 169 -148l-58 -67q-64 62 -167 156q-99 -95 -247 -177l-51 73q156 83 251 174q93 89 176 231l69 -39q-70 -121 -142 -203zM346 434
q35 50 71 121l72 -36q-83 -150 -167 -244q-87 -97 -216 -181l-51 75q145 84 234 188q-66 -3 -196 -7l-15 68q31 16 54 43q52 61 96 144h-157v80h232q-26 75 -40 106l92 15q22 -61 41 -121h178v-80h-249q-72 -112 -125 -177q144 6 146 6z" />
    <glyph glyph-name="uni523D" unicode="&#x523d;" 
d="M630 128v573h79v-573h-79zM663 -84l-13 84h101q41 0 54 9t13 38v750h85v-784q0 -57 -29 -77t-108 -20h-103zM491 -35q-138 -7 -397 -17l-15 65q33 20 58 55q45 60 90 153h-148v80h495v-80h-250q-65 -116 -117 -192q162 6 238 10q-40 66 -73 115l68 36q83 -123 152 -234
l-71 -43q-10 18 -30 52zM177 485h313v-79h-319v73q-43 -43 -86 -79l-37 85q162 130 257 317l92 -10q-14 -26 -21 -40q88 -87 220 -225l-47 -80q-134 151 -214 235q-70 -109 -158 -197z" />
    <glyph glyph-name="uni5241" unicode="&#x5241;" 
d="M634 129v571h79v-571h-79zM666 -85l-13 85h99q41 0 54 9t13 38v753h85v-787q0 -58 -29 -78t-109 -20h-100zM124 403l-59 65q55 43 73 79t18 103v110h328v-188q0 -29 10 -40q9 -10 36 -10h54l-13 -78h-78q-47 0 -69 24t-22 75v139h-164v-36q0 -80 -24 -132
q-25 -53 -90 -111zM274 182q-70 -128 -187 -222l-37 88q133 98 205 231h-186v76h205v110h85v-110h211v-76h-211v-43q199 -138 221 -154l-47 -70q-170 129 -174 133v-238h-85v275z" />
    <glyph glyph-name="uni5242" unicode="&#x5242;" 
d="M618 129v560h85v-560h-85zM651 -87l-13 90h108q41 0 55 10t14 39v743h86v-782q0 -60 -29 -80q-28 -20 -111 -20h-110zM385 -88v348h85v-348h-85zM128 -104l-73 55q74 62 96 121q22 58 22 189h84q2 -144 -24 -217q-26 -74 -105 -148zM401 435q111 -67 182 -112l-50 -72
q-69 46 -195 126q-89 -71 -252 -129l-36 80q134 44 212 97q-148 92 -160 99l54 58q147 -88 172 -103q53 55 90 131h-347v78h217q-8 27 -33 106l95 11q14 -44 33 -117h186v-78h-59q-47 -105 -109 -175z" />
    <glyph glyph-name="uni5243" unicode="&#x5243;" 
d="M669 -83l-13 83h96q38 0 52 10q13 9 13 37v752h82v-789q0 -55 -28 -74q-27 -19 -104 -19h-98zM648 131v572h79v-572h-79zM283 301v109h-113l-10 -109h123zM485 482v112h-122v-112h122zM283 134q-70 -101 -193 -187l-41 81q139 82 214 200h-185l24 254h181v112h-198v73
h127q-32 55 -65 110l74 28q61 -100 69 -113l-56 -25h118q50 85 77 138l81 -23q-22 -38 -71 -115h121v-257h-197v-109h221l-11 -217q-2 -44 -24 -59t-84 -15h-61l-11 76h60q28 0 37 6t10 26l4 110h-141v-326h-80v232z" />
    <glyph glyph-name="uni524A" unicode="&#x524a;" 
d="M466 112h-281v-207h-84v640h183v257h85v-257h180v-543q0 -55 -26 -73t-102 -18h-81l-12 80h84q33 0 44 8q10 7 10 31v82zM466 189v100h-281v-100h281zM466 366v99h-281v-99h281zM172 581q-46 69 -99 144l66 40q54 -70 104 -140zM472 578l-64 48q45 56 103 142l67 -42
q-37 -55 -106 -148zM667 -87l-12 83h94q41 0 54 9q14 10 14 40v754h83v-790q0 -57 -28 -77q-27 -19 -107 -19h-98zM638 126v566h79v-566h-79z" />
    <glyph glyph-name="uni524D" unicode="&#x524d;" 
d="M642 -87l-13 83h100q42 0 56 10t14 40v494h83v-528q0 -59 -29 -79t-111 -20h-100zM425 351v94h-222v-94h222zM425 184v96h-222v-96h222zM425 112h-222v-210h-86v619h393v-523q0 -50 -25 -68q-24 -17 -95 -17h-91l-11 79h88q30 0 39 6q10 7 10 28v86zM611 88v410h78v-410
h-78zM421 683h163q74 90 96 122l95 -21q-29 -38 -81 -101h248v-79h-884v79h251q-60 80 -78 101l90 27q82 -104 100 -128z" />
    <glyph glyph-name="uni5250" unicode="&#x5250;" 
d="M676 -89l-13 84h92q39 0 52 9t13 37v754h81v-791q0 -56 -27 -75q-26 -18 -104 -18h-94zM650 127v573h78v-573h-78zM457 559v125h-245v-125h245zM498 132l-51 -57q-55 62 -112 122q-36 -77 -124 -146l-37 45v-179h-79v473h204q1 29 1 93h-166v276h402v-276h-162
q0 -31 -2 -93h204v-374q0 -56 -27 -75t-104 -19h-79l-10 74h80q37 0 49 8q13 9 13 36v92zM498 132v183h-132q-1 -19 -7 -46q83 -80 139 -137zM293 315h-119v-196q58 44 84 87q27 44 35 109z" />
    <glyph glyph-name="uni5251" unicode="&#x5251;" 
d="M659 -84l-13 85h102q41 0 54 9q14 10 14 39v749h84v-784q0 -58 -29 -78t-109 -20h-103zM632 131v566h80v-566h-80zM322 129q-21 112 -51 239l73 12l52 -238zM477 66q85 8 121 13l-5 -88q-308 -34 -513 -51l-9 91q180 13 328 28q55 173 92 311l79 -20q-46 -142 -93 -284z
M169 92q-16 58 -74 248l70 20q45 -133 78 -249zM189 510h313v-78h-319v73q-44 -40 -100 -82l-37 84q178 121 268 296l92 -10q-16 -30 -25 -45q123 -101 223 -192l-47 -81q-68 68 -216 208q-64 -94 -152 -173z" />
    <glyph glyph-name="uni5254" unicode="&#x5254;" 
d="M666 127v573h72v-573h-72zM689 -88l-12 82h90q36 0 49 9t13 35v759h79v-795q0 -53 -27 -72q-26 -18 -101 -18h-91zM569 404h-431v357h431v-357zM489 473v80h-271v-80h271zM489 611v81h-271v-81h271zM473 258q-26 -121 -78 -206q-51 -83 -146 -160l-52 54q167 120 207 312
h-69q-31 -89 -81 -156q-55 -74 -147 -140l-47 61q145 93 205 235h-65q-38 -51 -102 -109l-46 57q97 82 154 198l74 -14q-22 -42 -33 -62h360l-17 -325q-3 -53 -28 -70t-99 -17h-69l-11 75h78q32 0 44 8t13 31l14 228h-59z" />
    <glyph glyph-name="uni5256" unicode="&#x5256;" 
d="M663 -89l-13 85h98q41 0 54 9q14 10 14 39v753h84v-789q0 -57 -28 -77q-29 -20 -109 -20h-100zM636 126v573h80v-573h-80zM386 700h174v-76h-476v76h209q-21 53 -38 93l90 12q21 -53 41 -105zM449 46v160h-252v-160h252zM449 -29h-252v-56h-86v367h424v-368h-86v57z
M215 446h132q58 102 87 160l81 -28q-33 -59 -80 -132h152v-76h-529v76h148q-41 70 -79 128l77 31q39 -58 82 -128z" />
    <glyph glyph-name="uni5265" unicode="&#x5265;" 
d="M198 194q-80 73 -122 108l48 52q78 -63 124 -103zM539 457h76v-73h-235v-161q182 -118 243 -158l-45 -71q-109 79 -198 141v-142q0 -50 -24 -67t-93 -17h-86l-11 74h76q34 0 45 8t11 32v112q-95 -64 -207 -131l-41 77q124 66 248 143v160h-234v73h392v79h-333v70h333v80
h-352v73h435v-302zM466 190l-48 58q31 23 137 109l51 -51q-82 -73 -140 -116zM656 127v572h75v-572h-75zM676 -85l-12 82h96q38 0 49 8q12 8 12 35v758h82v-791q0 -54 -27 -73t-102 -19h-98z" />
    <glyph glyph-name="uni5267" unicode="&#x5267;" 
d="M677 -84l-12 81h93q37 0 50 9t13 36v757h80v-791q0 -54 -27 -73t-103 -19h-94zM502 31v127h-202v-127h202zM505 574v106h-306v-106h306zM652 126v573h76v-573h-76zM441 330v-102h137v-319h-76v52h-202v-53h-76v320h138v102h-164q-4 -141 -22 -230q-18 -88 -64 -193
l-61 59q42 97 55 184q14 91 14 274v330h462v-251h-383v-101h163v89h79v-89h170v-72h-170z" />
    <glyph glyph-name="uni5269" unicode="&#x5269;" 
d="M691 -84l-12 79h87q39 0 51 9t12 36v758h79v-793q0 -53 -26 -71t-101 -18h-90zM682 125v590h70v-590h-70zM511 367v-58q0 -18 7 -26q6 -7 22 -7h11q29 0 33 30q5 32 7 55l52 -15q-4 -38 -10 -66q-6 -34 -24 -49t-55 -15h-34q-39 0 -57 19t-18 62v196h66v-65q51 19 99 42
l27 -54q-96 -39 -126 -49zM180 251q-53 -16 -110 -27l-15 63q53 9 125 26v68h-113v60h113v52h66v-286h-66v44zM307 154q-73 -118 -217 -211l-40 78q87 51 147 109q58 56 110 138v266h-243v69h243v86q-140 -4 -210 -5l-11 70q241 1 506 16l12 -70q-138 -6 -220 -8v-89h246
v-69h-246v-294q125 -93 239 -186l-46 -70q-54 51 -193 168v-253h-77v255z" />
    <glyph glyph-name="uni526A" unicode="&#x526a;" 
d="M642 226l-10 66h101q34 0 47 9q12 9 12 33v263h83v-285q0 -51 -25 -69q-24 -17 -95 -17h-113zM613 349v225h76v-225h-76zM695 709h245v-69h-878v69h255q-30 39 -63 81l96 17q52 -68 73 -98h165q45 59 69 98l98 -15q-37 -53 -60 -83zM455 105q-23 -90 -99 -135
q-75 -45 -253 -77l-42 75q153 24 216 52q65 29 84 85h-280v69h800l-13 -136q-4 -72 -44 -97q-39 -25 -138 -24h-147l-10 73h160q49 0 66 11t21 46l6 58h-327zM438 333h-229v-111h-82v363h394v-279q0 -51 -24 -68t-95 -17h-81l-9 57h78q30 0 39 7t9 28v20zM438 379v53h-229
v-53h229zM438 479v51h-229v-51h229z" />
    <glyph glyph-name="uni526F" unicode="&#x526f;" 
d="M545 404h-416v220h416v-220zM465 469v92h-255v-92h255zM72 685v71h527v-71h-527zM501 -48h-328v-49h-79v440h487v-440h-80v49zM501 17v99h-127v-99h127zM501 177v100h-127v-100h127zM300 17v99h-127v-99h127zM300 177v100h-127v-100h127zM654 125v573h76v-573h-76z
M676 -89l-12 82h93q38 0 50 9q13 9 13 36v755h80v-790q0 -55 -27 -74q-26 -18 -103 -18h-94z" />
    <glyph glyph-name="uni5272" unicode="&#x5272;" 
d="M477 -49h-280v-43h-81v279h179v67h-226v66h226v62h-176v63h176v62h-190v65h190v52h81v-52h185v-65h-185v-62h171v-63h-171v-62h221v-66h-221v-67h181v-278h-80v42zM477 18v103h-280v-103h280zM384 724h208v-143h-77v75h-366v-75h-77v143h220q-4 16 -19 71l92 9
q13 -50 19 -80zM651 127v572h78v-572h-78zM677 -85l-13 84h94q39 0 51 9t12 36v754h83v-790q0 -55 -28 -74q-27 -19 -104 -19h-95z" />
    <glyph glyph-name="uni527F" unicode="&#x527f;" 
d="M694 -85l-12 78h86q37 0 49 8t12 35v760h77v-792q0 -53 -26 -71t-100 -18h-86zM670 123v580h71v-580h-71zM310 433v69h-122v-69h122zM310 311v69h-122v-69h122zM512 433v69h-124v-69h124zM512 311v69h-124v-69h124zM542 576q-36 42 -110 116q65 63 103 109l72 -22
l-86 -86q51 -48 88 -83zM365 576q-23 27 -110 116q58 55 104 109l69 -21q-29 -34 -86 -87q56 -48 87 -82zM189 576q-38 46 -110 116q48 44 104 109l71 -22q-47 -49 -87 -86q54 -48 88 -82zM388 122v-21q134 -51 235 -94l-32 -67q-131 61 -203 93v-132h-78v171
q-80 -89 -224 -150l-39 68q144 50 227 132h-206v66h242v61h-197v315h472v-315h-197v-61h239v-66h-239z" />
    <glyph glyph-name="uni5288" unicode="&#x5288;" 
d="M767 717h151v-66h-402v66h167q-24 61 -32 77l86 11q14 -35 30 -88zM401 347v84h-142v-84h142zM450 151q-16 -94 -88 -150q-72 -57 -249 -106l-48 79q159 37 218 73t75 104h-259v73h766l-14 -177q-4 -63 -32 -92q-37 -38 -158 -36h-146l-12 77h158q55 0 75 13t24 53l7 89
h-317zM681 547h69q35 60 49 90l72 -17q-11 -20 -43 -73h108v-66h-183v-73h159v-66h-159v-82h-80v82h-153v66h153v73h-175v66h105q-15 27 -41 72l71 18q29 -54 48 -90zM202 615h190v81h-190v-81zM200 555q-4 -44 -9 -66h281v-201h-283v190q-22 -99 -90 -195l-50 75
q43 57 59 118q16 59 16 157v128h346v-206h-270z" />
    <glyph glyph-name="uni529B" unicode="&#x529b;" 
d="M474 608h411l-23 -538q-1 -72 -33 -103q-39 -38 -167 -36h-166l-15 95h167q71 0 94 16t25 66l14 406h-313q-11 -229 -86 -362q-75 -132 -258 -252l-65 82q167 106 233 220t77 312h-281v94h287q4 96 6 195h101q-4 -117 -8 -195z" />
    <glyph glyph-name="uni529D" unicode="&#x529d;" 
d="M325 292q72 -106 110 -160l-68 -56q-28 46 -84 127q-66 -122 -184 -249l-54 77q121 121 184 253q-88 129 -155 223l65 46q82 -111 128 -177q38 110 56 251h-246v87h333v-85q-31 -202 -85 -337zM649 612h255l-15 -565q-2 -70 -35 -93t-132 -23h-111l-13 91h114q54 0 71 12
q18 13 19 51l9 440h-166q0 -7 -1 -14q-8 -226 -59 -356t-183 -257l-71 66q128 119 172 228q44 107 52 316q1 8 1 17h-115v87h119q4 103 5 189h91q-3 -95 -7 -189z" />
    <glyph glyph-name="uni529E" unicode="&#x529e;" 
d="M125 170l-75 45q72 113 128 252l80 -35q-55 -125 -133 -262zM763 424l64 33q66 -117 131 -234l-80 -44l-116 228l-12 -348q-1 -68 -30 -97q-38 -38 -161 -36h-127l-14 93h136q62 0 82 14q21 15 23 59l15 462h-224q-1 -5 -1 -15q-10 -252 -76 -386q-67 -135 -253 -254
l-63 79q171 106 230 223t67 335q0 12 1 18h-264v88h267q4 116 5 158h97q-3 -79 -7 -158h317z" />
    <glyph glyph-name="uni529F" unicode="&#x529f;" 
d="M626 615h278l-17 -575q-2 -69 -35 -92q-32 -22 -129 -22h-121l-13 90h117q54 0 72 13q17 12 19 51l13 448h-188q0 -13 -1 -26q-12 -240 -56 -355q-45 -119 -177 -250l-80 61q125 108 170 218t51 327q1 12 1 25h-111v87h115q3 58 5 186h93q-1 -99 -6 -186zM283 185
q88 18 133 28l3 -95q-159 -40 -347 -79l-21 102q94 16 141 25v445h-124v90h333v-90h-118v-426z" />
    <glyph glyph-name="uni52A0" unicode="&#x52a0;" 
d="M274 633h206l-12 -611q-1 -56 -27 -75q-27 -19 -106 -19h-88l-14 92h80q42 0 55 9t14 39l10 480h-120q-1 -6 -1 -19q-6 -246 -40 -376q-33 -131 -126 -255l-61 73q77 111 105 223t34 337v17h-111v85h114q1 53 1 170h89zM814 6h-162v-89h-87v779h336v-779h-87v89zM814 92
v518h-162v-518h162z" />
    <glyph glyph-name="uni52A1" unicode="&#x52a1;" 
d="M618 475q124 -38 329 -59l-31 -84q-260 32 -405 92q-158 -63 -428 -106l-33 82q211 29 359 76q-79 47 -150 123q-58 -53 -128 -104l-62 67q167 112 266 243l99 -13q-25 -33 -53 -68h462v-80q-113 -108 -225 -169zM511 515q115 51 212 133h-402q83 -83 190 -133zM476 270
h375l-14 -219q-5 -81 -44 -107q-38 -26 -152 -26h-140l-12 85h158q56 0 76 14t22 53l7 122h-291q-29 -113 -108 -179q-78 -65 -244 -119l-50 85q144 40 210 85q69 47 96 128h-255v78h272q4 29 8 88h94q-2 -37 -8 -88z" />
    <glyph glyph-name="uni52A3" unicode="&#x52a3;" 
d="M456 546v257h90v-257h-90zM897 518q-117 78 -258 159l44 64q175 -96 261 -148zM120 508l-43 76q135 68 256 153l50 -71q-123 -82 -263 -158zM86 338l-29 83q421 49 692 156l47 -73q-137 -56 -293 -93q-172 -41 -417 -73zM490 285h390l-14 -230q-5 -81 -45 -108t-156 -27
h-137l-13 87h158q55 0 76 14q20 14 23 53l9 130h-306q-26 -114 -106 -182q-79 -68 -250 -124l-48 84q148 44 216 94q67 51 89 128h-263v81h284q7 43 8 77h93q-4 -50 -8 -77z" />
    <glyph glyph-name="uni52A8" unicode="&#x52a8;" 
d="M100 651v82h351v-82h-351zM493 35q49 79 70 186q20 103 25 285v24h-101v83h104q2 114 3 191h86q-2 -96 -4 -191h232l-12 -589q-1 -58 -29 -78t-110 -20h-102l-12 89h95q41 0 54 9q14 10 15 39l12 467h-145q0 -14 -1 -27q-7 -234 -42 -366q-38 -141 -128 -248l-81 54
q39 43 70 90l-72 -33q-8 22 -17 45q-162 -18 -324 -35l-21 70q24 19 39 51q61 130 102 271h-141v82h424v-82h-189q-60 -169 -119 -296q59 4 198 19q-34 90 -66 168l73 24q39 -90 114 -282z" />
    <glyph glyph-name="uni52A9" unicode="&#x52a9;" 
d="M367 526v148h-167v-148h167zM367 306v147h-167v-147h167zM367 89v144h-167v-160q55 4 167 16zM500 56q49 76 70 174q21 97 26 272q0 16 1 25h-99v84h100q3 87 3 189h88q-1 -62 -5 -189h218l-14 -593q-1 -57 -28 -76t-106 -19h-99l-12 86h92q40 0 54 10q13 9 14 38l12 470
h-133q0 -14 -1 -28q-8 -248 -44 -362q-35 -113 -143 -241l-62 72q19 22 38 45q-276 -33 -406 -43l-10 92q20 1 62 5v685h334v-656q15 3 52 7z" />
    <glyph glyph-name="uni52AA" unicode="&#x52aa;" 
d="M316 504q47 51 78 133h-149q-28 -61 -40 -85q51 -23 111 -48zM388 469q28 -13 86 -42l-40 -73l-104 58q-78 -62 -235 -116l-36 73q122 36 193 82q-57 30 -145 71q26 47 55 115h-92v73h124q24 64 35 95l84 -5q-16 -46 -36 -90h199v-80q-39 -102 -88 -161zM761 470
q67 -41 186 -77l-36 -78q-136 48 -216 105q-68 -46 -172 -86l-42 74q91 30 151 66q-61 61 -111 161l69 34q48 -97 107 -150q71 60 113 156h-307v74h391v-78q-48 -123 -133 -201zM485 261h378l-10 -207q-2 -69 -32 -99q-38 -38 -163 -36h-141l-13 83h160q55 0 74 13t21 52
l7 117h-296q-29 -109 -106 -171q-76 -61 -251 -116l-48 82q148 41 214 84q69 45 96 121h-262v77h280q5 35 9 77h92q-3 -42 -9 -77z" />
    <glyph glyph-name="uni52AB" unicode="&#x52ab;" 
d="M498 46q54 84 75 186q20 96 24 274q1 8 1 24h-94v83h96l2 190h88l-4 -190h219l-13 -588q-1 -59 -30 -79q-28 -20 -111 -20h-101l-13 89h94q43 0 57 10t15 41l12 464h-131q0 -14 -1 -28q-7 -230 -42 -351q-36 -124 -137 -256l-81 52q34 39 53 67l-48 -19q-8 19 -16 39
q-240 -26 -329 -35l-19 73q25 15 40 41q51 88 98 216h-144v81h186v154h-157v81h157v156h85v-156h139v-81h-139v-154h166v-81h-200q-52 -125 -113 -235q65 5 197 19q-29 74 -58 135l76 27q36 -76 101 -229z" />
    <glyph glyph-name="uni52B1" unicode="&#x52b1;" 
d="M722 611h186l-12 -597q-1 -52 -26 -70q-26 -18 -100 -18h-78l-13 86h78q34 0 47 9q12 9 13 33l9 474h-106q0 -20 -1 -40q-3 -233 -33 -353q-29 -120 -115 -237l-59 73q75 97 99 198q25 100 29 316q1 21 1 43h-68v83h70q2 114 2 191h79q0 -65 -2 -191zM117 -95l-65 67
q40 92 52 184q12 89 12 278v317h444v-78h-363v-235q0 -207 -15 -310q-16 -109 -65 -223zM358 368h170l-10 -347q-1 -50 -26 -67t-96 -17h-49l-11 77h55q32 0 43 8t12 30l8 243h-98q-7 -138 -30 -221q-23 -80 -79 -169l-58 61q52 83 71 159q19 77 24 230q2 66 2 135h-64v78
h326v-78h-187q-2 -96 -3 -122z" />
    <glyph glyph-name="uni52B2" unicode="&#x52b2;" 
d="M326 76q53 6 161 20l-3 -86q-209 -30 -413 -51l-11 91q88 7 181 18v181h-152v80h385v-80h-148v-173zM357 541q128 -76 169 -100l-49 -71q-54 37 -178 115q-84 -66 -212 -120l-39 77q113 44 185 98q69 51 119 127h-264v81h361v-84q-46 -74 -92 -123zM697 612h211l-12 -591
q-1 -58 -29 -77q-27 -19 -108 -19h-95l-13 87h88q41 0 55 10t15 39l11 467h-125q-1 -19 -2 -37q-7 -233 -42 -351q-34 -117 -132 -242l-70 61q87 100 120 210q34 109 39 318q1 20 2 41h-102v84h104q3 97 3 191h86q-2 -127 -4 -191z" />
    <glyph glyph-name="uni52B3" unicode="&#x52b3;" 
d="M483 302h361l-12 -244q-1 -85 -49 -112q-43 -24 -149 -23h-139l-13 86h163q55 0 74 13t21 51l9 149h-278q-24 -120 -103 -191q-80 -73 -260 -134l-47 84q154 47 223 101q67 53 90 140h-257v80h272q6 39 8 102h95q-1 -21 -9 -102zM711 635v-75h-92v75h-237v-76h-92v76
h-216v79h216v88h92v-88h237v88h92v-88h215v-79h-215zM80 350v169h841v-170h-90v92h-663v-91h-88z" />
    <glyph glyph-name="uni52BF" unicode="&#x52bf;" 
d="M297 472v-97q0 -47 -23 -63t-89 -16h-76l-10 70h70q30 0 39 6t9 28v61q-62 -9 -139 -18l-12 76q76 9 151 18v87h-135v72h135v107h80v-107h108v-72h-108v-77q77 11 108 16v-74q-61 -11 -108 -17zM638 701h182q-5 -191 2 -268q5 -55 27 -55q16 0 24 37q7 31 12 110l63 -21
q-9 -83 -17 -124q-16 -80 -85 -80q-43 0 -70 33t-31 92q-6 85 -5 203h-106q-6 -83 -24 -135q21 -11 103 -55l-42 -72q-52 32 -97 57q-40 -61 -143 -129l-60 60q94 54 133 109q-77 43 -82 45l38 61q42 -19 77 -39q12 40 17 98h-111v73h114q1 51 2 103h81q0 -41 -2 -103z
M477 239h378l-11 -187q-5 -80 -45 -107t-152 -27h-128l-12 83h148q55 0 73 12q19 13 22 51l8 98h-296q-28 -109 -107 -168q-76 -57 -246 -98l-48 83q144 28 209 66q70 41 96 117h-260v77h277q2 18 4 54h95q-2 -27 -5 -54z" />
    <glyph glyph-name="uni52C3" unicode="&#x52c3;" 
d="M710 607h202l-13 -593q-1 -55 -27 -73q-26 -19 -102 -19h-91l-13 86h84q38 0 51 9q13 10 14 37l12 471h-119v-14q-5 -246 -45 -371q-40 -126 -147 -244l-67 60q96 102 133 218q38 116 42 334q0 11 1 17h-81v82h82q2 97 3 194h84q-1 -97 -3 -194zM345 549h189v-151h-76v81
h-311v-82h-75v152h188v91h-165v72h165v87h85v-87h162v-72h-162v-91zM355 139v-145q0 -50 -25 -67q-24 -17 -93 -17h-90l-11 79h80q33 0 44 8t11 32v102q-68 -7 -204 -17l-6 78q105 7 210 15v31l90 85h-225v71h333v-71l-114 -103v-6q64 6 175 17l-6 -74q-85 -11 -169 -18z
" />
    <glyph glyph-name="uni52C7" unicode="&#x52c7;" 
d="M456 458v66h-232v-66h232zM456 334v66h-232v-66h232zM775 458v66h-232v-66h232zM775 334v66h-232v-66h232zM601 587h262v-364h-88v52h-232v-43h-87v43h-232v-52h-88v364h270q-83 32 -167 65l49 42h-166v69h724v-72q-33 -15 -245 -104zM499 612q147 61 198 82h-398
q26 -10 200 -82zM469 180h393l-12 -148q-6 -68 -40 -91q-33 -22 -129 -22h-154l-11 71h164q45 0 61 11t20 43l6 67h-310q-24 -86 -101 -134q-78 -48 -248 -82l-44 76q142 23 210 54q69 31 90 86h-258v69h275q1 13 3 43h88q-3 -41 -3 -43z" />
    <glyph glyph-name="uni52C9" unicode="&#x52c9;" 
d="M709 642h183l-15 -464q-2 -53 -26 -70q-25 -17 -99 -17h-70l-12 78h73q35 0 46 8t12 33l13 352h-108v-6q-8 -187 -39 -283q-32 -100 -124 -219l-64 52q85 97 114 185t35 265v6h-88v80h91q2 104 2 159h80q-2 -61 -4 -159zM440 -91q-123 0 -123 112v176h80v-157
q0 -29 14 -42t47 -13h324q37 0 54 12q16 11 22 39q6 26 11 85l78 -25q-6 -51 -17 -97q-11 -50 -42 -70t-95 -20h-353zM259 306v3q9 65 10 151h-104v-154h94zM441 306v154h-99q-3 -77 -11 -154h110zM264 716h202v-69l-74 -116h119v-296h-191q-20 -103 -68 -178t-148 -161
l-56 69q91 70 135 129q45 61 63 141h-152v255q-1 -2 -3 -3l-49 67q117 113 179 251l82 -11q-18 -41 -39 -78zM219 643q-39 -58 -87 -112h171l73 112h-157z" />
    <glyph glyph-name="uni52CB" unicode="&#x52cb;" 
d="M328 145q128 -93 180 -134l-49 -71q-56 50 -156 130q-46 -99 -213 -168l-41 73q102 40 151 88q48 48 57 117q8 62 8 131h77q0 -81 -9 -140q-2 -13 -5 -26zM480 511h-360v249h360v-249zM404 581v108h-207v-108h207zM93 111v326h416v-320h-77v248h-262v-254h-77zM721 614
h197l-14 -601q-1 -55 -26 -73t-102 -18h-87l-14 86h84q37 0 50 9t14 36l12 477h-117q-1 -6 -1 -17q-4 -233 -41 -366q-36 -133 -124 -254l-71 50q85 116 116 228q32 116 38 340q1 7 1 19h-91v84h93q2 90 3 186h83q-1 -96 -3 -186z" />
    <glyph glyph-name="uni52D2" unicode="&#x52d2;" 
d="M709 615h200l-13 -599q-2 -55 -27 -74q-27 -20 -105 -20h-85l-13 87h83q39 0 52 9t14 37l10 478h-118q0 -23 -1 -45q-5 -227 -40 -349q-34 -122 -130 -243l-73 50q91 108 125 218q33 110 38 318q0 32 1 51h-93v82h94q1 93 1 187h83q-1 -38 -3 -187zM264 264v106h-100
v-106h100zM442 264v106h-100v-106h100zM455 504h-113v-69h171v-237h-171v-77h194v-69h-194v-151h-78v151h-207v69h207v77h-171v237h171v69h-113v144h-90v69h90v85h75v-85h154v85h75v-85h93v-69h-93v-144zM380 565v83h-154v-83h154z" />
    <glyph glyph-name="uni52D8" unicode="&#x52d8;" 
d="M505 299h83v-69h-403v-218h332v-69h-411v287h-48v69h90v341h-74v69h74v94h80v-94h197v94h80v-94h70v-69h-70v-341zM425 299v74h-197v-74h197zM425 433v73h-197v-73h197zM425 566v74h-197v-74h197zM475 41q-46 68 -97 132l58 36q53 -65 98 -125zM257 41l-54 43
q55 61 98 126l59 -36q-54 -79 -103 -133zM728 612h183l-12 -601q-1 -52 -26 -70t-99 -18h-75l-13 87h74q35 0 47 8q12 9 13 34l10 476h-104q0 -19 -1 -38q-3 -233 -35 -357q-31 -124 -111 -237l-57 73q69 97 95 198q25 101 29 320q1 20 2 41h-73v84h74q1 57 1 191h80
q0 -67 -2 -191z" />
    <glyph glyph-name="uni52DF" unicode="&#x52df;" 
d="M688 682v-48h-88v48h-202v-48h-88v48h-241v65h241v58h88v-58h202v58h88v-58h242v-65h-242zM750 510v52h-500v-52h500zM750 413v52h-500v-52h500zM763 102l-8 -100q-4 -55 -32 -73q-28 -19 -106 -19h-109l-11 69h109q36 0 49 9t15 34l5 62h-196q-30 -85 -99 -126
q-65 -39 -206 -63l-29 72q110 16 165 41q59 27 86 76h-160v18q-68 -39 -151 -71l-33 80q162 55 240 126h-223v64h278q21 29 34 56h-222v260h680v-260h-365q-9 -20 -31 -56h489v-64h-232q83 -80 247 -114l-32 -81q-85 25 -152 60zM698 144q-52 39 -92 93h-207
q-45 -53 -99 -93h119q8 35 10 59h78q-5 -36 -10 -59h201z" />
    <glyph glyph-name="uni52E4" unicode="&#x52e4;" 
d="M283 362v75h-119v-75h119zM412 605v65h-182v-65h182zM475 362v75h-119v-75h119zM547 -4q55 90 75 191q19 96 25 304v41h-79v80h81q1 95 2 191h80q-1 -96 -3 -191h183l-12 -602q-1 -53 -26 -71t-99 -18h-75l-13 86h75q35 0 47 9q11 8 12 33l11 483h-105q0 -26 -1 -38
q-6 -248 -32 -357q-27 -114 -112 -242l-61 59q2 2 3 4q-221 -14 -464 -19l-4 68l228 6v67h-187v54h187v58h-202v57h202v58h-189v186h189v57h-128v120h-96v61h96v73h75v-73h182v73h75v-73h93v-61h-93v-120h-131v-57h189v-186h-189v-58h200v-57h-200v-58h184v-54h-184v-65
q191 9 194 9z" />
    <glyph glyph-name="uni52FA" unicode="&#x52fa;" 
d="M482 164q-60 70 -208 226l68 61q166 -166 214 -218zM339 666h549l-22 -600q-3 -88 -45 -117q-43 -30 -167 -30h-173l-15 96h174q76 0 102 18t28 72l16 469h-500q-63 -101 -153 -204l-74 67q154 163 235 367l101 -22q-30 -66 -56 -116z" />
    <glyph glyph-name="uni52FE" unicode="&#x52fe;" 
d="M622 144q-9 -1 -464 -30l-18 76q33 20 63 55q105 129 185 287l99 -25q-105 -180 -199 -298q235 12 282 16q-43 68 -93 138l73 47q96 -132 191 -275l-80 -52q-9 13 -39 61zM331 671h563l-19 -606q-3 -88 -44 -117t-165 -29h-178l-14 92h178q75 0 101 18q27 18 28 72
l15 481h-516q-66 -101 -151 -200l-69 67q147 152 230 356l95 -21q-23 -55 -54 -113z" />
    <glyph glyph-name="uni52FF" unicode="&#x52ff;" 
d="M704 582q-27 -235 -116 -388q-88 -154 -287 -288l-64 74q182 115 269 256q83 135 110 346h-128q-38 -176 -117 -290q-81 -117 -247 -229l-60 75q154 96 228 196q73 97 107 248h-114q-71 -115 -157 -209l-67 66q158 170 237 366l93 -19q-24 -55 -57 -119h570l-30 -597
q-4 -83 -43 -110t-155 -27h-126l-13 88h129q70 0 94 17q24 16 26 66l24 478h-106z" />
    <glyph glyph-name="uni5300" unicode="&#x5300;" 
d="M470 296q-98 84 -202 162l63 65q53 -38 208 -157zM129 43l-33 99q285 81 611 185l12 -98q-303 -100 -590 -186zM340 672h549l-19 -607q-3 -87 -44 -116t-164 -29h-178l-14 91h178q76 0 101 18t27 73l14 481h-503q-68 -104 -160 -202l-67 69q155 156 237 355l98 -23
q-33 -72 -55 -110z" />
    <glyph glyph-name="uni5305" unicode="&#x5305;" 
d="M508 295v141h-253v-141h253zM204 516h394v-301h-343v-136q0 -49 20 -68q19 -18 73 -18h390q49 0 72 15q22 15 30 51q8 37 15 110l91 -25q-8 -66 -22 -130q-12 -57 -49 -81t-116 -24h-433q-88 0 -125 37q-36 36 -36 121v403q-32 -36 -78 -82l-35 98q149 140 222 320
l102 -11q-22 -49 -43 -88h515l-9 -466q-1 -70 -35 -94t-131 -24h-114l-13 89h119q50 0 67 12q16 12 17 47l8 349h-477q-33 -52 -76 -104z" />
    <glyph glyph-name="uni5306" unicode="&#x5306;" 
d="M704 588q-25 -189 -74 -309q8 -4 106 -50l-42 -86l-104 56q-88 -156 -289 -294l-60 73q183 120 269 260q-97 50 -130 65q-84 -126 -259 -244l-57 71q162 98 238 211q-48 23 -96 47l39 69q18 -8 98 -44q34 69 56 175h-122q-72 -118 -158 -212l-62 65q144 154 231 363
l89 -18q-27 -62 -52 -112h582l-33 -617q-4 -80 -42 -106t-149 -26h-133l-14 92h133q69 0 92 16q24 16 26 65l26 490h-109zM616 588h-128q-28 -131 -67 -211q124 -59 128 -61q47 107 67 272z" />
    <glyph glyph-name="uni5308" unicode="&#x5308;" 
d="M313 688h590l-19 -648q-2 -73 -36 -96q-33 -23 -134 -23h-122l-13 85h121q57 0 77 14t21 54l14 529h-551q-68 -99 -147 -184l-64 66q141 143 223 320l96 -10q-29 -61 -56 -107zM484 365q80 -93 127 -147l-65 -54q-36 46 -113 140q-73 -81 -145 -145l-51 61q72 63 144 145
q-64 75 -135 153l60 47q54 -61 126 -140q54 63 108 147l67 -42q-55 -82 -123 -165zM146 40v409h82v-332h394v332h83v-409h-559z" />
    <glyph glyph-name="uni5316" unicode="&#x5316;" 
d="M601 312v-238q-1 -79 80 -75h58q49 0 69 15q21 15 27 56q6 44 16 149l93 -33q-6 -62 -23 -165q-10 -60 -48 -86q-39 -26 -122 -26h-96q-81 0 -115 33q-35 34 -35 117v187q-64 -42 -147 -87l-52 84q100 52 199 118v432h96v-361q139 108 251 244l73 -68
q-138 -160 -324 -296zM280 549v-647h-91v494q-40 -61 -97 -135l-52 91q155 192 248 449l92 -32q-46 -120 -100 -220z" />
    <glyph glyph-name="uni5317" unicode="&#x5317;" 
d="M654 385v-313q0 -39 17 -56q16 -16 54 -16h28q44 0 63 17q18 16 24 62q9 65 13 139l92 -27q-7 -60 -23 -161q-11 -67 -47 -94t-117 -27h-56q-76 0 -110 35t-34 114v738h96v-307q131 73 229 143l56 -83q-141 -88 -285 -164zM307 75q-113 -43 -223 -80l-29 97
q116 34 252 80v288h-236v90h236v245h96v-888h-96v168z" />
    <glyph glyph-name="uni5319" unicode="&#x5319;" 
d="M704 410v-190q0 -31 11 -44t38 -13h29q30 0 43 11q14 11 18 42q7 49 12 122l76 -23q-6 -69 -20 -143q-8 -46 -35 -67t-80 -21h-68q-55 0 -80 28q-26 29 -26 90v577h82v-269q89 64 166 140l55 -63q-98 -94 -221 -177zM438 620v76h-230v-76h230zM438 483v78h-230v-78h230z
M517 417h-389v345h389v-345zM202 144q36 -79 102 -111v252h-239v70h507v-70h-188v-98h169v-67h-169v-110q54 -7 105 -7h455l-13 -77h-448q-127 0 -195 28q-66 27 -106 93q-21 -71 -73 -148l-61 50q45 68 63 131q17 63 19 163l78 -6q-1 -49 -6 -93z" />
    <glyph glyph-name="uni531D" unicode="&#x531d;" 
d="M119 -73v828h802v-84h-711v-661h723v-83h-814zM624 453v-412h-89v412h-142v-320h-83v403h225v98h89v-98h235v-311q0 -51 -25 -68q-24 -17 -95 -17h-67l-11 79h63q32 0 42 7t10 29v198h-152z" />
    <glyph glyph-name="uni5320" unicode="&#x5320;" 
d="M131 -73v829h785v-85h-694v-660h707v-84h-798zM430 307q-4 -147 -81 -260l-81 51q46 66 62 131q15 61 15 179v168q257 6 472 32l27 -82q-218 -20 -411 -29v-97v-11h467v-82h-173v-259h-87v259h-210z" />
    <glyph glyph-name="uni5321" unicode="&#x5321;" 
d="M121 -73v829h799v-83h-708v-663h720v-83h-811zM621 185h271v-79h-630v79h270v125h-216v78h216v115h-249v77h586v-77h-248v-115h216v-78h-216v-125z" />
    <glyph glyph-name="uni5323" unicode="&#x5323;" 
d="M128 -73v829h794v-81h-703v-666h715v-82h-806zM541 179h-235v412h556v-412h-236v-139h-85v139zM779 253v100h-153v-100h153zM779 417v102h-153v-102h153zM541 253v100h-152v-100h152zM541 417v102h-152v-102h152z" />
    <glyph glyph-name="uni532A" unicode="&#x532a;" 
d="M118 -73v830h805v-80h-715v-670h723v-80h-813zM716 144v-99h-86v596h86v-75h191v-77h-191v-95h177v-77h-177v-96h204v-77h-204zM434 144h-193v77h193v96h-169v77h169v95h-183v77h183v75h86v-596h-86v99z" />
    <glyph glyph-name="uni5339" unicode="&#x5339;" 
d="M693 668v-361q0 -31 11 -43q9 -10 34 -10h32q28 0 40 11t16 41q9 73 12 119l81 -25q-9 -94 -17 -137q-8 -49 -36 -70t-87 -21h-66q-54 0 -80 26q-28 28 -28 90v380h-131q-2 -129 -5 -213q-5 -113 -40 -179t-131 -144l-59 76q79 59 109 113q30 55 34 149q3 47 3 198h-175
v-654h727v-87h-820v829h807v-88h-231z" />
    <glyph glyph-name="uni533A" unicode="&#x533a;" 
d="M126 -73v829h777v-88h-686v-654h700v-87h-791zM636 353q150 -142 217 -209l-76 -68q-106 111 -207 209q-113 -113 -238 -213l-68 74q122 87 241 201q-84 84 -218 206l68 59q17 -15 215 -197q89 93 175 210l80 -50q-93 -121 -189 -222z" />
    <glyph glyph-name="uni533B" unicode="&#x533b;" 
d="M119 -73v830h804v-84h-712v-662h723v-84h-815zM612 268q136 -71 271 -146l-47 -79q-171 109 -257 160q-66 -98 -265 -167l-52 78q126 39 188 80q63 41 82 99h-273v77h287v5q3 33 5 114h-143q-30 -50 -74 -102l-64 57q85 96 130 215l85 -18q-7 -16 -34 -76h414v-76h-225
q-2 -87 -5 -119h272v-77h-288q-3 -13 -7 -25z" />
    <glyph glyph-name="uni533F" unicode="&#x533f;" 
d="M107 -73v830h818v-76h-730v-678h739v-76h-827zM739 129v96h-306v-96h306zM755 526v-54h-85v54h-200v-54h-85v54h-142v67h142v58h85v-58h200v58h85v-58h149v-67h-149zM551 423h360v-65h-410q-34 -40 -67 -72h391v-219h-478v146q-28 -22 -102 -69l-31 75q112 58 190 139
h-172v65h227q24 33 45 69l85 -12q-16 -26 -38 -57z" />
    <glyph glyph-name="uni5341" unicode="&#x5341;" 
d="M551 370v-470h-103v470h-383v100h383v331h103v-331h383v-100h-383z" />
    <glyph glyph-name="uni5343" unicode="&#x5343;" 
d="M552 310v-407h-103v407h-382v94h382v238q-209 -10 -319 -14l-17 93q435 11 743 38l24 -92q-111 -8 -328 -19v-244h381v-94h-381z" />
    <glyph glyph-name="uni5347" unicode="&#x5347;" 
d="M754 320v-415h-97v415h-282q-5 -152 -51 -239q-49 -92 -180 -188l-73 72q127 82 170 170q34 68 37 185h-219v88h221v221q-118 -10 -183 -14l-14 90q276 16 476 43l20 -88q-181 -20 -203 -22v-230h281v387h97v-387h188v-88h-188z" />
    <glyph glyph-name="uni5348" unicode="&#x5348;" 
d="M574 252v-351h-98v351h-417v93h417v243h-185q-53 -101 -111 -176l-77 58q121 153 179 337l98 -16q-23 -62 -44 -111h546v-92h-308v-243h369v-93h-369z" />
    <glyph glyph-name="uni5349" unicode="&#x5349;" 
d="M764 226v-318h-93v318h-340q-8 -118 -50 -188q-43 -72 -151 -146l-70 67q98 62 135 118q36 55 43 149h-177v85h180q1 79 1 158h92q0 -107 -1 -158h338v157h93v-157h177v-85h-177zM551 567v-169h-94v169h-339v85h339v150h94v-150h336v-85h-336z" />
    <glyph glyph-name="uni534A" unicode="&#x534a;" 
d="M549 138v-237h-97v237h-390v89h390v144h-350v88h350v342h97v-342h350v-88h-350v-144h391v-89h-391zM282 508q-60 71 -161 176l65 56q54 -52 169 -169zM707 505l-65 64q82 75 164 173l71 -59q-94 -103 -170 -178z" />
    <glyph glyph-name="uni534E" unicode="&#x534e;" 
d="M607 511v-49q0 -38 15 -52t54 -14h85q39 0 56 13q17 12 22 43q7 34 12 100l87 -28q-8 -64 -20 -117q-11 -48 -43 -69t-95 -21h-137q-67 0 -97 28q-29 28 -30 92v36q-54 -21 -151 -53l-33 81q92 27 184 62v229h91v-190q129 59 249 143l55 -66q-152 -102 -304 -168z
M297 634v-341h-89v245q-59 -57 -118 -104l-32 98q149 109 254 272l87 -32q-58 -85 -102 -138zM545 115v-215h-92v215h-392v88h392v100h92v-100h392v-88h-392z" />
    <glyph glyph-name="uni534F" unicode="&#x534f;" 
d="M335 178l-71 35q56 103 100 239l73 -26q-53 -145 -102 -248zM223 469v-568h-87v568h-84v89h84v245h87v-245h82v-89h-82zM829 445l13 9q57 -89 114 -197l-56 -67q-62 127 -74 150l-10 -316q-1 -61 -31 -81q-29 -20 -114 -20h-113l-13 88h107q44 0 59 10t16 41l15 482h-150
q-2 -48 -3 -80q-8 -212 -59 -336q-51 -123 -180 -232l-65 65q121 105 166 212q46 106 52 299q2 44 2 72h-164v84h167q1 70 3 175h90q-4 -120 -6 -175h240z" />
    <glyph glyph-name="uni5351" unicode="&#x5351;" 
d="M543 534h218v106h-218v-106zM541 465q-4 -58 -21 -106h241v106h-220zM481 286q-59 -83 -191 -145h217v109h92v-109h338v-81h-338v-162h-92v162h-445v81h146l-23 37q135 50 193 108h-232v428h222q22 56 30 92l101 -8q-8 -27 -34 -84h384v-428h-368zM455 534v106h-221v-106
h221zM454 465h-220v-106h195q20 45 25 106z" />
    <glyph glyph-name="uni5352" unicode="&#x5352;" 
d="M722 493q13 -10 183 -148l-57 -66q-16 14 -165 148q-42 -62 -104 -121l-65 63q58 50 91 96q35 48 57 112l92 -10q-19 -48 -32 -74zM337 496l148 -126l-62 -63q-55 53 -127 119q-52 -75 -145 -159l-63 60q143 109 189 250l90 -10q-14 -39 -30 -71zM548 127v-226h-94v226
h-392v83h392v87h94v-87h391v-83h-391zM572 690h336v-83h-810v83h369q-14 48 -35 104l105 10q17 -48 35 -114z" />
    <glyph glyph-name="uni5353" unicode="&#x5353;" 
d="M525 585h313v-382h-291v-81h395v-78h-395v-145h-94v145h-393v78h393v81h-290v382h268v219h94v-73h381v-74h-381v-72zM746 277v86h-490v-86h490zM746 426v86h-490v-86h490z" />
    <glyph glyph-name="uni5355" unicode="&#x5355;" 
d="M454 480v104h-224v-104h224zM454 309v103h-224v-103h224zM771 480v104h-225v-104h225zM771 309v103h-225v-103h225zM373 660h194q69 92 104 147l92 -30q-38 -54 -90 -117h190v-428h-317v-92h395v-81h-395v-162h-92v162h-395v81h395v92h-315v428h192q-48 61 -90 109l81 39
q75 -87 102 -123z" />
    <glyph glyph-name="uni5356" unicode="&#x5356;" 
d="M385 219q-143 44 -247 71l27 60q82 -22 249 -73zM437 327q-70 25 -240 74l26 56q90 -22 241 -67zM543 552h368v-72l-56 -151l-84 18l50 131h-740v74h372v88h-319v75h319v88h90v-88h322v-75h-322v-88zM619 204h317v-74h-342q-4 -9 -9 -17q255 -96 344 -134l-45 -75
q-160 71 -346 146q-97 -98 -426 -153l-44 84q189 29 282 62q94 34 137 87h-420v74h457q8 28 11 44q14 71 20 193h91q-4 -93 -18 -186q-4 -27 -9 -51z" />
    <glyph glyph-name="uni5357" unicode="&#x5357;" 
d="M546 542h349v-537q0 -56 -28 -75q-27 -19 -105 -19h-125l-12 82h108q43 0 57 10q15 11 15 41v420h-606v-556h-89v634h343v87h-391v80h391v96h93v-96h391v-80h-391v-87zM430 323h101q40 56 75 119l85 -17q-38 -60 -68 -102h118v-71h-197v-83h219v-72h-219v-171h-87v171
h-218v72h218v83h-196v71h116q-30 49 -66 98l82 21q35 -49 71 -108z" />
    <glyph glyph-name="uni535A" unicode="&#x535a;" 
d="M571 454v65h-155v-65h155zM571 332v66h-155v-66h155zM809 454v65h-154v-65h154zM809 332v66h-154v-66h154zM222 463v-564h-85v564h-81v83h81v257h85v-257h73v-83h-73zM854 714h79v-69h-278v-62h235v-351h-81v44h-154v-52h-84v52h-155v-59h-81v366h236v62h-270v69h270v89
h84v-89h117q-31 57 -40 72l76 16q12 -23 46 -88zM740 110h-461v69h461v46h85v-46h119v-69h-119v-101q0 -58 -29 -78t-110 -20h-101l-10 77h101q38 0 51 9t13 37v76zM404 110q34 -18 150 -85l-48 -68q-32 21 -147 91z" />
    <glyph glyph-name="uni535C" unicode="&#x535c;" 
d="M354 -100v899h101v-899h-101zM820 215q-141 102 -346 231l56 78q176 -107 355 -222z" />
    <glyph glyph-name="uni535E" unicode="&#x535e;" 
d="M574 618h363v-92h-420v-627h-99v627h-355v92h406q-52 127 -71 169l102 18q33 -73 74 -187zM818 132q-162 112 -300 195l52 76q96 -56 302 -183z" />
    <glyph glyph-name="uni5360" unicode="&#x5360;" 
d="M754 -36h-509v-65h-95v490h282v411h97v-151h402v-86h-402v-174h319v-490h-94v65zM754 51v251h-509v-251h509z" />
    <glyph glyph-name="uni5361" unicode="&#x5361;" 
d="M829 24q-185 111 -324 185l49 74q178 -92 325 -175zM494 359v-463h-98v463h-337v89h337v356h98v-133h367v-84h-367v-139h448v-89h-448z" />
    <glyph glyph-name="uni5362" unicode="&#x5362;" 
d="M770 201h-530q-13 -175 -111 -305l-76 66q56 79 77 160q20 79 20 217v187h278v277h95v-94h411v-83h-411v-100h343v-384h-96v59zM770 284v159h-524v-107q0 -36 -1 -52h525z" />
    <glyph glyph-name="uni5364" unicode="&#x5364;" 
d="M788 -52h-576v-49h-90v643h297v262h94v-88h412v-81h-412v-93h364v-643h-89v49zM788 26v438h-576v-438h576zM575 250q112 -86 167 -128l-55 -68q-99 79 -181 141q-91 -71 -211 -148l-53 76q94 49 196 123q-89 69 -177 132l55 61q62 -45 190 -139q72 57 156 145l65 -52
q-76 -77 -152 -143z" />
    <glyph glyph-name="uni5367" unicode="&#x5367;" 
d="M322 511v161h-139v-161h139zM721 440v-539h-90v896h90v-323l50 35q87 -99 178 -212l-75 -54q-93 125 -153 197zM544 192h-139v-172h161v-81h-469v813h460v-80h-152v-161h139v-319zM460 271v161h-277v-161h277zM322 20v172h-139v-172h139z" />
    <glyph glyph-name="uni536B" unicode="&#x536b;" 
d="M451 44h486v-91h-874v91h290v609h-241v91h763l-15 -383q-2 -69 -31 -99q-38 -38 -163 -36h-123l-14 96h128q64 0 85 15t22 60l9 256h-322v-609z" />
    <glyph glyph-name="uni536F" unicode="&#x536f;" 
d="M359 347v21v246h88v-254q0 -186 -55 -279q-60 -102 -235 -189l-66 66q138 65 194 129q55 62 68 164q-127 -55 -223 -91l-41 74q23 22 23 57v434q156 18 330 66l38 -84q-148 -37 -281 -56v-370q95 36 160 66zM550 -96v835h346v-561q0 -59 -29 -79q-27 -19 -109 -19h-74
l-13 90h77q35 0 47 8t12 33v443h-169v-750h-88z" />
    <glyph glyph-name="uni5370" unicode="&#x5370;" 
d="M199 377v-255q116 32 237 71l10 -92q-169 -56 -330 -98l-35 84q28 20 28 54v588q178 24 325 66l39 -84q-139 -37 -274 -55v-195h246v-84h-246zM510 -102v837h385v-580q0 -60 -30 -81q-29 -20 -112 -20h-95l-14 91h96q39 0 52 9t13 37v460h-205v-753h-90z" />
    <glyph glyph-name="uni5371" unicode="&#x5371;" 
d="M479 -91q-70 0 -103 32q-34 33 -34 108v352h485l-8 -181q-3 -62 -32 -82q-30 -21 -115 -21h-115l-12 76h117q41 0 55 9t16 38l3 82h-305v-250q0 -45 17 -63q18 -19 61 -19h232q48 0 69 14q19 13 28 46q10 38 13 96l87 -26q-11 -73 -24 -118q-12 -48 -48 -71
q-37 -22 -115 -22h-272zM683 564h256v-78h-688v-133q0 -172 -25 -264q-24 -89 -98 -194l-74 60q66 91 88 173q22 80 22 224v142q-45 -35 -83 -60l-24 92q168 116 283 282l105 -12q-21 -31 -43 -61h382v-72zM570 564l95 97h-323q-40 -47 -95 -97h323z" />
    <glyph glyph-name="uni5373" unicode="&#x5373;" 
d="M572 -102v843h325v-604q0 -60 -30 -81q-29 -20 -111 -20h-58l-13 84h65q38 0 50 9t12 36v492h-156v-759h-84zM402 62q-155 -73 -280 -123l-40 75q27 23 27 64v674h372v-470h-287v-221q75 30 166 73q-25 44 -51 88l74 31q93 -146 150 -247l-75 -42q-23 42 -56 98zM398 479
h-204v-119h204v119zM398 554v120h-204v-120h204z" />
    <glyph glyph-name="uni5374" unicode="&#x5374;" 
d="M565 -101v835h336v-590q0 -64 -31 -86q-30 -21 -118 -21h-58l-13 84h70q39 0 52 9t13 38v481h-166v-750h-85zM430 9q-102 -7 -350 -22l-18 71q26 19 49 56q53 86 106 214h-155v83h192v151h-166v83h166v156h88v-156h157v-83h-157v-151h183v-83h-210q-73 -149 -135 -250
q148 6 217 10q-55 130 -64 150l75 28q104 -233 131 -295l-81 -29q-14 33 -28 67z" />
    <glyph glyph-name="uni5375" unicode="&#x5375;" 
d="M546 -98v835h352v-563q0 -62 -31 -83q-29 -20 -115 -20h-71l-13 88h80q41 0 55 10t14 39v446h-188v-752h-83zM369 318q1 16 1 51v252h83v-252q2 -154 -37 -250q-50 -126 -238 -228l-73 62q126 64 182 124q57 61 73 151q-110 -49 -243 -99l-37 73q26 25 26 63v459
q188 23 336 67l37 -81q-120 -31 -293 -57v-409q106 39 183 74zM736 303q-34 86 -91 210l64 26q55 -109 94 -206zM287 369q-55 133 -80 187l63 25q56 -124 80 -185z" />
    <glyph glyph-name="uni5377" unicode="&#x5377;" 
d="M722 626h176v-73h-395q-21 -55 -36 -83h467v-75h-247q96 -102 260 -147l-40 -82q-117 44 -198 104l-5 -110q-2 -54 -28 -72t-101 -18h-111l-10 67h110q34 0 45 7t13 31l2 50h-300v-168q0 -70 72 -70h273q46 0 66 13q21 13 27 43q12 53 15 80l85 -27q-9 -53 -21 -94
q-15 -50 -48 -71q-35 -22 -104 -22h-317q-134 0 -134 129v184q-60 -44 -149 -93l-42 85q171 83 261 181h-244v75h302q24 36 43 83h-301v73h168q-53 64 -108 118l73 40q54 -52 115 -114l-75 -44h155q19 64 35 179h92q-22 -127 -37 -179h181l-61 42q56 50 118 117l75 -41
q-62 -65 -117 -118zM673 299q-47 41 -85 96h-167q-40 -54 -86 -96h338z" />
    <glyph glyph-name="uni5378" unicode="&#x5378;" 
d="M596 -99v833h310v-603q0 -56 -27 -75t-103 -19h-56l-13 85h63q32 0 43 8t11 31v491h-145v-751h-83zM247 704h288v-75h-152v-139h171v-76h-171v-114h151v-73h-151v-144q56 6 168 22l-4 -86q-241 -36 -481 -63l-12 91q24 3 65 7v294h80v-286q50 5 99 11v341h-235v76h235
v139h-92q-36 -59 -92 -124l-56 60q93 104 142 241l87 -11q-21 -51 -40 -91z" />
    <glyph glyph-name="uni537F" unicode="&#x537f;" 
d="M666 -100v837h241v-618q0 -42 -20 -56t-78 -14h-43l-11 77h40q24 0 32 6t8 22v508h-96v-762h-73zM240 287q2 44 2 70v262h68v-259q0 -192 -33 -282t-136 -183l-66 43q75 64 109 118q36 58 48 142q-76 -44 -115 -63l-41 62q19 25 19 61v472q116 25 204 61l33 -76
q-51 -18 -165 -48v-422q44 24 73 42zM563 59q-61 -42 -169 -107l-45 59q23 31 23 70v671h236v-468h-167v-216q52 31 95 60q-24 64 -36 95l61 21q45 -106 94 -243l-62 -24zM544 483h-103v-128h103v128zM544 553v127h-103v-127h103z" />
    <glyph glyph-name="uni5382" unicode="&#x5382;" 
d="M142 -96l-85 72q74 100 96 186q22 87 22 282v299h764v-98h-661v-201q0 -208 -26 -312q-27 -107 -110 -228z" />
    <glyph glyph-name="uni5384" unicode="&#x5384;" 
d="M504 -91q-81 0 -116 34t-35 115v492h484l-13 -260q-3 -63 -34 -84q-30 -21 -118 -21h-113l-13 84h114q46 0 62 11q15 11 16 44l6 140h-299v-392q0 -42 19 -59q18 -16 65 -16h195q53 0 74 14t30 54t16 116l92 -31q-9 -74 -24 -131q-16 -62 -53 -86t-119 -24h-236z
M123 -100l-74 68q61 97 82 188t21 261v332h783v-89h-692v-248q0 -182 -23 -286q-26 -117 -97 -226z" />
    <glyph glyph-name="uni5385" unicode="&#x5385;" 
d="M686 431v-402q0 -66 -33 -89t-124 -23h-122l-13 88h122q46 0 61 11t15 44v371h-308v87h654v-87h-252zM123 -99l-73 68q58 95 77 188t19 283v307h792v-89h-699v-213q0 -210 -23 -319q-24 -113 -93 -225z" />
    <glyph glyph-name="uni5386" unicode="&#x5386;" 
d="M125 -102l-72 70q58 93 77 178q19 84 19 246v355h788v-91h-695v-262q0 -180 -22 -278q-24 -108 -95 -218zM572 471h310l-15 -425q-3 -69 -36 -92t-130 -23h-129l-14 91h123q54 0 73 13q18 13 20 51l11 296h-216q-11 -174 -68 -276q-58 -105 -204 -207l-69 74
q135 90 186 176q50 83 61 233h-183v89h187q2 71 3 142h95q-2 -58 -5 -142z" />
    <glyph glyph-name="uni5389" unicode="&#x5389;" 
d="M117 -102l-67 70q59 93 79 181q20 87 20 246v352h785v-86h-695v-267q0 -183 -25 -286q-26 -106 -97 -210zM517 471q-2 -63 -4 -93q-1 -8 -1 -26h351l-15 -309q-3 -68 -36 -91t-130 -23h-120l-12 87h120q52 0 69 12q18 12 20 49l10 192h-264q-15 -125 -60 -206t-147 -166
l-69 69q104 82 145 163q39 77 48 214q3 43 5 128h-150v85h657v-85h-417z" />
    <glyph glyph-name="uni538B" unicode="&#x538b;" 
d="M633 38h307v-88h-692v88h291v290h-228v88h228v186h94v-186h271v-88h-271v-290zM823 85q-30 39 -123 146l63 50q69 -73 129 -141zM131 -104l-75 68q61 94 79 175q19 84 19 263v337h781v-90h-688v-245q0 -125 -8 -210q-14 -164 -108 -298z" />
    <glyph glyph-name="uni538C" unicode="&#x538c;" 
d="M126 -99l-72 68q58 90 77 176q18 82 18 251v353h784v-90h-690v-263q0 -183 -22 -281q-24 -107 -95 -214zM826 443q-54 56 -130 126l55 52q68 -59 135 -118zM630 343q27 -123 99 -204q71 -79 213 -146l-56 -86q-126 70 -195 141q-72 75 -107 178q-60 -192 -295 -329
l-57 80q143 79 211 165q65 83 81 201h-238v84h244q2 55 2 195h94q-2 -100 -5 -195h309v-84h-300z" />
    <glyph glyph-name="uni5395" unicode="&#x5395;" 
d="M111 -102l-65 64q43 83 59 170q17 94 17 267v354h814v-76h-730v-279q0 -184 -19 -288q-20 -110 -76 -212zM271 138v466h344v-465h-68v390h-209v-391h-67zM467 149q48 -40 176 -158l-50 -66q-2 2 -152 149q-42 -91 -174 -176l-52 69q61 37 97 67q40 34 59 67q35 61 35 202
v163h73v-162q0 -89 -12 -155zM697 -87l-12 78h82q36 0 47 8t11 33v602h76v-636q0 -51 -25 -68q-24 -17 -95 -17h-84zM683 94v473h67v-473h-67z" />
    <glyph glyph-name="uni5398" unicode="&#x5398;" 
d="M126 -102l-72 66q51 93 67 177q17 87 17 262v353h801v-75h-713v-282q0 -191 -19 -287q-20 -99 -81 -214zM545 243h-238v369h562v-369h-239v-74h259v-70h-259v-83h311v-75h-709v75h313v83h-257v70h257v74zM788 309v87h-158v-87h158zM788 459v88h-158v-88h158zM545 309v87
h-155v-87h155zM545 459v88h-155v-88h155z" />
    <glyph glyph-name="uni539A" unicode="&#x539a;" 
d="M792 506v58h-403v-58h403zM792 398v57h-403v-57h403zM876 336h-570v290h570v-290zM119 -105l-66 63q48 94 65 184q17 91 17 259v354h802v-73h-717v-286q0 -178 -21 -283q-21 -107 -80 -218zM678 128h264v-66h-278v-63q0 -53 -27 -72q-26 -18 -100 -18h-128l-10 67h118
q31 0 42 8t11 30v48h-334v66h334v23l158 64h-427v61h577v-64z" />
    <glyph glyph-name="uni539F" unicode="&#x539f;" 
d="M580 581h294v-374h-224v-208q0 -53 -25 -70q-24 -17 -97 -17h-103l-11 75h92q34 0 45 8t11 32v180h-246v374h173l30 96h-292v-281q0 -183 -20 -280q-21 -99 -85 -220l-70 65q52 95 69 184t17 270v339h800v-77h-323q-18 -50 -35 -96zM789 280v82h-389v-82h389zM789 424v84
h-389v-84h389zM267 -65l-54 66q97 72 191 173l63 -54q-100 -102 -200 -185zM886 -58q-54 56 -176 176l58 53q92 -82 179 -167z" />
    <glyph glyph-name="uni53A2" unicode="&#x53a2;" 
d="M113 -103l-64 64q45 94 60 184q14 85 14 256v353h812v-77h-728v-284q0 -172 -19 -275q-20 -109 -75 -221zM817 412v122h-189v-122h189zM817 223v119h-189v-119h189zM817 33v121h-189v-121h189zM817 -39h-189v-58h-80v703h349v-702h-80v57zM342 274q-39 -110 -103 -206
l-40 78q91 121 139 281h-96v75h100v143h77v-143h93v-75h-93v-69l116 -106l-39 -61q-26 25 -77 80v-368h-77v371z" />
    </font>
</defs>
</svg>
