<?xml version="1.0" standalone="no"?>
<!DOCTYPE svg PUBLIC "-//W3C//DTD SVG 1.1//EN" "http://www.w3.org/Graphics/SVG/1.1/DTD/svg11.dtd" >
<svg xmlns="http://www.w3.org/2000/svg" xmlns:xlink="http://www.w3.org/1999/xlink" version="1.1">
<metadata>
Created by FontForge 20201107 at Mon Aug 14 11:11:55 2023
 By 
Copyright(c) Beijing Founder Electronics Co.,Ltd. 
</metadata>
<defs>
<font id="vivoSansSC600" horiz-adv-x="1000" >
  <font-face 
    font-family="vivo Sans SC 600"
    font-weight="400"
    font-stretch="normal"
    units-per-em="1000"
    panose-1="2 0 5 0 0 0 0 0 0 0"
    ascent="850"
    descent="-150"
    x-height="505"
    cap-height="709"
    bbox="-57 -287 1009 819"
    underline-thickness="50"
    underline-position="-125"
    unicode-range="U+0020-9F9F"
  />
<missing-glyph 
 />
    <glyph glyph-name=".notdef" 
 />
    <glyph glyph-name=".null" horiz-adv-x="0" 
 />
    <glyph glyph-name="nonmarkingreturn" horiz-adv-x="333" 
 />
    <glyph glyph-name="space" unicode=" " horiz-adv-x="266" 
 />
    <glyph glyph-name="exclam" unicode="!" horiz-adv-x="311" 
d="M100 182l-16 527h142l-17 -527h-109zM72 35q0 36 23 61q24 26 59 26t60 -26q24 -25 24 -61q0 -35 -24 -59q-25 -25 -60 -25t-59 25q-23 24 -23 59z" />
    <glyph glyph-name="quotedbl" unicode="&#x22;" horiz-adv-x="420" 
d="M66 465l-16 244h129l-17 -244h-96zM238 709h131l-18 -244h-97z" />
    <glyph glyph-name="numbersign" unicode="#" horiz-adv-x="691" 
d="M108 -37l32 185h-130l19 90h129l33 191h-134l19 91h133l33 189h105l-34 -189h132l34 189h105l-34 -189h128l-17 -91h-128l-34 -191h135l-18 -90h-134l-33 -185h-105l34 185h-132l-34 -185h-104zM262 238h132l35 191h-132z" />
    <glyph glyph-name="dollar" unicode="$" horiz-adv-x="563" 
d="M234 -118v105q-124 13 -200 86l47 98q94 -82 201 -82q58 0 91 24q34 25 34 69q0 37 -28 60q-29 24 -101 46q-109 34 -159 80q-54 50 -55 125q0 78 49 131q46 49 121 65v101h94v-97q98 -8 167 -63l-42 -96q-71 58 -156 58q-53 0 -85 -23t-32 -61q0 -36 29 -60t103 -47
q114 -36 159 -78q49 -46 49 -126q0 -86 -55 -142q-52 -53 -137 -66v-107h-94z" />
    <glyph glyph-name="percent" unicode="%" horiz-adv-x="902" 
d="M156 -36l484 746h105l-484 -746h-105zM42 526q0 88 45 142t123 54q76 0 117 -52q39 -49 39 -134q0 -89 -43 -143t-118 -55q-77 0 -121 53q-42 51 -42 135zM137 531q2 -99 69 -99q35 0 53 29q16 26 16 70q0 42 -16 67q-18 29 -52 29t-53 -29q-17 -26 -17 -67zM533 139
q0 89 44 142q46 55 125 55q76 0 117 -52q39 -49 39 -135q0 -89 -43 -143q-44 -55 -119 -55q-77 -1 -121 53q-42 51 -42 135zM628 143q2 -97 69 -97q34 0 52 29q16 26 16 68q0 44 -15 69q-17 29 -52 29q-34 0 -53 -29q-17 -26 -17 -69z" />
    <glyph glyph-name="ampersand" unicode="&#x26;" horiz-adv-x="866" 
d="M314 -49q-121 0 -194 60q-70 57 -70 148q0 70 42 128q46 64 137 99q-84 84 -84 166q0 75 55 122q56 48 144 48q89 0 143 -46t54 -118q0 -115 -146 -192q114 -121 164 -179q45 54 63 122q15 55 15 133v24h111v-17q0 -95 -29 -181q-31 -91 -92 -161q48 -48 100 -48
q38 0 69 20l29 -97q-51 -31 -110 -31q-50 0 -88 18q-41 19 -85 65q-99 -83 -228 -83zM185 184q0 -50 39 -83q42 -35 113 -35q78 0 137 44q-106 120 -186 208q-103 -44 -103 -134zM264 554q0 -63 71 -123q89 48 89 120q0 38 -24 59q-22 20 -58 20t-57 -21t-21 -55z" />
    <glyph glyph-name="quotesingle" unicode="'" horiz-adv-x="230" 
d="M66 465l-16 244h129l-17 -244h-96z" />
    <glyph glyph-name="parenleft" unicode="(" horiz-adv-x="363" 
d="M67 262q-3 267 162 482l91 -56q-126 -182 -126 -426q0 -247 126 -432l-91 -57q-163 219 -162 489z" />
    <glyph glyph-name="parenright" unicode=")" horiz-adv-x="363" 
d="M295 262q2 -270 -162 -489l-92 57q127 187 127 432q0 244 -126 426l91 56q165 -215 162 -482z" />
    <glyph glyph-name="asterisk" unicode="*" horiz-adv-x="468" 
d="M280 737l-6 -141l131 50l29 -91l-132 -37l87 -107l-76 -57l-79 115l-76 -115l-77 56l86 107l-134 38l29 91l129 -49l-6 140h95z" />
    <glyph glyph-name="plus" unicode="+" horiz-adv-x="668" 
d="M278 25v203h-202v106h202v202h111v-201h201v-107h-201v-203h-111z" />
    <glyph glyph-name="comma" unicode="," horiz-adv-x="260" 
d="M77 118l140 9l-96 -278l-97 -8z" />
    <glyph glyph-name="hyphen" unicode="-" horiz-adv-x="426" 
d="M61 216v94h304v-94h-304z" />
    <glyph glyph-name="period" unicode="." horiz-adv-x="301" 
d="M149 -47q-35 0 -59 24t-24 59t24 61t59 26t60 -26q24 -25 24 -61q0 -35 -24 -59t-60 -24z" />
    <glyph glyph-name="slash" unicode="/" horiz-adv-x="480" 
d="M10 -131l343 871h116l-343 -871h-116z" />
    <glyph glyph-name="zero" unicode="0" horiz-adv-x="647" 
d="M321 -49q-129 0 -198 102q-67 99 -67 276q0 191 70 292t199 101q130 0 197 -100q66 -98 66 -287q0 -181 -67 -282q-68 -100 -200 -102zM188 332q0 -269 135 -269t135 269q0 279 -135 279t-135 -279z" />
    <glyph glyph-name="one" unicode="1" horiz-adv-x="495" 
d="M230 -37v605l-162 -90v125l204 106h88v-746h-130z" />
    <glyph glyph-name="two" unicode="2" horiz-adv-x="583" 
d="M511 77v-114h-459v77l160 168q98 103 135 161q39 62 39 120q0 53 -30 85t-81 32q-89 0 -154 -81l-74 78q91 119 235 119q102 0 166 -63q61 -60 61 -154q0 -79 -41 -154q-41 -74 -144 -186l-82 -88h269z" />
    <glyph glyph-name="three" unicode="3" horiz-adv-x="589" 
d="M271 66q65 0 101 30q35 29 35 83q0 118 -172 118h-54v109h57q149 0 149 102q0 43 -28 71q-30 30 -83 30q-77 0 -154 -64l-60 87q98 90 228 90q93 0 154 -52q63 -54 63 -143q0 -59 -33 -104t-89 -61q72 -17 111 -66q37 -47 37 -114q0 -108 -77 -171q-73 -60 -190 -60
q-150 0 -234 97l64 92q71 -74 175 -74z" />
    <glyph glyph-name="four" unicode="4" horiz-adv-x="634" 
d="M366 -37v133h-332v74l358 539h96v-500h95v-113h-90v-133h-127zM182 205h190v310z" />
    <glyph glyph-name="five" unicode="5" horiz-adv-x="607" 
d="M288 66q68 0 107 38q37 36 37 101q-5 137 -131 138q-76 0 -131 -58l-87 32l30 392h391v-113h-284l-15 -190q58 37 126 37q96 0 157 -61q64 -64 64 -173q0 -112 -72 -184q-74 -74 -195 -74q-67 0 -128 24q-65 25 -105 70l64 96q76 -75 172 -75z" />
    <glyph glyph-name="six" unicode="6" horiz-adv-x="616" 
d="M314 -49q-111 0 -184 69q-74 70 -74 179q0 105 70 226l163 285h139l-184 -296q40 26 102 26q95 0 161 -66q68 -68 68 -172q0 -111 -75 -182q-73 -69 -186 -69zM184 201q0 -62 36 -99q35 -36 94 -36q61 0 95 36q35 37 35 99q0 66 -34 104t-93 38q-61 0 -97 -38t-36 -104z
" />
    <glyph glyph-name="seven" unicode="7" horiz-adv-x="580" 
d="M535 638l-273 -675h-139l278 633h-362v113h496v-71z" />
    <glyph glyph-name="eight" unicode="8" horiz-adv-x="636" 
d="M315 -49q-119 0 -190 62q-70 61 -70 157q0 63 33 114q35 54 101 80q-52 21 -81 65q-28 42 -28 96q0 86 65 141q66 56 170 56q105 0 172 -56q66 -55 66 -141q0 -54 -27 -96q-28 -44 -81 -66q66 -25 101 -79q33 -50 33 -114q0 -97 -69 -157q-71 -62 -195 -62zM187 178
q1 -119 129 -123q131 4 132 123q0 58 -33 92q-35 36 -99 36q-63 0 -97 -36q-32 -34 -32 -92zM208 515q0 -48 28 -77q29 -30 80 -30q52 0 82 30q29 29 29 77q0 50 -29 79t-82 29q-52 0 -80 -29t-28 -79z" />
    <glyph glyph-name="nine" unicode="9" horiz-adv-x="616" 
d="M300 722q113 0 185 -68q73 -69 73 -179q0 -102 -73 -228l-159 -284h-139l194 309q-40 -34 -110 -34q-98 0 -164 66q-67 67 -67 171q0 109 76 179q73 68 184 68zM171 473q0 -62 35 -98t94 -36q60 0 95 36t35 98q0 63 -34 98q-35 36 -95 36t-95 -36t-35 -98z" />
    <glyph glyph-name="colon" unicode=":" horiz-adv-x="301" 
d="M149 -49q-35 0 -59 25t-24 59q0 35 24 61t59 26t60 -26q24 -25 24 -61q0 -35 -24 -59q-25 -25 -60 -25zM66 433q0 34 24 59t59 25t60 -25q24 -24 24 -59q0 -36 -24 -61t-60 -25q-35 0 -59 25t-24 61z" />
    <glyph glyph-name="semicolon" unicode=";" horiz-adv-x="306" 
d="M113 118l140 9l-97 -278l-96 -8zM96 433q0 35 24 59q25 25 59 25t59 -25t25 -59q0 -35 -25 -61q-24 -25 -59 -25t-59 25t-24 61z" />
    <glyph glyph-name="less" unicode="&#x3c;" horiz-adv-x="668" 
d="M233 283v-4l325 -158v-144l-450 246v116l450 246v-144z" />
    <glyph glyph-name="equal" unicode="=" horiz-adv-x="668" 
d="M88 344v107h490v-107h-490zM88 110v108h490v-108h-490z" />
    <glyph glyph-name="greater" unicode="&#x3e;" horiz-adv-x="668" 
d="M433 283l-325 158v144l450 -246v-116l-450 -246v144l325 158v4z" />
    <glyph glyph-name="question" unicode="?" horiz-adv-x="468" 
d="M218 -49q-34 0 -58 25t-24 59q0 35 24 61t58 26q35 0 60 -26t25 -61q0 -34 -25 -59t-60 -25zM8 603q82 119 220 119q87 0 144 -48t57 -119q1 -81 -84 -179q-48 -57 -61 -88q-13 -30 -13 -81v-25h-102v32q0 58 19 103q16 39 57 88q64 72 64 122q0 38 -24 60q-25 23 -66 23
q-83 0 -139 -83z" />
    <glyph glyph-name="at" unicode="@" horiz-adv-x="992" 
d="M505 -175q-199 0 -320 93q-141 108 -141 319q1 120 42 210q42 91 112 152q148 123 343 123q181 0 292 -97q119 -104 119 -293q0 -131 -71 -218q-70 -85 -170 -85q-56 0 -86 30q-26 27 -24 68l-1 1q-20 -47 -65 -72q-41 -23 -95 -23q-79 0 -129 54q-51 55 -51 147
q4 129 77 207t174 80q52 0 88 -24q31 -21 45 -57l23 65h75l-58 -297q-11 -58 -1 -80q9 -22 45 -22q52 0 86 54q38 61 38 173q0 156 -90 231q-80 67 -227 67q-154 -1 -268 -104q-111 -101 -116 -287q0 -169 114 -253q94 -69 248 -69q141 3 230 43l27 -82q-120 -53 -265 -54z
M367 244q0 -60 27 -97t75 -37q67 0 107 73q35 64 35 151q0 56 -25 86q-23 28 -61 28q-66 0 -112 -59t-46 -145z" />
    <glyph glyph-name="A" unicode="A" horiz-adv-x="734" 
d="M151 -37h-137l277 746h155l273 -746h-141l-65 188h-298zM251 257h226q-5 16 -15 44q-48 135 -97 298h-3q-47 -161 -96 -298q-7 -22 -15 -44z" />
    <glyph glyph-name="B" unicode="B" horiz-adv-x="664" 
d="M87 709h276q110 0 170 -46t60 -131q-1 -134 -132 -171v-1q81 -12 123 -61q41 -48 41 -123q0 -213 -284 -213h-254v746zM215 63h138q76 0 109 30q31 28 31 87q0 62 -38 90q-36 27 -111 27h-129v-234zM215 396h115q62 0 96 30t34 83q0 54 -33 78q-32 23 -99 23h-113v-214z
" />
    <glyph glyph-name="C" unicode="C" horiz-adv-x="658" 
d="M411 -49q-150 0 -254 91q-107 94 -113 287q-1 180 109 288q108 105 286 105q106 0 188 -48l-34 -102q-69 39 -151 39q-116 0 -188 -70q-76 -74 -76 -202q0 -137 79 -212q69 -65 177 -65q91 0 160 35l33 -97q-89 -49 -216 -49z" />
    <glyph glyph-name="D" unicode="D" horiz-adv-x="766" 
d="M87 709h218q206 0 305 -83q106 -89 106 -285q0 -198 -112 -291q-104 -87 -313 -87h-204v746zM215 70h69q151 0 219 53q80 62 80 218q0 152 -76 212q-65 51 -211 51h-81v-534z" />
    <glyph glyph-name="E" unicode="E" horiz-adv-x="595" 
d="M87 709h456v-105h-328v-209h289v-106h-289v-219h336v-107h-464v746z" />
    <glyph glyph-name="F" unicode="F" horiz-adv-x="571" 
d="M87 709h454v-107h-326v-238h286v-107h-286v-294h-128v746z" />
    <glyph glyph-name="G" unicode="G" horiz-adv-x="730" 
d="M44 331q2 179 114 284q113 105 298 107q108 0 194 -46l-35 -103q-71 37 -157 37q-121 0 -199 -72q-81 -75 -81 -202q0 -137 89 -211q76 -63 190 -63q56 0 107 15v191h-163v102h275v-366q-87 -53 -237 -53q-168 0 -275 92q-119 102 -120 288z" />
    <glyph glyph-name="H" unicode="H" horiz-adv-x="793" 
d="M87 709h128v-312h362v312h129v-746h-129v322h-362v-322h-128v746z" />
    <glyph glyph-name="I" unicode="I" horiz-adv-x="302" 
d="M87 709h128v-746h-128v746z" />
    <glyph glyph-name="J" unicode="J" horiz-adv-x="510" 
d="M191 66q66 0 90 40q23 38 23 137v466h132v-470q0 -152 -64 -223q-59 -65 -176 -65q-106 0 -185 47l36 112q74 -44 144 -44z" />
    <glyph glyph-name="K" unicode="K" horiz-adv-x="675" 
d="M87 709h128v-351l284 351h150l-307 -370l324 -376h-168l-283 341v-341h-128v746z" />
    <glyph glyph-name="L" unicode="L" horiz-adv-x="586" 
d="M87 709h128v-634h342v-112h-470v746z" />
    <glyph glyph-name="M" unicode="M" horiz-adv-x="916" 
d="M476 170h-30l-126 171q-80 105 -108 157h-3q6 -95 6 -216v-319h-128v746h112l125 -174q68 -94 137 -202q67 101 138 203l119 173h111v-746h-130v317q0 123 6 218h-4q-38 -68 -104 -161z" />
    <glyph glyph-name="N" unicode="N" horiz-adv-x="803" 
d="M87 -37v746h105l256 -344q83 -110 140 -194h3q-4 77 -4 214v324h128v-746h-112l-206 275q-84 109 -181 252h-3q2 -78 2 -204v-323h-128z" />
    <glyph glyph-name="O" unicode="O" horiz-adv-x="820" 
d="M409 -49q-165 0 -264 102q-101 104 -101 283q0 175 104 282q101 104 261 104q161 0 262 -104q103 -106 103 -282q0 -179 -101 -283q-99 -102 -264 -102zM179 336q0 -130 64 -204q62 -71 166 -71t166 71q64 74 64 204t-64 204q-62 72 -166 72t-166 -72q-64 -74 -64 -204z
" />
    <glyph glyph-name="P" unicode="P" horiz-adv-x="633" 
d="M326 709q139 0 210 -60q69 -59 69 -173q0 -118 -78 -183q-76 -64 -210 -64h-102v-63v-203h-128v746h239zM215 333h92q80 0 122 35t42 104q0 134 -157 134h-99v-273z" />
    <glyph glyph-name="Q" unicode="Q" horiz-adv-x="820" 
d="M409 -49q-165 0 -264 102q-101 104 -101 283q0 175 104 282q101 104 261 104q161 0 262 -104q103 -106 103 -282q0 -195 -120 -301l98 -126h-137l-57 72q-69 -30 -149 -30zM179 336q0 -130 64 -204q62 -71 166 -71q43 0 75 16l-118 152h136l73 -95q64 75 64 202
q0 130 -64 204q-62 72 -166 72t-166 -72q-64 -74 -64 -204z" />
    <glyph glyph-name="R" unicode="R" horiz-adv-x="667" 
d="M87 709h225q152 0 219 -52q68 -52 68 -169q0 -151 -126 -206l169 -319h-147l-143 290q-14 -1 -44 -1h-93v-289h-128v746zM215 353h87q93 0 131 30q37 29 37 97q0 69 -38 98q-39 29 -129 29h-88v-254z" />
    <glyph glyph-name="S" unicode="S" horiz-adv-x="614" 
d="M304 -49q-79 0 -148 24q-72 25 -122 72l51 106q104 -89 223 -89q64 0 100 26q37 27 37 75q0 41 -31 66q-30 24 -111 49q-120 37 -176 88q-58 54 -59 135q0 103 76 163q71 56 182 56q130 0 217 -70l-46 -103q-82 62 -173 62q-58 0 -93 -25t-35 -67q0 -39 32 -65
q33 -26 113 -51q127 -40 176 -85q54 -49 54 -136q0 -107 -78 -171q-74 -60 -189 -60z" />
    <glyph glyph-name="T" unicode="T" horiz-adv-x="632" 
d="M15 601v108h601v-108h-236v-638h-128v638h-237z" />
    <glyph glyph-name="U" unicode="U" horiz-adv-x="747" 
d="M378 -50q-304 0 -304 313v446h131v-437q0 -109 41 -158t132 -49t132 49t41 158v437h132v-446q0 -313 -305 -313z" />
    <glyph glyph-name="V" unicode="V" horiz-adv-x="725" 
d="M568 709h148l-272 -746h-163l-274 746h152l103 -303q61 -176 102 -314h4q31 100 100 314z" />
    <glyph glyph-name="W" unicode="W" horiz-adv-x="1029" 
d="M880 709h129l-187 -746h-161l-142 591v1l-152 -592h-157l-191 746h138l133 -605h1l154 605h147l153 -604h1z" />
    <glyph glyph-name="X" unicode="X" horiz-adv-x="685" 
d="M667 -37h-159l-175 274l-162 -274h-155l245 373l-245 373h161l169 -282l170 282h154l-252 -382z" />
    <glyph glyph-name="Y" unicode="Y" horiz-adv-x="684" 
d="M529 709h140l-264 -476v-270h-130v269l-263 477h150l111 -210q33 -63 72 -151h3q37 76 73 152z" />
    <glyph glyph-name="Z" unicode="Z" horiz-adv-x="633" 
d="M29 -37v70l395 562h-379v114h549v-69l-396 -561h398v-116h-567z" />
    <glyph glyph-name="bracketleft" unicode="[" horiz-adv-x="336" 
d="M57 -213v953h247v-103h-134v-748h134v-102h-247z" />
    <glyph glyph-name="backslash" unicode="\" horiz-adv-x="480" 
d="M469 -131h-116l-343 871h116z" />
    <glyph glyph-name="bracketright" unicode="]" horiz-adv-x="336" 
d="M278 740v-953h-247v102h134v748h-134v103h247z" />
    <glyph glyph-name="asciicircum" unicode="^" horiz-adv-x="668" 
d="M330 615l-148 -331h-121l227 438h91l227 -438h-122l-150 331h-4z" />
    <glyph glyph-name="underscore" unicode="_" horiz-adv-x="483" 
d="M-3 -217v87h488v-87h-488z" />
    <glyph glyph-name="grave" unicode="`" horiz-adv-x="241" 
d="M136 598l-136 169h122l109 -169h-95z" />
    <glyph glyph-name="a" unicode="a" horiz-adv-x="549" 
d="M389 -37l-10 90q-11 -41 -55 -71t-112 -31q-82 0 -132 45q-51 46 -51 123q0 89 72 138q66 45 176 45q46 0 93 -11v6q-1 129 -117 129q-69 0 -161 -46l-32 83q102 54 204 54q107 0 166 -62q61 -64 61 -185v-307h-102zM149 134q-1 -41 25 -64q25 -22 72 -22q53 0 88 31
q37 33 37 87v46q-36 12 -86 12q-61 0 -96 -21q-39 -23 -40 -69z" />
    <glyph glyph-name="b" unicode="b" horiz-adv-x="634" 
d="M595 240q-1 -136 -70 -214q-66 -75 -175 -75q-114 3 -175 89q-5 -39 -10 -77h-100v777h124v-305q64 78 176 82q98 0 163 -73q68 -76 67 -204zM183 222q0 -80 42 -129q41 -48 105 -48q63 0 99 49q37 50 37 142q0 88 -37 138q-36 49 -97 49q-62 0 -104 -47
q-45 -50 -45 -130v-24z" />
    <glyph glyph-name="c" unicode="c" horiz-adv-x="498" 
d="M337 415q-73 0 -120 -45q-52 -49 -52 -132q0 -86 46 -134q45 -47 124 -47q53 0 101 21l34 -89q-69 -38 -152 -38q-129 0 -205 76q-75 75 -75 203t83 208q82 79 210 79q81 0 142 -33l-36 -93q-46 24 -100 24z" />
    <glyph glyph-name="d" unicode="d" horiz-adv-x="639" 
d="M472 -37l-10 86q-50 -92 -182 -98q-106 0 -173 72q-70 76 -69 205q1 135 77 215q71 74 180 74q103 -5 153 -69v292h125v-777h-101zM170 239q0 -88 38 -139t104 -51q64 0 103 46q40 47 40 129v24q0 84 -40 131q-38 45 -100 45q-65 0 -104 -47q-41 -49 -41 -138z" />
    <glyph glyph-name="e" unicode="e" horiz-adv-x="577" 
d="M307 423q-55 0 -92 -33q-40 -36 -51 -104h265q-3 67 -35 102t-87 35zM38 230q0 130 76 209q75 78 195 78q105 0 169 -68q66 -70 66 -192q0 -28 -4 -52h-378q7 -73 54 -114q46 -40 123 -40q79 0 142 36l34 -86q-76 -50 -193 -50q-130 0 -206 73q-78 75 -78 206z" />
    <glyph glyph-name="f" unicode="f" horiz-adv-x="346" 
d="M91 340v69h-78v96h78v43q0 99 53 153q50 51 135 51q53 0 89 -21l-20 -93q-27 15 -52 15q-40 0 -60 -27q-21 -29 -21 -93v-28h117v-96h-117v-66v-380h-124v377z" />
    <glyph glyph-name="g" unicode="g" horiz-adv-x="636" 
d="M170 255q0 -83 38 -131q39 -49 104 -49q64 0 103 44q40 45 40 122v24q0 79 -40 123q-38 42 -100 42q-65 0 -104 -44q-41 -47 -41 -131zM38 245q1 127 77 202q71 70 180 70q57 0 104 -26q45 -25 66 -63l7 76h100v-448q0 -161 -87 -242q-76 -70 -208 -72q-120 -1 -220 46
l37 102q84 -45 186 -45q170 0 170 184v32q-53 -72 -170 -76q-106 0 -173 68q-70 71 -69 192z" />
    <glyph glyph-name="h" unicode="h" horiz-adv-x="625" 
d="M65 -37v777h122v-330q21 47 69 76q51 31 114 31q89 0 141 -58q53 -59 53 -166v-330h-126v291q0 85 -25 124t-81 39q-63 0 -102 -45t-39 -120v-289h-126z" />
    <glyph glyph-name="i" unicode="i" horiz-adv-x="254" 
d="M64 -37v543h125v-543h-125zM47 669q0 32 22 53t54 21q35 0 58 -21t23 -53q0 -33 -23 -54t-58 -21q-33 0 -54 21q-22 22 -22 54z" />
    <glyph glyph-name="j" unicode="j" horiz-adv-x="290" 
d="M-38 -133q35 -12 68 -12t46 20q13 21 13 78v551h126v-562q0 -194 -174 -194q-49 0 -98 15zM72 669q0 33 21 53q22 21 56 21t57 -21t23 -53t-23 -54q-22 -21 -57 -21t-56 21t-21 54z" />
    <glyph glyph-name="k" unicode="k" horiz-adv-x="551" 
d="M190 -37h-125v777h125v-475l192 240h150l-220 -251l236 -291h-160l-198 264v-264z" />
    <glyph glyph-name="l" unicode="l" horiz-adv-x="256" 
d="M190 -37h-125v777h125v-777z" />
    <glyph glyph-name="m" unicode="m" horiz-adv-x="929" 
d="M64 -37v542h110l9 -103q20 51 64 82q46 33 103 33q116 -1 162 -115q23 50 67 81q48 34 109 34q81 0 130 -57q50 -58 50 -162v-335h-126v300q3 152 -92 152q-53 0 -86 -41q-35 -44 -35 -122v-289h-127v300q4 152 -91 152q-53 0 -86 -41q-35 -44 -35 -122v-289h-126z" />
    <glyph glyph-name="n" unicode="n" horiz-adv-x="623" 
d="M64 -37v542h110l9 -101q21 51 72 82t113 31q89 0 141 -58q53 -59 53 -166v-330h-126v291q0 85 -25 124t-81 39q-63 0 -101 -45q-39 -46 -39 -120v-289h-126z" />
    <glyph glyph-name="o" unicode="o" horiz-adv-x="620" 
d="M309 424q-68 0 -106 -52q-37 -51 -37 -138q0 -86 37 -136q38 -52 106 -52t106 52q37 50 37 136q0 87 -37 138q-38 52 -106 52zM38 234q0 131 76 208q74 75 195 75q123 0 197 -75q76 -77 76 -208t-76 -208q-74 -75 -197 -75q-121 0 -195 75q-76 77 -76 208z" />
    <glyph glyph-name="p" unicode="p" horiz-adv-x="632" 
d="M364 517q98 0 162 -73q68 -77 67 -204q-1 -136 -70 -214q-66 -75 -175 -75q-96 2 -158 68v-264h-125v750h106l6 -83v-1q64 92 187 96zM181 222q0 -80 42 -129q41 -48 105 -48q63 0 99 49q37 50 37 142q0 88 -37 138q-36 49 -97 49t-104 -47q-45 -50 -45 -130v-24z" />
    <glyph glyph-name="q" unicode="q" horiz-adv-x="635" 
d="M170 239q0 -88 38 -139t104 -51q64 0 103 46q40 47 40 129v24q0 84 -40 131q-38 45 -100 45q-65 0 -104 -47q-41 -49 -41 -138zM38 228q1 135 77 215q71 74 180 74q54 0 101 -26q43 -24 65 -62l5 76h107v-750h-126v273q-53 -72 -167 -77q-106 0 -173 72q-70 76 -69 205z
" />
    <glyph glyph-name="r" unicode="r" horiz-adv-x="406" 
d="M372 380q-27 10 -56 10q-54 0 -89 -46q-37 -48 -37 -125v-256h-126v542h110l9 -115l1 -1q18 62 63 97q40 31 88 31q37 0 57 -10z" />
    <glyph glyph-name="s" unicode="s" horiz-adv-x="480" 
d="M238 -49q-122 0 -205 59l36 95q84 -59 174 -59q84 2 86 59q0 27 -23 46q-25 20 -80 37q-83 25 -125 61q-48 41 -48 104q0 74 55 119q56 45 150 45q95 0 170 -49l-35 -90q-63 45 -135 45q-40 0 -62 -15q-23 -15 -23 -44q0 -26 21 -41q19 -14 75 -31q94 -29 135 -68
q42 -40 41 -104q-1 -79 -56 -124t-151 -45z" />
    <glyph glyph-name="t" unicode="t" horiz-adv-x="407" 
d="M91 652h122v-147h153v-99h-153v-69v-150q0 -75 18 -103t66 -28q38 0 73 12l17 -91q-52 -26 -123 -26q-84 0 -127 50q-46 54 -46 165v240h-80v99h80v51v96z" />
    <glyph glyph-name="u" unicode="u" horiz-adv-x="610" 
d="M545 506v-543h-106l-14 95q-17 -48 -68 -78q-49 -29 -109 -29q-88 0 -139 58q-52 59 -52 165v332h126v-298q-4 -156 105 -155q60 0 95 40q36 42 36 117v296h126z" />
    <glyph glyph-name="v" unicode="v" horiz-adv-x="577" 
d="M434 505h133l-215 -542h-132l-211 542h138l70 -202q37 -105 73 -210l72 206z" />
    <glyph glyph-name="w" unicode="w" horiz-adv-x="831" 
d="M357 505h125l64 -236q24 -87 50 -197q18 102 41 196l57 236h122l-145 -541h-150l-66 246q-27 104 -37 152q-11 -65 -36 -150l-75 -248h-151l-143 542h129l54 -225q30 -132 43 -212q27 113 55 208z" />
    <glyph glyph-name="x" unicode="x" horiz-adv-x="561" 
d="M8 -37l194 267l-194 275h143l132 -199l127 199h143l-200 -280l199 -262h-147l-132 188l-120 -188h-145z" />
    <glyph glyph-name="y" unicode="y" horiz-adv-x="569" 
d="M427 505h132l-226 -581q-39 -101 -95 -144q-49 -38 -119 -38q-47 0 -91 18l26 104q35 -14 66 -14q32 0 50 16q19 17 43 70q3 6 4 7l-208 562h138l67 -196q43 -121 73 -234q24 84 72 230z" />
    <glyph glyph-name="z" unicode="z" horiz-adv-x="503" 
d="M25 -37v74l179 227q47 62 108 136h-277v105h432v-72l-172 -220q-48 -64 -113 -144h292v-106h-449z" />
    <glyph glyph-name="braceleft" unicode="{" horiz-adv-x="366" 
d="M313 -233q-95 17 -138 60q-43 44 -43 125v156q0 52 -20 75q-19 22 -61 24v102q43 2 62 25t19 76v155q0 82 43 126q42 44 138 61l21 -92q-48 -14 -68 -41q-20 -28 -20 -80v-145q0 -110 -77 -134v-2q77 -26 77 -134v-139q0 -59 18 -86q19 -28 70 -41z" />
    <glyph glyph-name="bar" unicode="|" horiz-adv-x="270" 
d="M87 -287v1066h96v-1066h-96z" />
    <glyph glyph-name="braceright" unicode="}" horiz-adv-x="366" 
d="M31 -142q50 13 69 41q18 27 18 86v139q0 108 76 134v2q-76 24 -76 134v145q0 52 -20 80q-20 27 -67 41l19 92q96 -17 139 -61t43 -126v-155q0 -52 20 -76q19 -23 61 -25v-102q-42 -2 -61 -24q-20 -23 -20 -75v-156q0 -81 -43 -125q-43 -43 -139 -60z" />
    <glyph glyph-name="asciitilde" unicode="~" horiz-adv-x="668" 
d="M315 234q-64 27 -105 27q-60 0 -117 -53l-29 88q71 66 150 66q52 0 136 -34q68 -27 110 -27q62 0 114 51l29 -85q-54 -64 -146 -66q-57 -5 -142 33z" />
    <glyph glyph-name="uni4E00" unicode="&#x4e00;" 
d="M50 306v119h900v-119h-900z" />
    <glyph glyph-name="uni4E01" unicode="&#x4e01;" 
d="M595 628v-589q0 -69 -37 -94q-35 -24 -130 -24h-173l-18 120h155q48 0 64 11t16 46v530h-413v112h880v-112h-344z" />
    <glyph glyph-name="uni4E03" unicode="&#x4e03;" 
d="M460 390v-274q0 -56 22 -78q21 -21 79 -21h131q49 0 71 18q21 18 28 63q12 78 15 133l119 -39q-11 -82 -25 -154t-57 -101q-44 -30 -142 -30h-172q-102 0 -146 44t-44 143v277l-269 -41l-16 111l285 43v317h121v-298l470 71l16 -110z" />
    <glyph glyph-name="uni4E07" unicode="&#x4e07;" 
d="M419 636q-5 -95 -7 -131q-1 -16 -2 -31h428l-21 -416q-5 -82 -43 -108t-152 -26h-159l-16 106h148q65 0 87 15t24 61l12 264h-316q-18 -157 -76 -261q-59 -107 -188 -213l-85 86q131 106 179 202q47 93 62 271q5 53 9 181h-239v104h870v-104h-515z" />
    <glyph glyph-name="uni4E08" unicode="&#x4e08;" 
d="M473 224q82 104 88 285q1 8 1 16h-490v106h492q1 66 1 167h115q1 -51 -2 -167h250v-106h-253q0 -13 -1 -19q-12 -224 -112 -350q129 -80 388 -126l-54 -118q-270 56 -418 161q-119 -96 -360 -177l-66 107q230 68 337 144q-99 100 -187 289l95 49q78 -172 176 -261z" />
    <glyph glyph-name="uni4E09" unicode="&#x4e09;" 
d="M116 615v114h768v-114h-768zM63 -37v113h876v-113h-876zM161 301v111h681v-111h-681z" />
    <glyph glyph-name="uni4E0A" unicode="&#x4e0a;" 
d="M519 58h422v-110h-882v110h339v743h121v-272h353v-109h-353v-362z" />
    <glyph glyph-name="uni4E0B" unicode="&#x4e0b;" 
d="M523 399v-496h-121v730h-341v109h878v-109h-416v-228l68 83q133 -85 310 -207l-75 -98q-151 114 -303 216z" />
    <glyph glyph-name="uni4E0D" unicode="&#x4e0d;" 
d="M870 127q-139 122 -290 236l75 77q181 -132 296 -222zM498 455h59v-554h-118v482q-126 -143 -322 -275l-69 101q297 183 431 422h-392v107h842v-107h-317q-54 -98 -114 -176z" />
    <glyph glyph-name="uni4E0E" unicode="&#x4e0e;" 
d="M312 682h614v-103h-622l-11 -119h592l-22 -399q-5 -87 -49 -117q-43 -29 -166 -29h-180l-16 110h173q72 0 97 17t27 68l14 248h-592l36 446h116zM53 144v103h641v-103h-641z" />
    <glyph glyph-name="uni4E11" unicode="&#x4e11;" 
d="M815 48h126v-102h-883v102h194l28 261h-161v101h173l27 245h-205v101h737zM717 410l14 245h-296l-27 -245h309zM712 309h-316l-28 -261h330z" />
    <glyph glyph-name="uni4E13" unicode="&#x4e13;" 
d="M639 52q78 -29 156 -57l-61 -105q-324 133 -561 219l51 90q219 -77 295 -105q126 88 196 140h-541v90q24 42 47 93h-168v94h214q14 30 42 94h-206v93h249q35 84 45 112l128 -3q-15 -35 -47 -109h421v-93h-466q-19 -47 -41 -94h555v-94h-601q-12 -26 -45 -90h561v-108
q-122 -94 -223 -167z" />
    <glyph glyph-name="uni4E14" unicode="&#x4e14;" 
d="M835 38h111v-99h-893v99h111v718h671v-718zM722 38v143h-444v-143h444zM722 276v142h-444v-142h444zM722 514v144h-444v-144h444z" />
    <glyph glyph-name="uni4E16" unicode="&#x4e16;" 
d="M822 485v-313h-405v313h-147v-445h658v-101h-766v546h-102v103h102v173h108v-173h147v211h108v-211h190v212h107v-212h119v-103h-119zM715 272v213h-190v-213h190z" />
    <glyph glyph-name="uni4E18" unicode="&#x4e18;" 
d="M714 53h231v-104h-890v104h131v677q336 8 641 43l32 -107q-274 -24 -562 -36v-184h603v-103h-186v-290zM603 53v290h-306v-290h306z" />
    <glyph glyph-name="uni4E19" unicode="&#x4e19;" 
d="M558 539h330v-513q0 -65 -34 -88q-32 -22 -121 -22h-127l-15 101h124q39 0 53 10q13 9 13 37v378h-229q-4 -43 -15 -82q84 -64 233 -190l-75 -82q-122 115 -196 181q-58 -101 -203 -204l-76 85v-244h-107v633h338q2 74 2 115h-397v99h888v-99h-385q0 -58 -1 -115z
M445 442h-225v-290q115 73 165 139q48 64 60 151z" />
    <glyph glyph-name="uni4E1A" unicode="&#x4e1a;" 
d="M674 52h264v-106h-876v106h264v742h108v-742h132v742h108v-742zM215 205q-57 170 -139 393l94 34q77 -198 144 -392zM776 207l-96 40q72 162 151 382l98 -36q-83 -227 -153 -386z" />
    <glyph glyph-name="uni4E1B" unicode="&#x4e1b;" 
d="M356 572q48 -47 164 -159l-71 -86q-32 39 -108 121q-36 -190 -199 -362l-86 80q104 111 147 211q43 99 50 245q4 86 6 179h108q-2 -64 -3 -99v-3q0 -8 -5 -88q-3 -36 -3 -39zM63 -61v108h875v-108h-875zM711 651q22 -178 78 -288q53 -103 161 -194l-83 -87
q-79 76 -126 154q-49 82 -73 182q-44 -185 -214 -349l-84 77q121 105 174 216q50 105 59 262q7 112 7 177h109z" />
    <glyph glyph-name="uni4E1C" unicode="&#x4e1c;" 
d="M878 -52q-127 120 -228 202l73 75q114 -89 232 -195zM122 -61l-77 79q115 100 217 216l85 -66q-135 -146 -225 -229zM588 280v-260q0 -66 -34 -89q-32 -22 -122 -22h-111l-16 107h102q42 0 55 9q14 10 14 39v216h-354v107q55 76 124 193h-181v102h239q37 70 61 124
l123 -11q-17 -35 -57 -113h505v-102h-565q-68 -121 -121 -198h226v150h112v-150h315v-102h-315z" />
    <glyph glyph-name="uni4E1D" unicode="&#x4e1d;" 
d="M60 -58v103h879v-103h-879zM492 520q18 11 44 43q75 93 160 233l104 -40q-113 -159 -194 -252q97 2 149 5q46 59 78 105l94 -52q-137 -172 -270 -313q109 1 244 8l-8 -96q-253 -10 -376 -12l-19 91q41 19 76 57q63 64 107 120q-96 -3 -193 -6l-18 81q-114 -152 -198 -243
q124 6 192 12l-4 -97q-229 -16 -336 -22l-25 92q46 19 88 63q48 50 105 125q-63 -3 -194 -7l-22 95q38 19 67 57q76 97 154 233l106 -40q-121 -171 -190 -253q74 2 148 5q63 94 72 109l96 -51q-18 -25 -37 -50z" />
    <glyph glyph-name="uni4E22" unicode="&#x4e22;" 
d="M766 -37q-433 -16 -638 -23l-21 92q53 23 108 72q53 46 109 110h-267v97h388v124h-327v96h327v119q-82 -3 -323 -10l-22 98q468 8 766 29l28 -98q-257 -12 -339 -15v-123h327v-96h-327v-124h388v-97h-476q-99 -102 -174 -169q128 3 384 11q-2 2 -88 91l82 53
q161 -154 243 -239l-87 -64q-35 39 -61 66z" />
    <glyph glyph-name="uni4E24" unicode="&#x4e24;" 
d="M793 167l-50 -65q-64 77 -110 126q-37 -102 -123 -207l-78 68q74 88 105 163q30 74 38 187v5h-153q-3 -45 -9 -84q61 -53 105 -92l-56 -85q-50 50 -74 72q-35 -103 -117 -210l-63 59v-195h-102v628h218q1 40 1 114h-268v96h888v-96h-265q-2 -70 -2 -114h217v-518
q0 -60 -32 -82q-31 -21 -114 -21h-112l-13 92h102q39 0 53 10t14 38v111zM793 200v244h-119q-3 -63 -13 -112q81 -78 132 -132zM427 651l-2 -114h152q1 38 1 114h-151zM325 444h-117v-312q109 137 117 312z" />
    <glyph glyph-name="uni4E25" unicode="&#x4e25;" 
d="M667 429h270v-93h-707v-82q0 -123 -18 -197q-20 -80 -74 -165l-91 58q48 70 64 136q15 60 15 170v173h227v236h-281v94h866v-94h-271v-236zM567 429v236h-113v-236h113zM231 448q-55 79 -108 149l81 53q56 -70 109 -144zM783 445l-76 59q62 74 110 145l81 -53
q-61 -86 -115 -151z" />
    <glyph glyph-name="uni4E27" unicode="&#x4e27;" 
d="M698 401l-69 68q86 79 142 139l76 -62q-62 -65 -149 -145zM284 403q-44 52 -132 143l76 59q73 -70 137 -138zM693 112q90 -51 257 -85l-52 -105q-217 58 -322 140q-110 84 -178 244h-102v-266q89 25 201 66l13 -105q-112 -40 -312 -99l-42 94q34 22 34 70v240h-132v94
h388v215h-351v93h351v99h106v-99h352v-93h-352v-215h389v-94h-428q40 -81 99 -136q132 80 199 131l71 -73q-97 -64 -189 -116z" />
    <glyph glyph-name="uni4E2A" unicode="&#x4e2a;" 
d="M440 -101v559h117v-559h-117zM451 803h100q60 -110 157 -202q101 -97 252 -183l-66 -104q-241 146 -392 357q-151 -211 -392 -357l-65 104q151 87 251 183q95 91 155 202z" />
    <glyph glyph-name="uni4E2B" unicode="&#x4e2b;" 
d="M439 -99v540h118v-540h-118zM360 464q-148 134 -282 243l76 85q130 -101 291 -233zM633 466l-79 88q133 103 281 240l86 -87q-169 -151 -288 -241z" />
    <glyph glyph-name="uni4E2D" unicode="&#x4e2d;" 
d="M787 206h-232v-312h-113v312h-231v-56h-111v483h342v175h113v-175h344v-481h-112v54zM787 311v219h-232v-219h232zM442 311v219h-231v-219h231z" />
    <glyph glyph-name="uni4E30" unicode="&#x4e30;" 
d="M556 101v-202h-115v202h-378v101h378v135h-293v101h293v130h-341v102h341v133h115v-133h344v-102h-344v-130h295v-101h-295v-135h380v-101h-380z" />
    <glyph glyph-name="uni4E32" unicode="&#x4e32;" 
d="M797 61h-243v-165h-109v165h-240v-42h-105v328h345v79h-304v280h304v99h109v-99h304v-280h-304v-79h348v-328h-105v42zM797 150v108h-243v-108h243zM753 515v103h-199v-103h199zM445 150v108h-240v-108h240zM445 515v103h-198v-103h198z" />
    <glyph glyph-name="uni4E34" unicode="&#x4e34;" 
d="M251 -102v905h97v-905h-97zM90 -17v726h85v-726h-85zM818 -38h-300v-61h-91v488h483v-488h-92v61zM818 52v247h-109v-247h109zM626 52v247h-108v-247h108zM602 679h344v-94h-392q-41 -75 -112 -163l-78 69q121 138 175 317l108 -16q-20 -58 -45 -113zM717 395
q-53 53 -131 126l68 59q66 -54 135 -119z" />
    <glyph glyph-name="uni4E38" unicode="&#x4e38;" 
d="M435 648h293v-571q0 -33 11 -46q10 -12 35 -12h17q30 0 43 12q11 11 15 41q9 72 13 157l95 -29q-7 -114 -19 -184q-10 -59 -41 -84t-94 -25h-63q-65 0 -94 33t-29 107v496h-185q-2 -36 -3 -53q-6 -109 -17 -177q59 -29 163 -81l-49 -106q-43 23 -144 77q-30 -80 -91 -151
q-57 -66 -166 -152l-78 94q100 71 152 128q55 60 82 133q-128 66 -196 98l48 90q165 -78 174 -82q4 26 13 139q1 14 1 43h-238v105h241q2 126 2 158h113z" />
    <glyph glyph-name="uni4E39" unicode="&#x4e39;" 
d="M830 268v-232q0 -69 -35 -93q-34 -23 -129 -23h-138l-15 102h123q49 0 66 12t17 48v186h-410q-7 -119 -35 -203q-27 -81 -90 -172l-102 66q60 75 84 137q27 68 33 172h-144v103h146v23v372h629v-395h118v-103h-118zM719 371v294h-407v-263v-31h407zM539 407
q-70 88 -134 159l77 57q96 -102 140 -153z" />
    <glyph glyph-name="uni4E3A" unicode="&#x4e3a;" 
d="M395 588q1 7 1 14q8 82 11 205h117q-6 -128 -13 -206q0 -7 -1 -13h388l-25 -528q-2 -71 -34 -102q-40 -38 -167 -36h-165l-16 108h157q67 0 90 16t25 63l17 376h-280q-17 -183 -95 -318q-77 -135 -266 -271l-81 95q166 115 239 229q68 106 88 265h-303v103h313zM260 594
q-36 46 -122 140l76 64q89 -87 131 -131zM632 163q-47 53 -146 155l74 65q110 -99 154 -142z" />
    <glyph glyph-name="uni4E3B" unicode="&#x4e3b;" 
d="M575 639h323v-104h-341v-183h300v-105h-300v-199h377v-107h-868v107h378v199h-298v105h298v183h-340v104h350q-23 76 -51 150l118 18q28 -74 54 -168z" />
    <glyph glyph-name="uni4E3D" unicode="&#x4e3d;" 
d="M59 659v97h883v-97h-883zM628 486v-586h-94v680h365v-580q0 -53 -27 -71q-26 -18 -99 -18h-80l-11 83h73q29 0 39 7t10 28v457h-176zM628 374l74 29q46 -90 101 -215l-76 -32q-35 83 -99 218zM198 354v-454h-95v680h356v-576q0 -54 -28 -73t-102 -19h-75l-13 91h75
q29 0 39 7t10 29v447h-167v-117l67 27q56 -114 98 -209l-76 -32q-37 88 -89 199z" />
    <glyph glyph-name="uni4E3E" unicode="&#x4e3e;" 
d="M482 618q-31 74 -79 165l101 25q44 -81 80 -163zM239 605q-46 81 -94 157l96 33q57 -86 97 -154zM739 318v-71h-185v-99h357v-90h-357v-159h-106v159h-358v90h358v99h-186v70q-66 -59 -164 -114l-52 94q180 85 257 206h-238v90h559q75 113 131 209l103 -47
q-54 -79 -119 -162h198v-90h-239q89 -130 255 -191l-46 -97q-101 47 -168 103zM720 334q-76 70 -129 169h-176q-61 -101 -134 -169h167v118h106v-118h166z" />
    <glyph glyph-name="uni4E43" unicode="&#x4e43;" 
d="M388 651q-1 -57 -5 -148q-11 -219 -59 -340q-53 -134 -193 -267l-78 100q119 107 163 214q45 108 52 286q4 69 6 155h-180v101h729v-97l-123 -191h217l-22 -405q-5 -83 -45 -110t-155 -27h-173l-16 107h166q65 0 88 16t26 62l14 260h-233v95l118 189h-297z" />
    <glyph glyph-name="uni4E45" unicode="&#x4e45;" 
d="M609 326q110 -203 342 -310l-70 -113q-222 123 -337 329q-150 -193 -420 -336l-69 104q217 106 351 250q126 135 185 313h-249q-72 -119 -166 -217l-80 83q160 165 239 377l120 -10q-22 -62 -56 -131h322v-98q-47 -133 -112 -241z" />
    <glyph glyph-name="uni4E48" unicode="&#x4e48;" 
d="M788 -20q-223 -12 -655 -32l-23 97q50 22 105 72q96 86 232 243q143 164 235 297l104 -71q-247 -316 -479 -527q145 6 415 20q-51 76 -122 177l88 54q197 -266 247 -337l-100 -64q-25 37 -47 71zM136 303l-82 89q111 86 212 196q94 102 168 213l103 -63
q-188 -263 -401 -435z" />
    <glyph glyph-name="uni4E49" unicode="&#x4e49;" 
d="M495 544q-40 102 -100 228l96 36q61 -124 107 -223zM586 185q5 -4 10 -7q133 -97 352 -159l-65 -113q-242 84 -382 201q-135 -111 -385 -211l-65 107q230 78 365 184q-156 171 -262 505l102 39q96 -311 244 -468q164 174 233 474l111 -29q-46 -176 -104 -296
q-63 -130 -154 -227z" />
    <glyph glyph-name="uni4E4B" unicode="&#x4e4b;" 
d="M580 635h294v-110q-242 -242 -540 -419q6 -6 12 -11q36 -33 80 -46q41 -12 112 -12h409l-18 -104h-419q-96 0 -156 26t-110 88q-22 28 -45 0q-46 -51 -110 -133l-42 126q60 63 108 109q39 39 72 39q17 0 31 -7q249 152 462 351h-601v103h341q-22 69 -56 153l120 18
q24 -65 56 -171z" />
    <glyph glyph-name="uni4E4C" unicode="&#x4e4c;" 
d="M52 103v92h670v-92h-670zM479 716h350l-11 -176q-4 -67 -38 -90t-128 -23h-170l-13 88h163q45 0 61 11t18 42l4 55h-432v-254h629q-5 -81 -16 -313q-5 -85 -45 -113q-41 -28 -160 -28h-167l-15 98h170q63 0 85 15t24 60q5 94 9 189h-624v439h189q13 32 35 92l124 -8z" />
    <glyph glyph-name="uni4E4D" unicode="&#x4e4d;" 
d="M497 113v-213h-116v672h-74q-76 -123 -181 -228l-83 82q171 165 257 382l119 -9q-29 -72 -56 -125h572v-102h-438v-125h386v-101h-386v-130h416v-103h-416z" />
    <glyph glyph-name="uni4E4E" unicode="&#x4e4e;" 
d="M291 376q-109 128 -150 172l74 68q133 -138 157 -165zM711 374l-76 67q104 120 157 185l85 -61q-93 -111 -166 -191zM562 249v-225q0 -65 -34 -89q-33 -23 -122 -23h-143l-15 105h123q47 0 63 11t16 45v176h-392v100h392v299q-6 0 -328 -9l-19 98q377 7 767 27l23 -97
q-156 -9 -331 -15v-303h380v-100h-380z" />
    <glyph glyph-name="uni4E4F" unicode="&#x4e4f;" 
d="M114 634l-15 100q417 8 790 28l14 -98q-306 -18 -789 -30zM328 81q35 -29 81 -41q45 -12 114 -12h423l-18 -101h-423q-106 0 -158 20q-54 21 -106 83q-22 26 -44 3q-62 -66 -107 -127l-42 124q85 80 116 104q31 28 60 28q16 0 33 -10q237 98 445 224h-572v95h333
q-50 110 -60 131l113 14q24 -51 63 -145h283v-113q-139 -93 -279 -163q-105 -53 -255 -114z" />
    <glyph glyph-name="uni4E50" unicode="&#x4e50;" 
d="M576 309v-290q0 -65 -33 -87q-31 -21 -120 -21h-117l-16 108h111q36 0 49 9t13 35v246h-356l49 429q350 2 683 37l33 -104q-308 -27 -615 -33q-7 -72 -28 -228h234v178h113v-178h329v-101h-329zM136 -55l-87 72q107 106 205 255l93 -56q-104 -150 -211 -271zM856 -49
q-62 83 -205 259l83 56q105 -119 214 -248z" />
    <glyph glyph-name="uni4E52" unicode="&#x4e52;" 
d="M167 -108l-68 83q150 80 280 180l77 -71q-139 -107 -289 -192zM725 254h221v-99h-891v99h141v490q372 8 630 41l34 -100q-267 -27 -555 -36v-119h603v-98h-183v-178zM616 254v178h-311v-178h311z" />
    <glyph glyph-name="uni4E53" unicode="&#x4e53;" 
d="M722 253h222v-98h-884v98h135v490q373 9 630 41l35 -100q-290 -27 -555 -36v-118h602v-97h-185v-180zM615 253v180h-310v-180h310zM823 -109q-135 91 -284 179l66 77q159 -90 285 -168z" />
    <glyph glyph-name="uni4E54" unicode="&#x4e54;" 
d="M715 231v-326h-104v338h80q-125 68 -185 197q-26 -59 -72 -105q-49 -49 -126 -92h94q-1 -27 -7 -91q-9 -90 -48 -145q-43 -60 -148 -117l-88 66q99 49 137 92q36 41 44 111q5 36 6 78q-89 -46 -198 -82l-49 101q146 40 230 87q79 44 118 104h-317v95h356q12 56 16 117
q-159 -4 -318 -7l-16 96q387 1 745 22l20 -96l-322 -12q-5 -49 -16 -120h374v-95h-314q90 -137 345 -180l-42 -105q-119 32 -195 69z" />
    <glyph glyph-name="uni4E56" unicode="&#x4e56;" 
d="M549 495v-598h-101v598h-388v88h388v82q-104 -4 -326 -8l-14 88q376 4 763 22l14 -86q-260 -11 -336 -13v-85h393v-88h-393zM729 247v-71q0 -27 11 -38q10 -10 35 -10h33q23 0 35 9q11 9 15 29q7 33 11 78l81 -26q-13 -76 -19 -103q-10 -40 -35 -58q-26 -18 -74 -18h-69
q-64 0 -91 27q-28 28 -28 92v294h95v-114q93 41 158 79l51 -74q-90 -47 -209 -96zM268 113q-76 -21 -195 -47l-20 94q127 23 215 44v88h-191v83h191v77h95v-424h-95v85z" />
    <glyph glyph-name="uni4E58" unicode="&#x4e58;" 
d="M735 348v-36q0 -27 10 -38q10 -10 35 -10h40q26 0 38 9q11 8 15 29q7 35 10 60l69 -23q-7 -52 -15 -83q-9 -35 -30 -51q-24 -18 -69 -18h-80q-58 0 -86 28t-28 87v197h91v-75q81 25 163 58l35 -70q-83 -31 -198 -64zM353 194q55 57 95 129v207h-384v82h384v70
q-108 -3 -327 -5l-19 80q377 0 770 18l23 -81q-106 -4 -345 -10v-72h388v-82h-388v-204q65 -118 161 -190q91 -68 238 -114l-48 -98q-244 98 -351 251v-278h-102v277q-96 -140 -343 -257l-54 94q192 78 288 170h-77v40q-80 -20 -180 -40l-20 84q122 20 200 38v59h-178v80
h178v57h91v-305z" />
    <glyph glyph-name="uni4E59" unicode="&#x4e59;" 
d="M307 -76q-221 0 -221 160q-6 83 110 196q149 140 417 361h-495v109h676v-110q-329 -263 -514 -437q-70 -66 -70 -108q0 -34 30 -49t97 -15h302q83 0 118 23q31 21 38 72q8 53 16 156l117 -34q-18 -143 -29 -190q-17 -75 -66 -104q-50 -30 -163 -30h-363z" />
    <glyph glyph-name="uni4E5D" unicode="&#x4e5d;" 
d="M424 611h297v-537q0 -31 11 -43q10 -11 35 -11h21q25 0 37 12q11 11 15 38q9 62 12 159l101 -28q-8 -103 -21 -185q-10 -61 -40 -85t-96 -24h-65q-69 0 -97 32q-29 33 -29 111v456h-186q-1 -26 -3 -52q-8 -201 -68 -319q-61 -119 -223 -237l-77 93q145 104 197 201
t58 267q1 23 2 47h-230v105h233q4 97 4 195h117q-1 -54 -5 -195z" />
    <glyph glyph-name="uni4E5E" unicode="&#x4e5e;" 
d="M328 -80q-91 1 -139 34q-43 30 -43 79q0 66 57 118q111 92 335 224h-328v97h533v-101q-245 -135 -425 -259q-45 -34 -45 -58q1 -18 23 -27q23 -9 76 -9h293q77 0 106 20q27 18 35 69q7 46 12 117l111 -29q-11 -85 -23 -149q-13 -69 -57 -96q-49 -30 -160 -30h-361z
M347 691h565v-101h-636q-52 -68 -145 -157l-69 90q139 122 218 284l122 -16q-30 -58 -55 -100z" />
    <glyph glyph-name="uni4E5F" unicode="&#x4e5f;" 
d="M271 419v-305q0 -63 22 -84q20 -19 80 -19h350q57 0 79 14q21 14 29 53q12 60 16 118l105 -29q-9 -65 -25 -147q-12 -60 -55 -87q-42 -26 -127 -26h-402q-97 0 -139 41q-43 42 -43 138v306l-97 -23l-14 101l111 26v208h110v-182l178 41v245h108v-220l311 73l-14 -364
q-2 -63 -33 -84q-30 -21 -118 -21h-93l-15 98h87q41 0 55 10q13 9 15 38l9 198l-204 -49v-379h-108v354z" />
    <glyph glyph-name="uni4E60" unicode="&#x4e60;" 
d="M487 -78l-16 112h159q71 0 94 17q22 16 24 67l17 516h-661v109h782l-23 -677q-2 -86 -44 -115t-164 -29h-168zM120 42l-45 117q333 115 614 224l23 -118q-304 -121 -592 -223zM466 341q-138 90 -256 159l61 89q122 -68 263 -156z" />
    <glyph glyph-name="uni4E61" unicode="&#x4e61;" 
d="M745 328q28 65 50 150l111 -27q-25 -93 -55 -164q-54 -142 -194 -231q-158 -101 -536 -162l-53 109q268 39 411 92q140 52 209 137q-251 -19 -527 -36l-25 97q64 18 106 42q114 64 232 144q-116 -5 -335 -13l-20 87q45 13 77 34q148 101 284 224l114 -49
q-144 -115 -269 -200q188 6 282 10q89 66 171 135l111 -57q-267 -205 -504 -341q118 5 360 19z" />
    <glyph glyph-name="uni4E66" unicode="&#x4e66;" 
d="M668 370l12 168h-202v-168h190zM795 618l-17 -248h136l-13 -268q-4 -68 -36 -90t-128 -22h-134l-15 97h123q48 0 65 12t18 46l5 121h-321v-368h-111v368h-308v104h308v168h-251v101h251v165h111v-165h289q-63 47 -103 76l68 75q108 -77 204 -145l-66 -83q-50 38 -75 56z
" />
    <glyph glyph-name="uni4E70" unicode="&#x4e70;" 
d="M846 452l-102 25l59 183h-713v98h823v-94zM426 443q-115 70 -218 121l50 76q117 -55 220 -112zM344 284q-105 63 -222 123l50 79q115 -56 224 -120zM637 282h300v-101h-323q-4 -13 -12 -29q225 -99 326 -147l-56 -100q-200 104 -326 165q-102 -114 -422 -176l-52 108
q194 34 286 73q95 40 134 106h-429v101h464q7 35 8 71q13 131 13 267h112q-4 -174 -16 -274q-3 -32 -7 -64z" />
    <glyph glyph-name="uni4E71" unicode="&#x4e71;" 
d="M713 -90q-59 0 -87 31q-29 32 -29 97v759h105v-730q0 -30 12 -43q11 -11 35 -11h37q27 0 38 11t15 39q9 64 13 166l99 -27q-6 -103 -18 -176q-10 -63 -40 -89q-31 -27 -96 -27h-84zM403 -25h-213v-63h-100v412h155v124h-190v94h190v118q-80 -4 -161 -8l-16 95
q194 5 426 24l23 -93l-168 -12v-124h190v-94h-190v-124h154v-412h-100v63zM403 66v166h-213v-166h213z" />
    <glyph glyph-name="uni4E73" unicode="&#x4e73;" 
d="M467 463l-78 32q35 68 75 158l83 -30zM126 484q-30 83 -51 132l84 19q26 -65 51 -129zM284 499q-20 68 -40 137l82 14q24 -70 40 -134zM82 662l-18 93q267 6 477 23l15 -92q-195 -11 -474 -24zM735 -82q-69 0 -99 32t-30 108v738h102v-719q0 -31 12 -44t40 -13h26
q29 0 41 12t16 47q8 81 11 183l96 -23q-8 -125 -18 -205q-8 -64 -39 -90t-99 -26h-59zM369 138v-124q0 -57 -30 -77q-29 -20 -108 -20h-94l-14 93h88q34 0 45 8t11 33v78q-102 -8 -205 -15l-9 103q76 4 214 14v52l123 87h-296v92h436v-88q-13 -10 -161 -120v-15
q120 10 188 16l-5 -100q-122 -12 -183 -17z" />
    <glyph glyph-name="uni4E7E" unicode="&#x4e7e;" 
d="M356 420v72h-187v-72h187zM356 278v75h-187v-75h187zM531 472h339v-98q-152 -143 -253 -277q-19 -26 -16 -48q2 -34 45 -34h119q40 0 58 18q18 17 23 59q7 55 11 122l94 -31q-12 -109 -18 -145q-11 -61 -43 -89q-35 -30 -101 -30h-182q-52 0 -84 33q-30 31 -30 79
q0 59 34 106q78 109 204 238h-205v89q-6 -9 -7 -11l-79 64v-316h-129v-74h151v-87h-151v-140h-95v140h-161v87h161v74h-130v368h130v70h-155v87h155v79h95v-79h152v-87h-152v-70h129v-47q87 123 139 282l111 -10q-21 -56 -42 -102h291v-100h-340q-30 -59 -68 -120z" />
    <glyph glyph-name="uni4E86" unicode="&#x4e86;" 
d="M252 -80l-16 108h147q47 0 62 11t15 45v366l288 200h-659v101h812v-120l-324 -231v-363q0 -69 -36 -94q-34 -23 -128 -23h-161z" />
    <glyph glyph-name="uni4E88" unicode="&#x4e88;" 
d="M592 421h328v-99l-82 -211l-108 38q34 84 68 172h-235v-293q0 -68 -35 -92q-33 -23 -125 -23h-147l-15 103h124q51 0 68 12t17 49v244h-382v100h362q-119 92 -191 146l67 74q84 -66 175 -134q119 79 219 151h-560v100h714v-116q-145 -100 -291 -199q17 -14 29 -22z" />
    <glyph glyph-name="uni4E89" unicode="&#x4e89;" 
d="M751 396v86h-211v-86h211zM751 219v88h-211v-88h211zM388 738h362v-75l-91 -94h195v-173h95v-89h-95v-230h-103v55h-211v-112q0 -64 -33 -87q-32 -22 -120 -22h-130l-15 97h118q43 0 57 10q15 11 15 42v72h-302v87h302v88h-379v89h379v86h-255v52q-40 -30 -62 -45l-59 77
q163 115 257 246l122 -11q-30 -42 -47 -63zM311 652q-47 -47 -91 -83h311l77 83h-297z" />
    <glyph glyph-name="uni4E8B" unicode="&#x4e8b;" 
d="M869 186v-172h-100v49h-216v-48q0 -60 -32 -82q-31 -21 -115 -21h-129l-12 82h115q37 0 50 7q14 7 16 30q2 20 2 32h-342v66h342v57h-393v70h393v57h-336v65h336v50h-298v183h298v50h-390v74h390v72h105v-72h388v-74h-388v-50h299v-183h-299v-50h316v-122h77v-70h-77z
M769 129v57h-216v-57h216zM769 256v57h-216v-57h216zM751 490v60h-198v-60h198zM448 490v60h-198v-60h198z" />
    <glyph glyph-name="uni4E8C" unicode="&#x4e8c;" 
d="M136 583v116h728v-116h-728zM70 -10v116h859v-116h-859z" />
    <glyph glyph-name="uni4E8E" unicode="&#x4e8e;" 
d="M574 322v-294q0 -67 -35 -91q-34 -23 -126 -23h-158l-17 111h146q44 0 58 10q15 11 15 42v245h-397v109h397v212h-325v107h739v-107h-297v-212h366v-109h-366z" />
    <glyph glyph-name="uni4E8F" unicode="&#x4e8f;" 
d="M339 431l-36 -122h545l-20 -244q-5 -75 -40 -106q-43 -38 -174 -36h-206l-16 109h210q62 0 83 14t26 58l11 104h-541v89l41 134h-167v100h892v-100h-608zM139 648v102h731v-102h-731z" />
    <glyph glyph-name="uni4E91" unicode="&#x4e91;" 
d="M138 640v108h721v-108h-721zM771 -11q-329 -15 -650 -27l-22 101q51 28 94 79q85 92 163 221h-296v106h881v-106h-441q-110 -163 -222 -289q209 7 418 15q-44 58 -121 157l88 55q164 -197 257 -319l-96 -67q-17 24 -53 74z" />
    <glyph glyph-name="uni4E92" unicode="&#x4e92;" 
d="M794 46h147v-101h-882v101h622l7 125h-524l61 478h-136v101h822v-101h-572l-16 -118h498zM693 268l10 165h-393l-22 -165h405z" />
    <glyph glyph-name="uni4E94" unicode="&#x4e94;" 
d="M813 40h135v-104h-895v104h194l52 297h-191v102h209l36 208h-265v103h824v-103h-441l-36 -208h378v-399zM699 40v297h-283l-51 -297h334z" />
    <glyph glyph-name="uni4E95" unicode="&#x4e95;" 
d="M754 223v-318h-113v318h-266q-9 -117 -51 -189q-40 -68 -142 -145l-92 73q91 65 127 120q37 55 44 141h-208v103h213v5v192h-182v103h182v179h112v-179h263v179h113v-179h168v-103h-168v-197h196v-103h-196zM641 326v197h-263v-189v-8h263z" />
    <glyph glyph-name="uni4E9A" unicode="&#x4e9a;" 
d="M672 48h267v-103h-878v103h266v601h-245v103h836v-103h-246v-601zM565 48v601h-131v-601h131zM216 155q-69 190 -140 363l89 35q84 -193 147 -359zM768 154l-88 43q87 182 156 357l94 -38q-87 -206 -162 -362z" />
    <glyph glyph-name="uni4E9B" unicode="&#x4e9b;" 
d="M69 -64v99h861v-99h-861zM142 128v95h714v-95h-714zM407 421q65 8 129 17l-2 -97q-245 -39 -466 -65l-16 104q20 2 68 8v337h98v-328q46 6 91 12v397h98v-150h123v-89h-123v-146zM671 517v-73q0 -33 11 -44t41 -11h63q28 0 41 11q12 11 17 37q4 24 10 96l94 -34
q-10 -73 -17 -116q-21 -92 -132 -89h-115q-61 0 -87 30q-27 31 -27 101v381h101v-182q116 61 198 117l56 -89q-115 -70 -254 -135z" />
    <glyph glyph-name="uni4EA1" unicode="&#x4ea1;" 
d="M607 623h334v-108h-652v-459h602v-109h-718v568h-116v108h425q-27 76 -63 157l116 28q28 -67 72 -185z" />
    <glyph glyph-name="uni4EA2" unicode="&#x4ea2;" 
d="M125 -102l-69 96q138 71 168 168q22 67 21 180v121h463v-396q0 -30 12 -43q11 -12 35 -12h28q21 0 32 11q12 12 16 40q9 56 12 120l103 -33q-5 -58 -19 -137q-10 -55 -41 -80q-32 -26 -96 -26h-75q-61 0 -90 30q-30 31 -30 102v319h-236v-52q1 -150 -48 -239t-186 -169z
M583 680h346v-104h-857v104h385q-29 78 -45 112l124 16q30 -80 47 -128z" />
    <glyph glyph-name="uni4EA4" unicode="&#x4ea4;" 
d="M583 686h348v-104h-862v104h385q-21 61 -40 105l125 16q22 -61 44 -121zM591 130q121 -75 354 -120l-56 -111q-255 61 -388 156q-131 -91 -396 -161l-48 111q238 54 352 125q-78 78 -150 201l99 50q71 -118 143 -184q76 71 130 189l104 -49q-66 -126 -144 -207zM126 280
l-63 96q154 81 290 195l75 -81q-145 -116 -302 -210zM869 293q-132 95 -291 198l67 80q137 -80 291 -181z" />
    <glyph glyph-name="uni4EA5" unicode="&#x4ea5;" 
d="M664 144q127 -72 253 -144l-58 -94q-155 101 -281 173q-158 -107 -412 -187l-60 94q250 70 405 170q149 96 279 266l85 -55q-104 -134 -211 -223zM564 441q51 54 96 120l86 -51q-119 -160 -261 -257t-366 -172l-55 95q256 73 397 175q-180 -10 -321 -14l-19 81
q52 15 79 39q74 66 135 136h-262v94h389q-32 100 -37 113l118 12q25 -79 37 -125h346v-94h-456q-89 -94 -163 -160q91 2 257 8z" />
    <glyph glyph-name="uni4EA6" unicode="&#x4ea6;" 
d="M132 152l-89 51q65 112 124 259l94 -39q-67 -159 -129 -271zM693 558v-533q0 -61 -32 -83q-31 -21 -114 -21h-115l-15 105h102q40 0 53 9t13 38v485h-144q-1 -60 -5 -161q-8 -188 -58 -288q-51 -103 -199 -218l-85 80q135 96 182 185q46 86 51 243q3 79 6 159h-260v102
h392q-29 92 -44 132l121 15q26 -82 43 -147h352v-102h-244zM861 140q-62 124 -146 273l88 45q58 -95 150 -262z" />
    <glyph glyph-name="uni4EA7" unicode="&#x4ea7;" 
d="M598 705h342v-99h-855v99h390q-13 39 -33 91l124 11q15 -41 32 -102zM373 427h202q50 75 105 170l103 -44q-38 -58 -90 -126h226v-98h-665v-63q0 -121 -22 -197q-23 -80 -89 -175l-94 66q56 75 77 143q20 66 20 171v153h201q-56 79 -92 123l88 53q70 -86 103 -132z" />
    <glyph glyph-name="uni4EA8" unicode="&#x4ea8;" 
d="M292 -95l-14 94h129q38 0 49 8q12 8 12 35v98l212 61h-587v86h781v-95l-296 -99v-90q0 -58 -30 -78q-29 -20 -109 -20h-147zM578 719h361v-88h-879v88h396q-14 40 -32 79l120 12q20 -50 34 -91zM830 347h-660v225h660v-225zM726 423v71h-453v-71h453z" />
    <glyph glyph-name="uni4EA9" unicode="&#x4ea9;" 
d="M761 -41h-521v-58h-106v604h734v-604h-107v58zM761 53v135h-209v-135h209zM761 277v134h-209v-134h209zM449 53v135h-209v-135h209zM449 277v134h-209v-134h209zM580 692h360v-100h-881v100h397q-16 52 -36 102l122 15q20 -60 38 -117z" />
    <glyph glyph-name="uni4EAB" unicode="&#x4eab;" 
d="M725 442v66h-454v-66h454zM826 369h-657v214h657v-214zM573 721h367v-85h-880v85h391q-12 37 -28 77l122 10q11 -32 28 -87zM614 157h332v-82h-370v-72q0 -57 -29 -77q-28 -19 -107 -19h-149l-12 84h130q34 0 45 8t11 31v45h-412v82h412v19l195 62h-526v78h712v-79z" />
    <glyph glyph-name="uni4EAC" unicode="&#x4eac;" 
d="M109 -60l-59 91q143 74 248 154l64 -74q-114 -87 -253 -171zM884 -51q-128 81 -247 151l59 80q75 -41 246 -140zM581 698h359v-96h-877v96h394q-24 71 -36 100l123 14q26 -78 37 -114zM464 218h-303v307h684v-307h-269v-204q0 -63 -32 -85q-30 -21 -116 -21h-99l-15 98
h90q36 0 48 9t12 34v169zM736 313v118h-466v-118h466z" />
    <glyph glyph-name="uni4EAD" unicode="&#x4ead;" 
d="M713 461v61h-426v-61h426zM817 392h-634v200h634v-200zM580 109v-104q0 -56 -29 -76q-28 -19 -106 -19h-138l-11 84h117q35 0 46 8t11 32v75h-290v81h642v-81h-242zM71 165v174h859v-174h-101v91h-657v-91h-101zM570 729h368v-85h-876v85h386q-5 17 -24 70l121 9
q14 -39 25 -79z" />
    <glyph glyph-name="uni4EAE" unicode="&#x4eae;" 
d="M811 391h-622v200h622v-200zM707 459v63h-414v-63h414zM75 174v164h850v-164h-100v82h-649v-82h-101zM113 -107l-58 88q137 25 183 60q42 32 42 103v56h412v-162q0 -26 10 -37t37 -11h45q27 0 40 10q12 10 17 33q7 35 10 84l96 -27q-8 -61 -17 -102q-8 -42 -39 -62
q-31 -19 -91 -19h-103q-58 0 -84 25t-26 79v108h-205q0 -8 -2 -22q-7 -82 -61 -125q-58 -47 -206 -79zM571 726h365l2 -82h-876l-2 82h390q-13 36 -26 73l122 11q13 -42 25 -84z" />
    <glyph glyph-name="uni4EB2" unicode="&#x4eb2;" 
d="M701 478h243v-93h-380v-97h343v-91h-343v-180q0 -63 -33 -86q-32 -22 -119 -22h-97l-14 98h92q37 0 50 9q12 9 12 35v146h-362v91h362v97h-398v93h247q-45 75 -64 103l103 26q41 -62 79 -129h158q42 61 83 128l104 -28q-8 -12 -66 -100zM575 709h327v-91h-803v91h355
q-11 34 -30 90l120 12q11 -31 31 -102zM873 -58q-125 88 -243 161l59 77q97 -59 244 -151zM120 -61l-58 89q113 65 235 160l67 -71q-127 -103 -244 -178z" />
    <glyph glyph-name="uni4EBA" unicode="&#x4eba;" 
d="M549 680q16 -254 108 -404q89 -144 290 -253l-82 -108q-154 98 -239 208q-87 113 -124 268q-36 -152 -121 -262q-86 -111 -257 -225l-71 104q199 119 285 258q78 126 93 326q7 98 7 206h115q-2 -85 -4 -118z" />
    <glyph glyph-name="uni4EBF" unicode="&#x4ebf;" 
d="M535 -84q-96 0 -147 36t-51 103q0 84 68 177q61 82 149 191q105 130 176 208h-337v103h482v-108q-75 -79 -205 -235q-122 -146 -172 -216q-43 -59 -43 -99q0 -31 23 -45t79 -14h164q60 0 85 22q24 21 30 77q8 73 10 130l108 -29q-14 -140 -18 -166q-12 -70 -55 -102
q-45 -33 -134 -33h-212zM273 580v-681h-106v484q-33 -56 -84 -128l-51 112q138 188 215 439l108 -30q-39 -107 -82 -196z" />
    <glyph glyph-name="uni4EC0" unicode="&#x4ec0;" 
d="M710 383v-483h-113v483h-250v110h250v308h113v-308h240v-110h-240zM287 568v-666h-105v480q-49 -74 -95 -129l-52 101q142 192 226 448l111 -29q-40 -110 -85 -205z" />
    <glyph glyph-name="uni4EC1" unicode="&#x4ec1;" 
d="M281 578v-682h-107v490q-30 -53 -87 -134l-52 113q143 196 222 441l107 -30q-35 -99 -83 -198zM396 585v111h511v-111h-511zM352 -33v111h594v-111h-594z" />
    <glyph glyph-name="uni4EC5" unicode="&#x4ec5;" 
d="M699 175q89 -84 254 -167l-65 -102q-173 101 -263 189q-103 -101 -274 -199l-64 102q165 85 264 178q-117 148 -176 400l95 33q58 -230 153 -352q111 145 157 378h-424v101h540v-94q-62 -292 -197 -467zM264 575v-674h-104v479q-33 -54 -77 -114l-48 111q133 189 203 429
l104 -29q-33 -103 -78 -202z" />
    <glyph glyph-name="uni4EC6" unicode="&#x4ec6;" 
d="M289 578v-677h-106v490q-41 -64 -95 -133l-51 102q143 205 223 443l110 -30q-36 -101 -81 -195zM638 470v-569h-111v901h111v-312l66 59l248 -238l-81 -78q-194 200 -233 237z" />
    <glyph glyph-name="uni4EC7" unicode="&#x4ec7;" 
d="M255 576v-676h-103v471q-26 -48 -69 -111l-45 109q121 209 181 431l108 -30q-35 -113 -72 -194zM555 622h228v-570q0 -21 8 -30q7 -8 25 -8h9q17 1 24 9t10 31q8 63 11 166l88 -27q-11 -134 -19 -185q-8 -54 -34 -77q-27 -24 -80 -24h-37q-58 0 -85 29t-27 93v491h-124
q0 -15 -1 -29q-7 -223 -49 -344q-43 -124 -160 -247l-75 92q99 103 136 208t42 293q1 13 1 27h-124v102h126q2 67 2 180h108q-1 -30 -3 -180z" />
    <glyph glyph-name="uni4ECA" unicode="&#x4eca;" 
d="M458 803h97q63 -95 159 -175q103 -87 254 -164l-45 -105q-267 148 -417 326q-151 -180 -415 -326l-46 105q152 78 255 164q95 80 158 175zM511 329q-52 74 -120 156l80 59q63 -72 126 -150zM561 -110l-93 59q80 87 219 258h-540v103h681v-101q-141 -175 -267 -319z" />
    <glyph glyph-name="uni4ECB" unicode="&#x4ecb;" 
d="M198 -108l-86 81q96 71 129 138q32 66 34 192q1 34 1 115h110q0 -57 -1 -113q-1 -152 -39 -238q-39 -88 -148 -175zM610 -96v516h111v-516h-111zM454 802h101q62 -105 157 -194q102 -94 249 -176l-65 -100q-250 150 -392 343q-144 -197 -391 -343l-65 100q150 83 250 176
q93 87 156 194z" />
    <glyph glyph-name="uni4ECD" unicode="&#x4ecd;" 
d="M258 591v-690h-104v480q-30 -54 -73 -120l-46 106q124 216 183 436l108 -30q-33 -103 -68 -182zM547 643l-2 -138q-1 -227 -39 -357q-37 -129 -147 -257l-89 78q98 115 130 222q31 104 36 320l2 132h-85v102h504v-105l-92 -180h154l-14 -420q-2 -70 -36 -94t-133 -24
h-128l-15 102h119q52 0 69 12t19 49l9 278h-159v98l89 182h-192z" />
    <glyph glyph-name="uni4ECE" unicode="&#x4ece;" 
d="M699 626q21 -228 77 -362q55 -131 178 -255l-77 -103q-91 102 -141 199q-53 101 -79 229q-39 -225 -241 -437l-88 86q137 132 194 261q53 121 65 313q8 136 8 240h111q-1 -54 -7 -171zM337 513q29 -30 186 -192l-71 -93q-50 61 -127 149q-32 -251 -185 -470l-92 82
q96 137 133 253q37 117 47 314q6 110 7 239h112q-3 -105 -10 -277v-5z" />
    <glyph glyph-name="uni4ED1" unicode="&#x4ed1;" 
d="M234 447h88v-154q218 69 403 155l53 -101q-191 -74 -456 -160v-99q0 -43 20 -61t69 -18h244q48 0 70 18q21 17 26 58q9 69 13 117l110 -31q-8 -61 -25 -149q-12 -62 -52 -88q-42 -27 -132 -27h-284q-87 0 -128 40q-42 41 -42 131v354q-52 -33 -104 -62l-58 97
q281 143 405 337h107q126 -195 405 -337l-58 -97q-256 142 -401 318q-104 -127 -273 -241z" />
    <glyph glyph-name="uni4ED3" unicode="&#x4ed3;" 
d="M772 461l-8 -218q-2 -61 -32 -82t-116 -21h-152l-14 94h135q42 0 56 10t16 41l3 92h-350v-290q0 -44 19 -63q18 -18 61 -18h302q45 0 66 16q20 15 29 53q10 43 19 105l104 -36q-21 -105 -27 -129q-15 -57 -55 -82q-41 -26 -120 -26h-356q-78 0 -114 38q-37 39 -37 120
v367q-56 -34 -97 -56l-57 97q145 72 252 160q98 81 158 171h104q59 -88 159 -171q108 -89 251 -160l-56 -97q-71 38 -143 85zM753 474q-149 102 -244 216q-94 -113 -243 -216h487z" />
    <glyph glyph-name="uni4ED4" unicode="&#x4ed4;" 
d="M727 297v-276q1 -62 -33 -85q-33 -23 -117 -22h-135l-14 102h120q41 0 55 10t14 39v232h-282v106h282v82l157 164h-365v102h501v-109l-183 -190v-49h223v-106h-223zM270 578v-679h-105v481q-33 -56 -76 -113l-53 105q134 204 200 434l111 -33q-34 -99 -77 -195z" />
    <glyph glyph-name="uni4ED5" unicode="&#x4ed5;" 
d="M701 52h228v-104h-569v104h230v373h-251v103h251v269h111v-269h247v-103h-247v-373zM278 573v-674h-105v486q-43 -70 -88 -133l-51 112q142 193 224 441l107 -30q-31 -87 -87 -202z" />
    <glyph glyph-name="uni4ED6" unicode="&#x4ed6;" 
d="M253 580v-681h-100v477q-38 -67 -72 -118l-46 102q124 220 183 444l106 -26q-28 -93 -71 -198zM678 487v-392h-99v365l-120 -34v-340q0 -48 17 -66t64 -18h204q48 0 70 15q20 14 27 48q11 52 17 99l95 -35q-10 -63 -28 -128q-14 -52 -49 -73q-34 -21 -103 -21h-274
q-76 0 -108 34t-32 113v345l-64 -18l-16 101l80 22v209h100v-183l120 32v241h99v-214l226 60l-13 -375q-2 -44 -23 -60q-22 -16 -83 -16h-69l-13 89h49q28 0 37 6t10 25l6 205z" />
    <glyph glyph-name="uni4ED7" unicode="&#x4ed7;" 
d="M776 636h159v-105h-162l-2 -38q-5 -212 -94 -345q96 -72 271 -130l-54 -107q-180 69 -287 153q-89 -86 -255 -167l-62 100q157 72 234 144q-106 120 -158 325l98 29q46 -169 129 -270q64 102 70 279q1 13 1 27h-335v105h338q1 55 1 163h109q0 -108 -1 -163zM265 573v-673
h-104v473q-37 -61 -76 -115l-50 102q137 212 203 446l104 -32q-32 -100 -77 -201z" />
    <glyph glyph-name="uni4ED8" unicode="&#x4ed8;" 
d="M518 165q-77 111 -156 211l80 55q56 -64 164 -202zM824 507v-484q0 -66 -34 -89q-32 -22 -123 -22h-137l-15 103h123q47 0 61 10q15 10 15 43v439h-374v104h374v184h110v-184h117v-104h-117zM273 571v-672h-107v476q-35 -57 -80 -114l-50 106q139 207 205 439l113 -30
q-32 -101 -81 -205z" />
    <glyph glyph-name="uni4ED9" unicode="&#x4ed9;" 
d="M250 578v-677h-99v478q-26 -47 -70 -115l-46 110q126 215 184 431l105 -28q-35 -109 -74 -199zM806 -37h-454v642h102v-540h123v730h104v-730h125v539h102v-698h-102v57z" />
    <glyph glyph-name="uni4EDF" unicode="&#x4edf;" 
d="M709 299v-400h-112v400h-254v106h254v224q-96 -7 -193 -12l-19 105q261 10 511 35l21 -104q-119 -11 -208 -17v-231h242v-106h-242zM276 583v-686h-106v486q-41 -65 -84 -123l-51 105q137 203 206 440l110 -29q-33 -101 -75 -193z" />
    <glyph glyph-name="uni4EE3" unicode="&#x4ee3;" 
d="M812 573q-63 61 -150 137l68 68q82 -63 155 -130zM626 411q19 -205 68 -309q38 -87 87 -84q36 0 50 58q14 57 22 133l96 -34q-7 -50 -29 -146q-28 -125 -130 -125q-122 0 -189 139q-60 112 -81 355l-186 -22l-13 107l190 23v2q-7 96 -17 296h108q5 -137 16 -285l309 36
l10 -106zM278 571v-670h-106v479q-40 -62 -89 -122l-48 103q140 200 217 440l107 -32q-38 -108 -81 -198z" />
    <glyph glyph-name="uni4EE4" unicode="&#x4ee4;" 
d="M456 804h100q129 -191 412 -328l-48 -102q-265 142 -414 314q-150 -173 -414 -314l-47 102q282 136 411 328zM509 363q-61 77 -118 145l79 55q33 -35 127 -139zM598 39q69 -38 107 -60l-70 -90q-165 105 -418 248l59 77q113 -61 225 -121q100 82 200 167h-556v98h703
v-107q-84 -72 -250 -212z" />
    <glyph glyph-name="uni4EE5" unicode="&#x4ee5;" 
d="M145 -55l-70 91q40 37 38 97v632h113v-623q113 81 210 159l45 -109q-178 -139 -336 -247zM770 224q59 -67 183 -218l-88 -88q-65 92 -152 204q-85 -119 -281 -228l-71 96q202 106 273 217q71 110 77 310q6 106 6 261h114q-4 -189 -8 -265q-11 -181 -53 -289zM469 496
q-59 115 -138 253l92 50q43 -68 146 -247z" />
    <glyph glyph-name="uni4EEA" unicode="&#x4eea;" 
d="M613 552q-49 135 -86 222l96 30q45 -110 89 -219zM701 176q90 -84 250 -166l-64 -105q-166 96 -260 189q-103 -100 -276 -198l-63 99q172 93 265 182q-98 129 -160 340q-19 68 -41 159l102 25q14 -74 35 -150q50 -182 137 -295q107 133 153 331q13 53 26 131l103 -21
q-14 -73 -31 -137q-58 -232 -176 -384zM268 571v-672h-104v473q-44 -70 -78 -117l-50 99q146 233 204 447l105 -31q-31 -96 -77 -199z" />
    <glyph glyph-name="uni4EEC" unicode="&#x4eec;" 
d="M470 596q-56 82 -106 154l88 54q56 -71 112 -145zM362 -95v674h111v-674h-111zM618 -89l-16 107h119q45 0 60 11t15 43v564h-195v103h308v-721q0 -64 -33 -86q-31 -21 -119 -21h-139zM253 586v-688h-105v470q-26 -47 -64 -105l-47 109q120 207 176 432l108 -28
q-30 -97 -68 -190z" />
    <glyph glyph-name="uni4EF0" unicode="&#x4ef0;" 
d="M591 703q-59 -30 -149 -62v-486q64 33 103 57l25 -99q-114 -65 -212 -113l-46 82q30 26 30 63v568q105 32 194 81l55 -78v11h320v-607q0 -51 -27 -70q-26 -18 -96 -18h-59l-14 94h49q28 0 38 7t10 28v471h-121v-733h-100v804zM246 572v-671h-98v462q-27 -49 -65 -106
l-45 102q112 211 174 447l103 -22q-29 -108 -69 -212z" />
    <glyph glyph-name="uni4EF2" unicode="&#x4ef2;" 
d="M572 296v228h-132v-228h132zM812 296v228h-134v-228h134zM812 197h-134v-296h-106v296h-132v-52h-100v477h232v178h106v-178h233v-477h-99v52zM250 584v-683h-100v477q-36 -64 -67 -110l-49 103q123 212 182 436l106 -25q-31 -102 -72 -198z" />
    <glyph glyph-name="uni4EF6" unicode="&#x4ef6;" 
d="M720 194v-297h-108v297h-304v104h304v198h-148q-24 -78 -55 -149l-101 37q74 153 113 359l103 -20q-25 -104 -30 -123h118v205h108v-205h203v-104h-203v-198h231v-104h-231zM261 578v-679h-105v470q-30 -53 -71 -111l-49 109q125 193 193 434l103 -28q-29 -97 -71 -195z
" />
    <glyph glyph-name="uni4EF7" unicode="&#x4ef7;" 
d="M578 794h97q78 -190 287 -317l-48 -104q-190 130 -288 289q-98 -159 -287 -289l-48 104q209 127 287 317zM391 -108l-88 75q79 70 106 138q26 67 26 196v120h110v-128q0 -143 -32 -227t-122 -174zM695 -89v509h110v-509h-110zM262 581v-680h-105v473q-35 -60 -72 -113
l-48 109q131 214 192 434l106 -29q-33 -101 -73 -194z" />
    <glyph glyph-name="uni4EFB" unicode="&#x4efb;" 
d="M704 49h223v-104h-564v104h232v245h-257v106h257v224q-61 -4 -209 -13l-17 106q321 13 533 38l22 -104q-77 -8 -220 -19v-232h245v-106h-245v-245zM274 583v-685h-106v483q-41 -66 -81 -119l-52 102q136 202 204 440l109 -27q-31 -97 -74 -194z" />
    <glyph glyph-name="uni4EFD" unicode="&#x4efd;" 
d="M844 421l-14 -385q-2 -69 -35 -92t-130 -23h-108l-15 98h100q49 0 65 11t17 46l10 247h-169q-5 -147 -48 -239q-44 -94 -154 -187l-78 79q97 71 135 147q38 75 41 200h-71v80q-30 -33 -58 -60l-44 104q135 129 205 334l99 -34q-67 -185 -184 -323h432q-137 130 -199 339
l94 29q70 -209 214 -318l-35 -115q-50 42 -70 62zM258 567v-666h-104v471q-32 -53 -69 -105l-49 109q131 199 197 426l107 -26q-36 -110 -82 -209z" />
    <glyph glyph-name="uni4EFF" unicode="&#x4eff;" 
d="M717 656h232v-99h-383q-1 -40 -3 -114q-1 -3 -1 -11h324l-16 -393q-2 -69 -36 -92q-33 -23 -130 -23h-109l-15 102h109q45 0 61 11q15 11 17 43l11 254h-219q-8 -144 -43 -236q-36 -93 -127 -202l-91 74q91 96 122 177q30 77 35 225q2 77 4 185h-122v99h257
q-17 63 -42 135l121 16q31 -101 44 -151zM273 582v-682h-105v475q-31 -52 -79 -118l-51 100q135 207 203 448l104 -32q-32 -96 -72 -191z" />
    <glyph glyph-name="uni4F01" unicode="&#x4f01;" 
d="M459 802h101q63 -96 157 -172q97 -78 254 -156l-61 -99q-137 73 -236 151q-95 75 -165 161q-69 -87 -163 -161q-97 -76 -237 -151l-62 99q158 78 255 156q94 76 157 172zM589 40h326v-99h-834v99h124v346h108v-346h166v474h110v-180h241v-97h-241v-197z" />
    <glyph glyph-name="uni4F0A" unicode="&#x4f0a;" 
d="M775 526v136h-180l-2 -136h182zM775 298v137h-183q0 -29 -1 -58q0 -43 -3 -79h187zM879 435v-294h-104v67h-195q-16 -102 -63 -171q-46 -68 -146 -142l-80 77q83 59 122 109q41 53 57 127h-150v90h162q3 39 3 88q1 16 1 49h-192v91h194q1 68 1 136h-133v91h523v-227h71
v-91h-71zM250 570v-666h-100v467q-32 -57 -67 -109l-49 104q124 209 185 439l107 -28q-34 -112 -76 -207z" />
    <glyph glyph-name="uni4F0D" unicode="&#x4f0d;" 
d="M766 44v294h-194l-35 -294h229zM870 44h79v-99h-651v99h132l35 294h-121v98h132l25 210h-156v99h573v-99h-310l-25 -210h287v-392zM256 594v-696h-103v478q-30 -55 -68 -113l-52 107q120 202 183 435l104 -27q-25 -83 -64 -184z" />
    <glyph glyph-name="uni4F0E" unicode="&#x4f0e;" 
d="M712 106q91 -52 238 -100l-54 -101q-176 66 -273 130q-108 -75 -279 -140l-51 100q150 55 240 110q-81 77 -155 205l87 50q73 -122 157 -192q90 77 155 194h-433v94h227v118h-238v95h238v135h108v-135h259v-95h-259v-118h215v-100q-78 -153 -182 -250zM264 577v-677h-105
v476q-29 -48 -74 -112l-49 111q134 195 201 431l102 -29q-32 -104 -75 -200z" />
    <glyph glyph-name="uni4F0F" unicode="&#x4f0f;" 
d="M833 571q-82 90 -123 131l67 60q81 -74 129 -122zM659 531h276v-102h-272q25 -140 92 -239q67 -98 193 -181l-78 -103q-103 78 -162 159q-63 85 -97 200q-52 -199 -258 -370l-73 95q127 95 189 200q60 101 76 239h-229v102h236q5 158 5 274h110q-2 -139 -8 -274zM265 564
v-663h-103v480q-32 -50 -78 -113l-47 108q136 190 209 430l108 -33q-38 -106 -89 -209z" />
    <glyph glyph-name="uni4F10" unicode="&#x4f10;" 
d="M671 157q11 -28 27 -55q44 -87 89 -87q26 0 39 42q16 53 29 146l96 -33q-17 -102 -32 -154q-33 -115 -124 -115q-105 0 -185 136q-21 36 -31 60q-74 -45 -204 -106l-61 97q134 54 231 113q-28 107 -41 251l-166 -19l-8 99l168 18v4q-8 143 -10 247h108q1 -125 8 -240
l320 34l7 -96l-321 -36q9 -109 29 -200q111 81 197 184l78 -66q-120 -136 -243 -224zM800 598q-75 65 -142 117l60 69q71 -50 145 -111zM280 572v-671h-104v478q-42 -66 -86 -124l-51 102q144 208 216 446l104 -32q-39 -112 -79 -199z" />
    <glyph glyph-name="uni4F11" unicode="&#x4f11;" 
d="M692 504q46 -129 103 -214q57 -84 156 -168l-66 -99q-141 141 -213 312v-436h-106v434q-77 -175 -223 -319l-68 98q106 95 166 181q60 87 105 211h-220v104h240v191h106v-191h252v-104h-232zM263 573v-673h-104v477q-31 -49 -74 -111l-48 110q134 197 201 431l103 -29
q-34 -108 -78 -205z" />
    <glyph glyph-name="uni4F17" unicode="&#x4f17;" 
d="M363 349q121 -100 163 -137l-63 -86q-39 40 -117 110q-36 -178 -219 -330l-80 83q105 82 153 164q46 79 57 191q9 98 10 129h107q-2 -35 -5 -69q-3 -28 -6 -55zM459 803h99q125 -189 405 -326l-58 -96q-255 135 -397 304q-141 -168 -395 -304l-59 96q281 138 405 326z
M707 398q20 -137 77 -229q56 -90 167 -168l-79 -95q-161 130 -203 293q-45 -168 -223 -304l-76 85q117 83 171 172q53 87 61 209q5 76 7 122h104q-2 -47 -6 -85z" />
    <glyph glyph-name="uni4F18" unicode="&#x4f18;" 
d="M729 -93q-62 0 -89 30q-26 29 -26 93v395h104v-367q0 -25 9 -36t33 -11h27q24 0 35 11q12 12 15 41q8 65 14 145l97 -34q-13 -124 -20 -159q-11 -57 -40 -82q-31 -26 -91 -26h-68zM805 586q-64 57 -145 121l64 71q58 -42 148 -115zM484 570q1 13 1 27q2 67 4 206h107
q-1 -76 -5 -207q0 -13 -1 -26h336v-100h-341q-11 -187 -60 -309q-51 -128 -174 -266l-81 83q109 115 154 223q44 104 55 269h-167v100h172zM262 563v-662h-104v476q-42 -64 -74 -109l-47 108q137 196 204 429l109 -33q-34 -100 -88 -209z" />
    <glyph glyph-name="uni4F19" unicode="&#x4f19;" 
d="M415 340q-68 157 -109 246l90 37q30 -63 113 -242zM806 341l-88 50q65 108 128 235l92 -45q-53 -104 -132 -240zM662 540q21 -190 85 -306q62 -114 203 -226l-77 -103q-104 94 -160 177q-60 89 -92 205q-28 -116 -88 -205q-60 -90 -177 -187l-73 97q153 115 211 232
q55 111 62 300q5 170 5 280h109q-2 -127 -8 -264zM268 571v-671h-103v485q-39 -62 -81 -120l-48 107q144 205 209 434l108 -31q-39 -109 -85 -204z" />
    <glyph glyph-name="uni4F1A" unicode="&#x4f1a;" 
d="M748 -44q-201 -10 -586 -24l-20 90q38 17 79 55q46 42 109 120h-252v98h843v-98h-461q-88 -102 -150 -164q112 3 360 11q-41 46 -82 93l74 54q80 -78 223 -227l-84 -69q-38 44 -53 61zM741 482v-86h-482v76q-67 -45 -150 -91l-60 96q278 137 409 325h99
q128 -186 408 -325l-59 -96q-95 51 -165 101zM723 494q-125 89 -216 194q-87 -102 -216 -194h432z" />
    <glyph glyph-name="uni4F1E" unicode="&#x4f1e;" 
d="M454 804h100q133 -183 410 -304l-57 -98q-261 127 -402 294q-144 -170 -404 -294l-57 98q151 66 254 145q91 70 156 159zM554 90v-193h-110v193h-375v102h375v366h110v-366h378v-102h-378zM307 238q-51 64 -130 148l76 65q57 -55 137 -140zM677 238l-74 74q85 78 143 142
l82 -71q-97 -96 -151 -145z" />
    <glyph glyph-name="uni4F1F" unicode="&#x4f1f;" 
d="M636 227v-328h-107v328h-232v96h232v93h-187v95h187v90h-210v96h210v108h107v-108h277v-96h-277v-90h243v-95h-243v-93h283l-11 -216q-4 -67 -36 -89t-125 -22h-63l-15 96h77q36 0 48 8t13 34l4 93h-175zM259 590v-687h-102v474q-32 -59 -72 -118l-52 107
q119 200 189 439l103 -26q-30 -99 -66 -189z" />
    <glyph glyph-name="uni4F20" unicode="&#x4f20;" 
d="M265 578v-677h-100v476q-36 -63 -79 -121l-48 101q125 190 196 446l102 -27q-32 -107 -71 -198zM725 40q23 -10 125 -56l-56 -92q-227 113 -432 203l48 84q81 -35 218 -95q94 94 132 131h-349v90q10 28 30 94h-129v93h157q13 40 27 98h-145v92h169q7 27 29 122l113 -2
q-6 -23 -31 -120h289v-92h-315q-18 -66 -27 -98h369v-93h-396q-7 -24 -29 -94h374v-96q-57 -57 -171 -169z" />
    <glyph glyph-name="uni4F24" unicode="&#x4f24;" 
d="M523 419v4q2 36 4 122h107q-1 -42 -5 -123v-3h281l-15 -381q-3 -69 -35 -91t-128 -22h-122l-15 105h115q48 0 65 12q16 11 17 45l9 234h-179q-12 -136 -61 -221q-53 -91 -188 -199l-80 79q121 90 167 163q43 67 55 178h-182v98h190zM541 689h401v-98h-456
q-52 -85 -103 -148l-77 74q109 132 172 289l110 -21q-20 -46 -47 -96zM265 572v-672h-105v463q-31 -54 -71 -108l-53 101q126 196 196 449l108 -27q-32 -107 -75 -206z" />
    <glyph glyph-name="uni4F26" unicode="&#x4f26;" 
d="M426 445h92v-155q154 66 262 146l64 -85q-145 -92 -326 -166v-108q0 -40 16 -56t57 -16h120q38 0 56 16t24 53q10 63 15 124l102 -32q-8 -81 -23 -150q-11 -57 -49 -83q-37 -26 -108 -26h-173q-74 0 -108 35t-34 111v382q-36 -27 -66 -47l-55 94q102 64 173 141
q69 75 122 175h91q97 -192 295 -316l-55 -94q-181 120 -286 282q-83 -128 -206 -225zM268 583v-682h-105v480q-37 -62 -77 -118l-49 111q131 195 198 431l109 -29q-38 -108 -76 -193z" />
    <glyph glyph-name="uni4F2A" unicode="&#x4f2a;" 
d="M425 583q-46 66 -92 123l72 50q62 -72 98 -117zM591 308l66 51q81 -92 121 -141l-78 -61q-89 114 -112 141q-27 -114 -83 -206q-53 -87 -152 -187l-80 85q114 107 166 212q53 106 70 265h-194v99h202q1 11 1 22q2 33 9 214h109q-6 -128 -10 -214q0 -11 -1 -22h290
l-16 -529q-2 -69 -35 -92t-129 -23h-137l-16 104h126q50 0 67 12q16 11 18 47l12 382h-189q-9 -90 -25 -159zM258 584v-686h-103v474q-36 -63 -70 -114l-49 108q121 206 183 440l108 -27q-30 -101 -69 -195z" />
    <glyph glyph-name="uni4F2F" unicode="&#x4f2f;" 
d="M799 373v202h-315v-202h315zM799 71v206h-315v-206h315zM799 -25h-315v-74h-108v770h164q22 84 33 134l121 -9q-19 -63 -38 -125h251v-769h-108v73zM260 567v-668h-104v465q-35 -57 -69 -104l-53 102q132 202 196 445l109 -27q-32 -105 -79 -213z" />
    <glyph glyph-name="uni4F30" unicode="&#x4f30;" 
d="M788 62v203h-307v-203h307zM788 -39h-307v-62h-106v467h204v163h-253v102h253v173h109v-173h258v-102h-258v-163h205v-467h-105v62zM262 575v-676h-104v476q-36 -59 -74 -115l-52 108q129 193 208 439l103 -27q-41 -119 -81 -205z" />
    <glyph glyph-name="uni4F34" unicode="&#x4f34;" 
d="M815 496l-89 46q51 73 111 185l89 -41q-38 -75 -111 -190zM443 500q-50 95 -102 187l88 39q70 -120 102 -183zM684 133v-234h-108v234h-262v100h262v123h-233v99h233v348h108v-348h235v-99h-235v-123h263v-100h-263zM265 576v-677h-104v478q-35 -58 -76 -116l-49 111
q132 193 202 434l103 -29q-29 -94 -76 -201z" />
    <glyph glyph-name="uni4F36" unicode="&#x4f36;" 
d="M572 799h95q95 -188 293 -310l-47 -102q-188 131 -294 293q-106 -162 -293 -293l-48 102q200 121 294 310zM618 365q-34 51 -95 136l80 48q57 -69 101 -136zM693 41q53 -35 108 -69l-67 -81q-256 169 -365 236l60 74q87 -51 176 -106q71 71 151 157h-415v96h547v-98
q-146 -157 -195 -209zM259 571v-668h-102v473q-29 -49 -71 -111l-52 107q123 185 205 435l104 -27q-36 -106 -84 -209z" />
    <glyph glyph-name="uni4F38" unicode="&#x4f38;" 
d="M574 429v131h-128v-131h128zM574 215v131h-128v-131h128zM806 429v131h-129v-131h129zM806 215v131h-129v-131h129zM806 124h-129v-226h-103v226h-128v-52h-99v579h227v149h103v-149h228v-579h-99v52zM251 555v-656h-101v460q-25 -42 -67 -103l-46 105q126 205 191 445
l104 -27q-35 -120 -81 -224z" />
    <glyph glyph-name="uni4F3A" unicode="&#x4f3a;" 
d="M644 -90l-15 99h95q44 0 59 11q14 10 14 42v596h-439v96h545v-739q0 -62 -32 -84q-31 -21 -116 -21h-111zM319 475v92h429v-92h-429zM608 152v146h-159v-146h159zM705 64h-353v322h353v-322zM256 581v-682h-103v469q-32 -57 -70 -113l-48 103q121 203 181 447l107 -27
q-25 -89 -67 -197z" />
    <glyph glyph-name="uni4F3C" unicode="&#x4f3c;" 
d="M805 182q38 -40 155 -168l-68 -94q-49 63 -139 170q-71 -97 -217 -195l-69 85q171 108 231 212q61 106 65 315q5 125 5 269h102q-5 -203 -7 -273q-9 -207 -58 -321zM614 489q-56 121 -113 243l87 40q52 -100 119 -236zM384 28l-60 88q18 18 26 37q8 20 8 47v538h101v-529
q66 44 156 114l38 -98q-161 -125 -269 -197zM254 577v-678h-101v468q-32 -57 -70 -110l-47 106q123 194 185 443l102 -25q-30 -108 -69 -204z" />
    <glyph glyph-name="uni4F43" unicode="&#x4f43;" 
d="M580 398v239h-125v-239h125zM580 65v240h-125v-240h125zM801 398v239h-124v-239h124zM801 65v240h-124v-240h124zM801 -30h-346v-69h-102v833h551v-833h-103v69zM252 572v-673h-101v464q-25 -46 -65 -106l-49 107q116 201 179 441l108 -27q-32 -108 -72 -206z" />
    <glyph glyph-name="uni4F46" unicode="&#x4f46;" 
d="M251 564v-665h-103v458q-34 -58 -63 -100l-49 109q121 205 183 437l108 -28q-34 -112 -76 -211zM893 156h-521v600h521v-600zM785 253v154h-305v-154h305zM785 506v153h-305v-153h305zM307 -57v101h641v-101h-641z" />
    <glyph glyph-name="uni4F4D" unicode="&#x4f4d;" 
d="M484 94q-46 192 -104 368l101 29q47 -151 109 -365zM707 642h222v-100h-594v100h254q-30 104 -45 147l119 14q27 -92 44 -161zM738 40h210v-101h-633v101h315q83 251 139 455l111 -30q-107 -323 -142 -425zM267 581v-685h-105v478q-34 -57 -74 -113l-52 104
q133 207 198 443l105 -33q-28 -92 -72 -194z" />
    <glyph glyph-name="uni4F4E" unicode="&#x4f4e;" 
d="M628 450v6q-3 56 -5 189q-112 -8 -159 -11v-184h164zM588 49q35 -49 78 -112l-91 -46q-25 45 -68 113q-65 -35 -133 -68l-50 87q38 28 37 85v620q256 10 532 43l27 -97q-160 -17 -195 -20q2 -136 6 -201v-3h207v-95h-202q13 -184 57 -281q18 -39 37 -39q10 0 15 8t9 28
q11 58 15 123l90 -32q-11 -90 -23 -143q-24 -104 -104 -99q-43 0 -75 27q-31 27 -57 84q-28 63 -43 130q-17 77 -25 194h-168v-266q81 43 140 79l26 -94q-28 -16 -42 -25zM259 569v-669h-99v476q-37 -62 -77 -115l-48 101q131 196 199 443l101 -28q-30 -102 -76 -208z" />
    <glyph glyph-name="uni4F4F" unicode="&#x4f4f;" 
d="M722 635h207v-101h-230v-184h206v-102h-206v-203h248v-102h-617v102h258v203h-209v102h209v184h-233v101h249q-22 81 -47 153l114 17q14 -44 51 -170zM276 577v-678h-105v482q-38 -62 -83 -122l-53 101q143 212 216 446l108 -27q-41 -115 -83 -202z" />
    <glyph glyph-name="uni4F50" unicode="&#x4f50;" 
d="M267 172v-272h-106v470q-35 -56 -75 -108l-49 99q133 201 202 443l104 -31q-34 -105 -76 -201v-393q147 177 217 377h-154v97h183q19 69 34 153l109 -12q-16 -72 -35 -141h318v-97h-347q-36 -107 -69 -175h384v-97h-184v-243h223v-98h-607v98h279v243h-148
q-54 -94 -132 -191z" />
    <glyph glyph-name="uni4F51" unicode="&#x4f51;" 
d="M788 61v237h-269v-237h269zM527 395h364v-495h-103v64h-269v-64h-103v327q-38 -50 -89 -108l-52 101q146 164 221 337h-161v98h200q18 54 44 151l107 -9q-17 -64 -43 -142h301v-98h-338q-36 -87 -79 -162zM254 558v-660h-103v469q-35 -57 -67 -102l-52 109
q128 189 207 431l104 -27q-43 -122 -89 -220z" />
    <glyph glyph-name="uni4F53" unicode="&#x4f53;" 
d="M688 537q54 -123 114 -205q59 -81 147 -156l-47 -113q-93 96 -149 179q-58 85 -102 195v-281h140v-94h-140v-163h-100v163h-138v94h138v275q-78 -203 -240 -379l-54 113q92 85 153 174q57 83 104 198h-193v96h230v169h100v-169h259v-96h-222zM254 565v-665h-101v465
q-30 -51 -69 -106l-48 103q122 207 189 442l106 -25q-33 -110 -77 -214z" />
    <glyph glyph-name="uni4F55" unicode="&#x4f55;" 
d="M878 641v-609q0 -68 -36 -93q-35 -24 -129 -24h-132l-15 99h121q50 0 67 12t17 48v567h-426v100h601v-100h-68zM673 128h-312v408h312v-408zM580 217v229h-126v-229h126zM260 586v-683h-102v480q-32 -55 -74 -117l-52 106q127 202 195 432l104 -26q-34 -107 -71 -192z
" />
    <glyph glyph-name="uni4F59" unicode="&#x4f59;" 
d="M867 -63q-158 127 -233 179l63 76q62 -41 235 -166zM120 -69l-65 86q100 65 227 183l71 -73q-120 -111 -233 -196zM751 498v-77h-183v-99h342v-99h-342v-209q0 -65 -33 -87q-31 -21 -120 -21h-99l-15 99h91q39 0 51 9t12 36v173h-369v99h369v99h-209v71q-79 -43 -145 -73
l-57 100q292 117 415 285h92q62 -87 159 -155q101 -70 256 -132l-57 -100q-90 42 -158 81zM719 517q-129 80 -213 175q-88 -96 -217 -175h430z" />
    <glyph glyph-name="uni4F5B" unicode="&#x4f5b;" 
d="M460 394h-75l-12 -111h86q1 38 1 77v34zM637 483v112h-88v-112h88zM637 283v111h-88v-47q0 -44 -1 -64h89zM808 483v112h-82v-112h82zM733 684h165v-290h-165v-111h197l-8 -210q-1 -46 -24 -61q-22 -15 -87 -15h-45l-12 82h42q25 0 32 5q8 6 9 23l2 88h-106v-284h-96v284
h-94q-11 -97 -57 -166q-47 -68 -142 -135l-70 81q86 55 122 100q38 48 49 120h-162l26 288h151v112h-154v89h147v120h96v-120h88v119h96v-119zM234 576v-676h-93v467q-38 -70 -59 -104l-47 104q106 200 162 437l101 -19q-27 -110 -64 -209z" />
    <glyph glyph-name="uni4F5C" unicode="&#x4f5c;" 
d="M649 96v-195h-107v663h-41q-59 -124 -128 -217l-66 88q110 152 173 372l109 -21q-31 -88 -45 -122h405v-100h-300v-135h248v-99h-248v-135h276v-99h-276zM274 588v-685h-103v479q-34 -60 -82 -126l-51 99q133 207 200 452l106 -26q-32 -105 -70 -193z" />
    <glyph glyph-name="uni4F60" unicode="&#x4f60;" 
d="M400 40l-94 42q69 140 133 317l94 -32q-46 -138 -133 -327zM848 40q-46 136 -117 326l97 28q62 -161 124 -321zM458 -87l-15 99h84q33 0 44 8t11 32v466h107v-508q0 -56 -30 -77q-29 -20 -107 -20h-94zM539 680h393v-93l-58 -163l-102 24l51 132h-329q-46 -93 -107 -180
l-75 79q109 154 157 323l109 -16q-13 -40 -39 -106zM266 562v-662h-104v464q-36 -59 -74 -109l-52 102q136 202 204 449l109 -27q-40 -122 -83 -217z" />
    <glyph glyph-name="uni4F63" unicode="&#x4f63;" 
d="M577 513v148h-132v-148h132zM577 272v148h-132v-148h132zM808 513v148h-135v-148h135zM808 272v148h-135v-148h135zM808 180h-135v-248h-96v248h-136q-7 -85 -27 -149q-19 -61 -63 -137l-83 69q49 85 64 154q15 71 15 221v417h559v-758q0 -49 -26 -67q-25 -17 -92 -17
h-70l-13 87h58q27 0 36 7t9 26v147zM249 577v-677h-98v473q-28 -52 -68 -112l-48 103q123 212 179 442l105 -26q-32 -110 -70 -203z" />
    <glyph glyph-name="uni4F69" unicode="&#x4f69;" 
d="M298 -98l-69 82q40 74 55 156q15 84 15 241v379h557v-450q0 -205 4 -252q4 -53 18 -53q12 0 16 33q8 72 10 141l59 -17q-4 -77 -12 -140q-8 -58 -28 -86q-19 -26 -50 -26q-40 0 -63 27q-26 30 -33 97q-8 78 -8 277v360h-384v-295q0 -186 -17 -279t-70 -195zM619 437h108
v-358q0 -35 -18 -47q-17 -12 -65 -12h-32v7v-122h-73v453h-50v-346h-64v425h109v81h-119v79h322v-79h-118v-81zM612 106h22q17 0 23 4t6 16v232h-51v-252zM219 583v-683h-86v464q-29 -60 -50 -96l-45 102q97 193 142 432l91 -18q-21 -104 -52 -201z" />
    <glyph glyph-name="uni4F6C" unicode="&#x4f6c;" 
d="M798 488h144v-92h-237q-79 -70 -180 -135v-66q173 61 313 137l58 -84q-168 -82 -371 -148v-31q0 -39 16 -55t57 -16h133q36 0 52 12t22 42q11 52 15 99l101 -30q-6 -50 -19 -112q-12 -56 -45 -79t-103 -23h-196q-73 0 -107 29t-34 93v171q-60 -32 -112 -57l-38 98
q164 67 286 155h-263v92h216v111h-147v90h147v113h105v-113h143v-90h-143v-111h52q99 95 183 232l90 -50q-64 -98 -138 -182zM250 551v-652h-102v458q-33 -54 -66 -98l-45 106q133 210 193 440l105 -23q-37 -123 -85 -231z" />
    <glyph glyph-name="uni4F6F" unicode="&#x4f6f;" 
d="M764 630h155v-94h-233v-117h202v-94h-202v-123h254v-95h-254v-207h-106v207h-254v95h254v123h-201v94h201v117h-231v94h307q67 106 105 177l103 -31q-58 -89 -100 -146zM506 634q-35 61 -88 143l94 31q25 -38 87 -139zM275 581v-682h-103v483q-41 -67 -84 -125l-52 101
q136 200 209 449l106 -27q-31 -97 -76 -199z" />
    <glyph glyph-name="uni4F70" unicode="&#x4f70;" 
d="M790 294v151h-305v-151h305zM790 52v150h-305v-150h305zM790 -41h-305v-60h-106v639h165l22 112h-206v95h578v-95h-255q-14 -56 -29 -112h242v-638h-106v59zM261 579v-681h-103v478q-25 -42 -71 -112l-51 107q126 194 199 434l103 -27q-39 -113 -77 -199z" />
    <glyph glyph-name="uni4F73" unicode="&#x4f73;" 
d="M692 465h241v-95h-593v95h243v115h-206v94h206v121h109v-121h206v-94h-206v-115zM692 30h252v-96h-614v96h253v125h-209v95h209v87h109v-87h211v-95h-211v-125zM271 575v-677h-105v482q-32 -52 -77 -112l-53 101q136 202 210 436l109 -26q-37 -103 -84 -204z" />
    <glyph glyph-name="uni4F7F" unicode="&#x4f7f;" 
d="M906 236h-235q-8 -108 -53 -171q109 -46 323 -59l-36 -101q-238 28 -358 89q-73 -53 -214 -101l-57 92q118 34 180 69q-54 45 -106 116l67 55q57 -69 110 -109q33 45 40 120h-227v298h231q1 25 1 81h-254v89h254v100h106v-100h259v-89h-260v-81h229v-298zM807 322v126
h-131q0 -54 -2 -126h133zM570 322q1 63 1 126h-132v-126h131zM246 565v-662h-99v457q-27 -48 -65 -103l-45 104q118 210 175 445l106 -26q-26 -98 -72 -215z" />
    <glyph glyph-name="uni4F84" unicode="&#x4f84;" 
d="M676 29h267v-96h-637v96h268v125h-225v94h225v103h102v-103h227v-94h-227v-125zM800 392q-222 -8 -444 -15l-18 81q34 16 57 42q59 65 112 147h-154v96h563v-96h-288q-69 -98 -138 -177q78 2 252 8l-66 96l79 45q87 -112 174 -237l-88 -52q-20 31 -41 62zM253 565v-666
h-100v472q-32 -55 -70 -110l-49 103q130 212 195 443l106 -28q-38 -115 -82 -214z" />
    <glyph glyph-name="uni4F88" unicode="&#x4f88;" 
d="M660 118q81 53 153 136h-227q-94 -84 -229 -159l-50 84q188 92 294 221q-100 -46 -247 -86l-46 88q140 30 245 75q-44 42 -84 77l73 49q38 -31 98 -84q85 51 147 120h-251q-69 -65 -166 -129l-61 71q161 101 249 221l112 -12q-23 -34 -52 -67h288v-89
q-106 -137 -281 -223l98 -11q-17 -21 -51 -61h254v-91q-98 -140 -232 -220q-138 -83 -365 -133l-41 89q172 33 289 88q-17 16 -82 77l72 49q70 -60 93 -80zM261 565v-665h-101v477q-35 -57 -75 -114l-47 102q135 208 201 440l109 -23q-44 -126 -87 -217z" />
    <glyph glyph-name="uni4F8B" unicode="&#x4f8b;" 
d="M495 293q19 66 31 169h-98q-38 -128 -118 -256l-50 93q96 162 121 367h-71v89h324v-89h-163q-9 -63 -21 -116h164v-40q-10 -217 -71 -354q-62 -137 -200 -261l-66 74q127 111 183 229q-10 10 -90 79l50 76q53 -41 75 -60zM665 128v559h84v-559h-84zM681 -86l-15 98h97
q34 0 45 8t11 32v747h93v-792q0 -55 -28 -74t-103 -19h-100zM234 582v-684h-92v468q-19 -41 -57 -105l-46 104q106 206 161 443l97 -18q-28 -110 -63 -208z" />
    <glyph glyph-name="uni4F8D" unicode="&#x4f8d;" 
d="M501 17q-47 54 -125 134l74 59q64 -59 130 -127zM683 498h265v-95h-633v95h261v99h-212v93h212v112h107v-112h217v-93h-217v-99zM815 216v-199q0 -62 -33 -85q-32 -22 -118 -22h-109l-15 97h98q42 0 56 10t14 41v158h-381v93h381v67h107v-67h124v-93h-124zM265 580v-679
h-104v481q-35 -57 -77 -116l-48 111q128 188 200 430l108 -28q-37 -106 -79 -199z" />
    <glyph glyph-name="uni4F97" unicode="&#x4f97;" 
d="M459 490v87h314v-87h-314zM669 169v153h-108v-153h108zM750 83h-269v325h269v-325zM318 -101v857h596v-743q0 -60 -32 -82q-31 -21 -114 -21h-96l-13 92h97q36 0 48 9t12 34v616h-401v-762h-97zM236 579v-680h-96v464q-29 -53 -57 -98l-48 104q105 189 161 435l100 -27
q-24 -101 -60 -198z" />
    <glyph glyph-name="uni4F9B" unicode="&#x4f9b;" 
d="M810 296h135v-99h-646v99h138v226h-107v98h107v182h105v-182h163v182h105v-182h109v-98h-109v-226zM705 296v226h-163v-226h163zM859 -97q-85 92 -198 206l78 66q70 -65 202 -197zM379 -103l-82 74q96 85 196 202l86 -61q-106 -120 -200 -215zM259 576v-679h-105v476
q-31 -51 -70 -106l-48 111q130 193 194 427l107 -26q-41 -120 -78 -203z" />
    <glyph glyph-name="uni4F9D" unicode="&#x4f9d;" 
d="M656 552q21 -117 59 -214q72 56 150 126l65 -79q-140 -101 -177 -127q70 -129 198 -221l-70 -93q-111 84 -183 208q-73 127 -112 308q-28 -58 -61 -105v-310q69 31 132 67l22 -96q-122 -63 -240 -115l-47 84q21 18 29 38q7 17 7 47v168q-56 -57 -124 -111l-47 88v-314
h-99v473q-31 -52 -74 -112l-47 100q124 191 192 441l101 -27q-33 -109 -73 -204v-351q178 139 273 331h-217v96h262q-23 62 -54 138l102 23q27 -65 60 -161h254v-96h-281z" />
    <glyph glyph-name="uni4FA0" unicode="&#x4fa0;" 
d="M798 365l-74 49q70 91 107 144l77 -44q-65 -93 -110 -149zM442 369q-55 87 -97 144l75 43q32 -42 101 -140zM682 244q37 -87 102 -145q63 -56 166 -98l-57 -96q-196 89 -271 248q-33 -73 -99 -134q-67 -61 -182 -121l-63 94q121 54 186 113q66 60 90 139h-245v95h262
q3 35 5 120l2 126h-231v94h231v121h104q0 -78 -1 -121h227v-94h-227q-2 -74 -3 -131q-1 -51 -7 -115h270v-95h-259zM257 567v-667h-100v473q-27 -46 -73 -112l-48 104q127 208 193 441l106 -27q-37 -118 -78 -212z" />
    <glyph glyph-name="uni4FA3" unicode="&#x4fa3;" 
d="M805 55v171h-348v-171h348zM805 -38h-348v-62h-104v420h556v-420h-104v62zM775 506v150h-289v-150h289zM877 414h-494v334h494v-334zM253 564v-666h-103v468q-31 -52 -67 -104l-52 107q124 188 202 437l104 -27q-38 -113 -84 -215z" />
    <glyph glyph-name="uni4FA5" unicode="&#x4fa5;" 
d="M747 199v-142q0 -25 8 -34q9 -10 31 -10h23q22 0 32 9t14 31q7 46 8 88l86 -31q-3 -51 -11 -97t-37 -69t-82 -23h-68q-54 0 -80 27t-26 82v169h-95q-2 -115 -51 -183t-173 -124l-59 91q104 42 140 85q38 44 42 131h-151v89h634v-89h-185zM697 460q46 -46 93 -46
q31 0 50 29q20 29 39 78l71 -51q-24 -58 -43 -86q-38 -60 -117 -58q-109 0 -189 91q-126 -50 -266 -82l-37 91q141 29 247 67q-31 49 -54 109l-163 -24l-13 90l146 19q-17 56 -30 116l106 3q11 -54 27 -105l326 43l13 -84l-307 -45q21 -45 47 -84q91 38 195 98l54 -60
q-109 -67 -195 -109zM248 565v-665h-98v467q-42 -72 -65 -107l-49 102q128 215 187 443l103 -26q-34 -111 -78 -214z" />
    <glyph glyph-name="uni4FA6" unicode="&#x4fa6;" 
d="M661 172q223 -143 289 -188l-61 -85q-80 58 -261 184q-59 -110 -286 -189l-56 94q164 51 221 104q52 48 63 144q6 52 6 158h100q0 -108 -5 -160q-3 -37 -10 -62zM648 535h247v-403h-101v307h-340v-313h-100v409h189v269h105v-89h288v-91h-288v-89zM255 558v-661h-102v473
q-27 -44 -68 -103l-53 107q128 183 210 433l104 -26q-41 -115 -91 -223z" />
    <glyph glyph-name="uni4FA7" unicode="&#x4fa7;" 
d="M286 177v584h343v-584h-75v490h-192v-490h-76zM685 127v580h76v-580h-76zM703 -84l-14 91h83q31 0 41 7t10 30v753h87v-798q0 -48 -26 -66q-25 -17 -93 -17h-88zM219 576v-677h-88v466q-26 -54 -48 -90l-47 103q97 174 155 428l89 -29q-30 -113 -61 -201zM485 171
q123 -111 180 -167l-66 -74q-77 82 -144 147q-43 -92 -162 -180l-57 82q67 48 105 90q39 42 56 93q21 68 20 185v254h80v-260q0 -106 -12 -170z" />
    <glyph glyph-name="uni4FA8" unicode="&#x4fa8;" 
d="M804 235v-327h-100v335h87q-113 71 -162 185q-39 -101 -166 -184h86q0 -72 -3 -111q-5 -78 -34 -128q-31 -54 -109 -112l-95 54q77 50 105 92q26 38 32 102q2 12 4 94q-44 -28 -111 -61l-55 91q205 82 254 189h-217v91h245q8 42 11 112q-103 -3 -207 -6l-12 90
q274 5 525 23l13 -90q-150 -10 -217 -13q-5 -69 -13 -116h271v-91h-224q64 -119 241 -177l-46 -96q-56 26 -103 54zM251 570v-670h-99v475q-29 -51 -71 -114l-49 101q128 214 189 443l107 -28q-32 -104 -77 -207z" />
    <glyph glyph-name="uni4FA9" unicode="&#x4fa9;" 
d="M803 480v-84h-393v76q-45 -37 -91 -69l-49 97q203 127 297 298h90q94 -171 297 -298l-49 -97q-51 36 -102 77zM791 490q-106 90 -179 191q-71 -99 -180 -191h359zM791 -45q-152 -8 -466 -20l-17 86q40 17 74 56q52 59 92 126h-172v96h610v-96h-315q-68 -99 -128 -171
q130 5 260 11q-23 33 -71 99l84 44q128 -170 175 -235l-88 -53q-19 28 -38 57zM259 568v-668h-100v478q-35 -57 -75 -114l-47 103q129 210 197 439l108 -26q-39 -114 -83 -212z" />
    <glyph glyph-name="uni4FAE" unicode="&#x4fae;" 
d="M871 350h78v-87h-80l-3 -139h66v-85h-69v-19q-1 -67 -34 -90q-32 -22 -127 -22h-135l-12 79h134q45 0 61 11q16 10 17 41h-434l23 224h-71v87h79l18 174q-40 -42 -63 -65l-28 104q103 110 161 243l106 -8q-15 -36 -33 -69h402v-86h-452q-25 -36 -49 -67h451zM774 350
l3 141h-301l-14 -141h176q-30 25 -104 83l55 55q79 -55 110 -80l-52 -58h127zM772 263h-319l-14 -139h188q-34 28 -104 81l52 56q51 -33 114 -80l-50 -57h130zM245 568v-669h-96v484q-29 -48 -69 -107l-47 105q128 194 193 424l101 -26q-33 -101 -82 -211z" />
    <glyph glyph-name="uni4FAF" unicode="&#x4faf;" 
d="M838 587h106v-87h-644v87h433l8 84h-368v86h482zM683 143q27 -53 89 -87q60 -33 180 -60l-42 -94q-223 56 -288 170q-32 -53 -98 -95q-67 -43 -185 -82l-57 90q128 36 188 71q62 36 83 87h-259v88h277q1 3 1 7q2 27 4 90h-130q-26 -41 -64 -87l-77 52q85 91 121 189
l96 -9q-13 -31 -28 -59h401v-86h-218q-1 -53 -6 -97h273v-88h-261zM249 573v-673h-98v469q-33 -60 -66 -109l-49 104q120 209 180 440l104 -26q-33 -114 -71 -205z" />
    <glyph glyph-name="uni4FB5" unicode="&#x4fb5;" 
d="M783 639v55h-442v75h540v-322h-553v76h455v54h-422v62h422zM847 234v-54q-61 -82 -137 -138q91 -28 231 -46l-42 -94q-188 34 -291 81q-104 -50 -289 -90l-40 93q140 24 229 56q-60 46 -113 117l41 26h-68v48h-81v160h642v-159h-82zM832 262v56h-448v-56h448zM607 86
q66 37 124 99h-243q55 -63 119 -99zM240 562v-662h-95v459q-26 -48 -62 -102l-46 103q116 212 172 444l101 -26q-31 -117 -70 -216z" />
    <glyph glyph-name="uni4FBF" unicode="&#x4fbf;" 
d="M905 197h-242q-12 -86 -54 -142q110 -41 339 -53l-40 -98q-251 24 -374 82q-70 -48 -216 -94l-46 87q112 29 173 60q-51 40 -106 106l63 52h-61v404h234q1 22 1 72h-248v86h609v-86h-264v-72h232v-404zM812 278v84h-141q0 -51 -1 -75v-9h142zM812 436v84h-139
q0 -42 -1 -84h140zM575 520h-140v-84h140v84zM574 278v15q1 34 1 69h-140v-84h139zM567 197h-156q57 -65 112 -100q32 39 44 100zM247 582v-683h-97v471q-29 -52 -69 -116l-44 103q116 214 173 447l101 -26q-28 -102 -64 -196z" />
    <glyph glyph-name="uni4FC3" unicode="&#x4fc3;" 
d="M786 501v163h-316v-163h316zM466 200q37 -123 125 -157v365h-221v349h517v-349h-193v-131h224v-94h-224v-155q7 -1 24 -1h235l-16 -96h-256q-95 0 -153 32q-56 31 -93 101q-29 -85 -95 -173l-75 77q61 79 83 149q24 76 29 219h99q-3 -82 -10 -136zM251 551v-653h-101v456
q-28 -47 -67 -101l-45 105q128 206 191 447l102 -26q-32 -116 -80 -228z" />
    <glyph glyph-name="uni4FC4" unicode="&#x4fc4;" 
d="M857 572q-54 62 -123 129l68 61q45 -41 127 -125zM755 128q2 -7 4 -19q19 -95 58 -95q19 0 30 42q12 46 20 130l86 -36q-10 -67 -27 -142q-13 -55 -38 -80q-26 -25 -71 -25q-51 0 -86 36q-36 38 -59 119q-52 -41 -111 -78l-58 89q76 42 146 102q-13 97 -22 269h-135v-128
q53 10 105 21v-94q-52 -13 -105 -25v-214q0 -51 -27 -70q-26 -18 -96 -18h-78l-15 99h65q30 0 41 8t11 29v145q-56 -11 -112 -21l-19 102q66 10 131 21v145h-124v94h124v104q-27 -4 -89 -10l-17 95q136 11 280 34l18 -93q-46 -7 -93 -14v-116h131q-6 150 -10 270h103
q3 -165 7 -270h226v-94h-222q4 -86 13 -185q71 75 118 150l81 -62q-81 -120 -184 -215zM234 580v-681h-96v467q-29 -55 -56 -98l-47 103q104 194 161 433l102 -17q-24 -97 -64 -207z" />
    <glyph glyph-name="uni4FCA" unicode="&#x4fca;" 
d="M329 303l-41 82q112 52 224 125l53 -66q-132 -86 -236 -141zM909 315q-124 69 -238 125l47 70q189 -95 232 -118zM820 537q-209 -12 -473 -22l-19 82q25 11 57 34q95 76 173 178l108 -35q-124 -116 -184 -168q6 0 263 9q-24 25 -72 73l68 48q121 -114 200 -193l-74 -56
q-30 32 -47 50zM713 68q89 -36 237 -61l-48 -99q-172 41 -278 99q-107 -60 -295 -115l-45 95q159 37 252 79q-50 40 -94 98q-35 -36 -82 -74l-64 67q137 103 213 236l97 -12q-35 -57 -38 -61h283v-90q-61 -99 -138 -162zM623 114q68 45 118 121h-235q-2 -3 -4 -5
q50 -71 121 -116zM261 559v-658h-102v474q-34 -54 -74 -110l-50 111q142 196 213 429l104 -29q-43 -116 -91 -217z" />
    <glyph glyph-name="uni4FCF" unicode="&#x4fcf;" 
d="M804 369v90h-340v-90h340zM804 190v90h-340v-90h340zM804 101h-340v-200h-101v652h218v252h105v-252h219v-540q0 -59 -31 -80q-29 -20 -110 -20h-113l-13 91h99q41 0 54 9t13 39v49zM454 581q-74 90 -117 139l73 54q75 -78 122 -133zM806 577l-69 66q68 64 129 131
l71 -60q-68 -73 -131 -137zM250 581v-684h-100v476q-34 -62 -68 -114l-48 102q121 214 178 444l107 -28q-31 -104 -69 -196z" />
    <glyph glyph-name="uni4FD0" unicode="&#x4fd0;" 
d="M655 122v565h88v-565h-88zM681 -85l-14 95h94q36 0 47 8t11 34v745h92v-789q0 -56 -28 -75q-26 -18 -102 -18h-100zM409 256q-48 -113 -115 -196l-40 112q92 108 145 256h-118v94h128v128q-51 -4 -102 -7l-16 94q111 7 306 26l20 -91q-88 -11 -115 -13v-137h119v-94h-119
v-63q46 -36 129 -103l-40 -93q-39 36 -89 81v-350h-93v356zM233 576v-677h-92v471q-28 -54 -60 -105l-47 104q109 193 161 435l102 -17q-23 -99 -64 -211z" />
    <glyph glyph-name="uni4FD7" unicode="&#x4fd7;" 
d="M745 50v157h-265v-157h265zM371 506l-70 71q98 90 195 212l79 -59q-104 -130 -204 -224zM865 521q-78 78 -219 208l72 63q127 -109 219 -197zM848 262v-363h-103v57h-265v-57h-103v362q-27 -18 -57 -36l-51 89q107 58 181 130q71 69 121 161h84q50 -92 121 -161
q74 -72 181 -130l-51 -89q-40 24 -58 37zM795 300q-104 79 -182 191q-76 -111 -181 -191h363zM250 562v-663h-100v473q-37 -63 -69 -109l-48 104q129 201 197 439l106 -28q-36 -107 -86 -216z" />
    <glyph glyph-name="uni4FD8" unicode="&#x4fd8;" 
d="M402 475q-21 48 -61 134l93 21l60 -132zM594 485q-14 48 -46 143l93 18q44 -134 46 -142zM818 467l-84 33q49 84 79 149l90 -33q-47 -85 -85 -149zM344 653l-18 93q275 7 578 28l19 -93q-315 -19 -579 -28zM684 140v-127q0 -60 -32 -82q-31 -21 -114 -21h-107l-14 95h96
q39 0 53 10q13 10 13 38v87h-284v95h284v37l143 92h-375v91h537v-88l-200 -127v-5h261v-95h-261zM251 588v-689h-100v481q-28 -51 -68 -114l-45 101q118 218 174 438l107 -26q-28 -92 -68 -191z" />
    <glyph glyph-name="uni4FDD" unicode="&#x4fdd;" 
d="M780 528v144h-321v-144h321zM882 435h-524v329h524v-329zM728 241q74 -110 224 -187l-54 -97q-156 99 -228 231v-286h-105v283q-82 -136 -239 -238l-62 88q153 86 238 206h-213v92h276v81h105v-81h273v-92h-215zM247 574v-671h-99v461q-27 -49 -65 -106l-46 102
q117 210 173 445l104 -27q-30 -108 -67 -204z" />
    <glyph glyph-name="uni4FDE" unicode="&#x4fde;" 
d="M417 300v72h-192v-72h192zM417 154v74h-192v-74h192zM417 82h-192v-179h-95v547h381v-454q0 -50 -26 -68q-25 -17 -94 -17h-80l-12 82h69q29 0 39 7t10 27v55zM594 80v340h93v-340h-93zM632 -89l-14 94h99q37 0 49 9t12 35v409h98v-448q0 -58 -31 -79q-29 -20 -109 -20
h-104zM709 563v-54h-417v48q-85 -46 -203 -92l-40 98q144 50 242 108q94 56 170 132h90q76 -77 170 -132q98 -58 243 -108l-42 -98q-123 48 -213 98zM663 590q-92 56 -157 119q-65 -63 -157 -119h314z" />
    <glyph glyph-name="uni4FE1" unicode="&#x4fe1;" 
d="M354 309v83h541v-83h-541zM354 457v84h541v-84h-541zM696 699h249v-92h-631v92h262q-8 26 -32 95l117 11q13 -35 35 -106zM796 39v117h-343v-117h343zM796 -49h-343v-52h-100v345h544v-345h-101v52zM249 572v-673h-99v470q-24 -44 -67 -109l-48 102q121 206 181 444
l106 -26q-32 -110 -73 -208z" />
    <glyph glyph-name="uni4FE9" unicode="&#x4fe9;" 
d="M819 152l-32 -39q-39 56 -78 113q-26 -88 -83 -191l-67 53q55 93 78 172l-31 -65q-58 66 -67 75q-23 -100 -87 -214l-49 44v-200h-93v636h167q1 37 1 116h-172v94h635v-94h-186q-1 -28 -1 -116h158v-534q0 -54 -28 -73q-26 -18 -100 -18h-85l-13 87h81q31 0 42 8
q10 7 10 30v116zM819 214v232h-76q-3 -64 -12 -121q52 -63 88 -111zM642 276q17 68 22 170h-100q-1 -41 -8 -86q52 -49 86 -84zM566 536h99q1 42 1 116h-100v-116zM486 446h-83v-305q78 135 83 305zM232 576v-677h-94v462q-33 -62 -56 -98l-46 103q106 202 158 438l101 -18
q-27 -110 -63 -210z" />
    <glyph glyph-name="uni4FED" unicode="&#x4fed;" 
d="M788 35h136v-95h-616v95h386q58 170 98 312l95 -24q-24 -76 -99 -288zM596 106q-12 58 -54 234l90 13q41 -173 53 -231zM421 66q-37 129 -77 248l89 23q34 -105 78 -247zM828 470v-73h-413v74q-44 -33 -80 -57l-48 96q202 118 286 290h96q85 -172 286 -290l-48 -96
q-34 22 -79 56zM804 489q-108 86 -183 198q-75 -112 -183 -198h366zM260 558v-659h-103v471q-24 -40 -71 -107l-52 107q137 204 210 435l109 -27q-45 -122 -93 -220z" />
    <glyph glyph-name="uni4FEE" unicode="&#x4fee;" 
d="M423 -102l-42 83q311 72 512 209l54 -70q-216 -146 -524 -222zM469 62l-41 79q219 59 398 172l50 -65q-199 -122 -407 -186zM472 211l-40 75q171 46 306 126l51 -58q-152 -85 -317 -143zM294 44v606h90v-606h-90zM762 501q82 -32 190 -50l-31 -89q-148 34 -243 84
q-101 -56 -248 -98l-38 83q124 32 203 69q-42 33 -78 75q-31 -36 -72 -72l-54 73q110 102 170 231l105 -10q-18 -37 -38 -69h271v-84q-65 -86 -137 -143zM676 544q64 42 111 100h-214q-2 -3 -4 -5q47 -58 107 -95zM234 578v-676h-94v465q-31 -57 -55 -96l-47 99
q99 184 161 435l101 -18q-29 -111 -66 -209z" />
    <glyph glyph-name="uni4FEF" unicode="&#x4fef;" 
d="M682 122q-33 69 -84 160l68 35q10 -17 88 -157zM878 366v-354q0 -60 -31 -81q-29 -20 -110 -20h-83l-13 93h78q41 0 53 9q13 9 13 39v314h-176v91h176v122h93v-122h66v-91h-66zM568 424v-523h-93v363q-18 -26 -28 -40l-42 39q-8 -197 -86 -360l-73 85q39 88 53 168
q14 81 14 224v321h277q-9 37 -28 97l114 9q21 -83 26 -106h244v-94h-539v-228v-55q81 115 133 275l91 -33q-37 -91 -63 -142zM232 569v-671h-96v459q-30 -56 -53 -94l-47 103q118 227 163 440l101 -21q-26 -104 -68 -216z" />
    <glyph glyph-name="uni4FF1" unicode="&#x4ff1;" 
d="M875 184h73v-84h-661v84h73v578h515v-578zM774 184v74h-314v-74h314zM774 327v72h-314v-72h314zM774 468v72h-314v-72h314zM774 608v72h-314v-72h314zM897 -104q-94 55 -234 126l49 73q117 -56 232 -117zM334 -106l-44 83q122 50 230 117l57 -73q-117 -70 -243 -127z
M251 577v-676h-98v472q-35 -59 -72 -114l-45 102q126 218 184 444l102 -26q-30 -101 -71 -202z" />
    <glyph glyph-name="uni4FFA" unicode="&#x4ffa;" 
d="M856 407v-323h-214v-49q0 -27 13 -38t42 -11h96q52 -2 60 44q7 33 12 81l87 -28q-7 -49 -18 -95q-10 -45 -38 -63t-89 -18h-143q-62 0 -89 26t-27 81v70h-122v-51h-92v358q-13 -9 -27 -18l-54 79q132 71 198 157h-140v86h195q22 47 38 109l102 -9q-20 -61 -38 -100h307
v-86h-176q66 -90 214 -144l-42 -85q-38 18 -55 27zM781 452q-91 65 -143 157h-77q-54 -85 -143 -157h130v88h94v-88h139zM765 233h-123v-76h123v76zM765 302v77h-123v-77h123zM548 157v76h-122v-76h122zM548 379h-122v-77h122v77zM249 577v-677h-98v470q-31 -57 -66 -111
l-49 103q122 208 181 441l100 -26q-32 -109 -68 -200z" />
    <glyph glyph-name="uni500D" unicode="&#x500d;" 
d="M696 692h221v-88h-581v88h249q-6 17 -37 102l110 15q29 -87 38 -117zM787 39v147h-323v-147h323zM787 -48h-323v-53h-102v375h527v-375h-102v53zM540 446h125q42 63 84 143l103 -22q-37 -65 -75 -121h170v-90h-641v90h164q-36 64 -72 119l96 26q41 -63 81 -135zM247 567
v-668h-100v460q-27 -48 -65 -103l-45 105q120 213 175 444l106 -26q-28 -104 -71 -212z" />
    <glyph glyph-name="uni5012" unicode="&#x5012;" 
d="M664 129v551h86v-551h-86zM684 -85l-15 96h93q35 0 46 8t11 34v745h93v-789q0 -56 -28 -75t-104 -19h-96zM561 413q-140 -8 -280 -15l-17 73q27 20 42 43q35 56 75 142h-90v91h336v-91h-149q-64 -118 -97 -171q48 2 146 8q-21 46 -42 93l68 25q51 -96 103 -213l-76 -31
q-9 23 -19 46zM499 62q68 7 136 15l-2 -95q-203 -27 -362 -40l-12 98q93 8 146 13v135h-123v90h123v96h94v-96h119v-90h-119v-126zM228 596v-698h-91v474q-20 -42 -55 -105l-46 103q96 194 151 438l97 -17q-26 -109 -56 -195z" />
    <glyph glyph-name="uni5014" unicode="&#x5014;" 
d="M811 308v129h84v-214h-164v-197h98v144h88v-271h-88v44h-371v227h88v-144h97v197h-163v215h82v-130h81v179h88v-179h80zM818 581v93h-388v-93h388zM430 494v-70q0 -189 -20 -300q-20 -109 -75 -228l-87 58q50 103 67 197q18 97 18 268v343h581v-268h-484zM235 574v-675
h-96v462q-30 -57 -56 -97l-47 103q114 223 163 439l103 -21q-29 -111 -67 -211z" />
    <glyph glyph-name="uni5018" unicode="&#x5018;" 
d="M780 570l-66 62q54 54 126 134l70 -58q-20 -23 -130 -138zM454 572q-54 65 -122 139l67 56q73 -73 127 -133zM672 157v134h-106v-134h106zM752 76h-266v296h266v-296zM671 541h241v-532q0 -59 -31 -80q-29 -20 -110 -20h-93l-13 90h92q35 0 47 9q11 8 11 33v408h-392
v-546h-95v638h241v259h102v-259zM244 564v-664h-97v465q-23 -42 -64 -104l-46 106q119 196 180 439l102 -26q-28 -101 -75 -216z" />
    <glyph glyph-name="uni5019" unicode="&#x5019;" 
d="M846 591h95v-86h-534v86h341q6 58 6 89h-300v85h401zM293 58v612h87v-612h-87zM739 148q61 -106 215 -155l-53 -90q-155 64 -219 179q-30 -58 -92 -102q-64 -45 -177 -87l-52 87q117 39 176 79q56 38 75 89h-206v85h220q1 5 1 10q1 21 3 93h-98q-29 -51 -57 -83l-78 45
q75 81 104 190l90 -9q-10 -36 -20 -58h337v-85h-181q-2 -66 -4 -94v-9h221v-85h-205zM229 580v-681h-93v467q-23 -47 -56 -99l-44 104q101 197 156 436l99 -18q-24 -101 -62 -209z" />
    <glyph glyph-name="uni501A" unicode="&#x501a;" 
d="M870 440h77v-85h-75v-339q0 -62 -32 -84q-30 -21 -115 -21h-114l-14 96h111q41 0 54 9t13 39v300h-478v85h71l-40 76q107 25 158 51q50 26 70 65h-220v86h239q4 29 4 84h102q-2 -57 -4 -84h244v-86h-256q-4 -12 -8 -23q58 -21 254 -94zM859 440q-99 43 -250 103
q-58 -56 -217 -103h467zM676 28h-327v266h327v-266zM441 109h144v103h-144v-103zM253 571v-672h-98v473q-38 -63 -72 -109l-45 103q127 217 182 440l106 -25q-32 -113 -73 -210z" />
    <glyph glyph-name="uni501F" unicode="&#x501f;" 
d="M782 186v80h-319v-80h319zM782 33v78h-319v-78h319zM782 -53h-319v-49h-102v453h523v-453h-102v49zM701 508v100h-159v-100h159zM803 508h141v-88h-643v88h140v100h-108v88h108v104h101v-104h159v104h102v-104h118v-88h-118v-100zM250 569v-671h-101v464
q-30 -51 -66 -103l-46 103q118 208 177 445l108 -24q-31 -113 -72 -214z" />
    <glyph glyph-name="uni5021" unicode="&#x5021;" 
d="M777 613v71h-306v-71h306zM777 475v70h-306v-70h306zM877 395h-505v371h505v-371zM811 171v78h-374v-78h374zM811 20v79h-374v-79h374zM811 -61h-374v-41h-101v433h576v-433h-101v41zM248 571v-672h-99v464q-27 -48 -64 -104l-46 104q114 201 174 441l105 -25
q-27 -102 -70 -208z" />
    <glyph glyph-name="uni5026" unicode="&#x5026;" 
d="M439 624q-51 68 -93 114l69 47q63 -69 96 -110zM781 621h130v-82h-276v-3q-5 -21 -23 -68h330v-82h-176q65 -89 187 -138l-43 -91q-80 45 -136 93l-4 -104q-2 -46 -23 -61t-86 -15h-85l-9 69h68q29 0 38 6t11 26l2 45h-193v-154q0 -38 15 -53q17 -17 58 -17h157
q37 0 55 12q17 11 23 36q7 29 16 78l89 -31q-7 -40 -24 -99q-12 -43 -45 -62q-34 -19 -100 -19h-205q-63 0 -97 30q-38 33 -38 101v162q-30 -25 -96 -68l-48 89q143 77 208 165h-170v82h219q15 31 24 69v2h-212v82h228q10 69 17 179h100q-5 -104 -17 -179h129l-64 53
q55 56 98 114l73 -47q-51 -60 -105 -120zM728 296q-32 35 -64 90h-91q-30 -52 -67 -90h222zM240 565v-666h-97v459q-34 -62 -62 -102l-46 104q117 217 169 445l105 -24q-28 -112 -69 -216z" />
    <glyph glyph-name="uni502A" unicode="&#x502a;" 
d="M885 247h-138v-192q0 -28 9 -38q8 -9 30 -9h24q24 0 35 11t14 38q5 45 8 98l83 -31q-4 -51 -15 -124q-14 -95 -123 -93h-51q-63 0 -89 27q-27 28 -27 92v221h-86q0 -22 -1 -35q-5 -108 -48 -174q-45 -69 -159 -141l-69 79q98 60 133 108q34 46 39 126q2 26 2 37h-122v477
q127 30 228 69l43 -88q-106 -35 -171 -50v-115h145v-86h-145v-119h352v119h-146v86h146v116h-156v88h255v-497zM248 590v-691h-98v478q-41 -74 -69 -117l-45 99q115 220 172 445l104 -26q-29 -99 -64 -188z" />
    <glyph glyph-name="uni503A" unicode="&#x503a;" 
d="M653 109q153 -63 292 -126l-49 -87q-139 72 -280 137q-61 -88 -299 -142l-45 93q161 30 225 69q55 34 62 91q6 46 6 89h101q0 -16 -1 -24q-3 -47 -6 -68zM339 72v271h546v-262h-100v183h-346v-192h-100zM665 472h280v-74h-659v74h277v58h-230v70h230v57h-250v74h250v75
h102v-75h260v-74h-260v-57h232v-70h-232v-58zM238 585v-687h-97v466q-21 -42 -58 -102l-47 103q108 208 160 439l102 -17q-25 -103 -60 -202z" />
    <glyph glyph-name="uni503C" unicode="&#x503c;" 
d="M782 429v66h-326v-66h326zM782 290v68h-326v-68h326zM782 151v69h-326v-69h326zM782 13v68h-326v-68h326zM882 13h65v-84h-662v84h70v562h211v68h-246v84h246v79h103v-79h261v-84h-261v-68h213v-562zM245 577v-677h-99v471q-25 -47 -65 -109l-47 99q116 210 181 446
l102 -27q-38 -122 -72 -203z" />
    <glyph glyph-name="uni503E" unicode="&#x503e;" 
d="M743 161q91 -76 209 -180l-62 -78q-101 101 -179 171q-51 -101 -206 -180l-60 83q137 64 181 130q40 59 43 189q1 33 1 143h88q0 -72 -1 -143q0 -74 -14 -135zM759 671l-22 -94h176v-449h-87v361h-225v-364h-87v452h128l18 94h-175v90h455v-90h-181zM399 458v-325
q28 17 77 52l29 -85q-78 -58 -175 -115l-50 77q28 28 28 82v636h91v-232h79v-90h-79zM230 590v-690h-92v471q-21 -43 -53 -99l-46 96q93 182 157 439l92 -18q-25 -105 -58 -199z" />
    <glyph glyph-name="uni5047" unicode="&#x5047;" 
d="M510 537v135h-107v-135h107zM403 89v-190h-93v862h283v-313h-190v-90h164v-89h-164v-92h174v-88h-174zM813 543v127h-179v89h270v-305h-273v89h182zM812 78q55 -46 144 -87l-52 -89q-94 53 -154 108q-65 -61 -175 -118l-56 87q108 47 170 99q-54 75 -88 191l78 34
q28 -95 72 -158q43 59 65 158h-224v90h319v-84q-32 -142 -99 -231zM232 602v-703h-92v476q-30 -62 -56 -106l-46 97q101 196 152 437l95 -22q-22 -86 -53 -179z" />
    <glyph glyph-name="uni504F" unicode="&#x504f;" 
d="M814 551v85h-407v-85h407zM831 116h-71v-127h38q19 0 26 6t7 22v99zM831 196v120h-71v-120h71zM766 -89l-6 33h-69v172h-70v-176h-69v176h-70v-216h-82v386q-20 -215 -113 -375l-55 92q50 104 67 192q17 90 17 259v267h256q-16 61 -21 78l113 10q1 -5 20 -88h221v-249
h-498v-37q0 -24 -1 -36h508v-416q0 -42 -20 -57t-73 -15h-55zM691 316h-70v-120h70v120zM552 316h-70v-120h70v120zM231 569v-671h-93v464q-33 -61 -56 -99l-46 104q110 207 165 439l100 -21q-27 -101 -70 -216z" />
    <glyph glyph-name="uni505A" unicode="&#x505a;" 
d="M484 99v198h-101v-198h101zM484 386h87v-375h-188v-48h-89v423h92v151h-111v91h111v173h98v-173h104v-91h-104v-151zM814 144q44 -63 135 -143l-53 -98q-85 76 -137 151q-59 -81 -156 -161l-60 87q103 86 161 167q-50 110 -68 258q-21 -37 -37 -59l-36 98q80 144 126 359
l99 -13q-25 -92 -47 -155h206v-91h-40q-16 -249 -93 -400zM760 245q47 111 58 299h-112q9 -189 54 -299zM228 587v-686h-92v471q-17 -34 -53 -98l-47 97q97 188 156 432l97 -18q-23 -93 -61 -198z" />
    <glyph glyph-name="uni505C" unicode="&#x505c;" 
d="M243 591v-691h-98v473q-27 -56 -65 -115l-43 102q115 220 169 446l97 -27q-22 -86 -60 -188zM684 722h258v-80h-632v80h265q-10 36 -21 73l109 10q7 -27 21 -83zM772 462v61h-308v-61h308zM867 393h-497v197h497v-197zM857 186v-61h-166v-132q0 -50 -25 -67
q-23 -16 -91 -16h-122l-13 83h104q27 0 37 7t10 26v99h-214v61h-84v157h648v-157h-84zM845 204v59h-457v-59h457z" />
    <glyph glyph-name="uni5065" unicode="&#x5065;" 
d="M817 590v63h-82v-63h82zM817 515h-82v-62h82v62zM735 17h211l-16 -90h-251q-111 0 -180 23q-65 22 -114 71q-38 -63 -100 -128l-47 85q56 61 88 117q-46 74 -76 187l66 46q18 -80 50 -142q23 72 31 183h-126v88l122 187h-108v86h203v-90l-119 -184h113v-35
q-7 -199 -56 -320q67 -78 221 -83v92h-154v74h154v62h-136v74h136v59h-125v74h125v62h-156v75h156v63h-122v74h122v78h88v-78h164v-137h46v-75h-46v-136h-164v-59h172v-74h-172v-62h188v-74h-188v-93zM222 582v-682h-89v469q-16 -33 -50 -95l-47 96q98 183 154 437l94 -18
q-26 -103 -62 -207z" />
    <glyph glyph-name="uni5076" unicode="&#x5076;" 
d="M575 604v83h-123v-83h123zM575 455v84h-123v-84h123zM794 604v83h-124v-83h124zM794 455v84h-124v-84h124zM744 65q-156 -14 -293 -20l-8 79q46 0 132 4v105h-158v-333h-93v412h251v70h-218v377h533v-377h-220v-70h254v-317q0 -51 -26 -69q-25 -17 -95 -17h-105l-11 76
h92q31 0 41 7q11 8 11 30v211h-173v-101l62 4q-12 36 -19 55l58 13q24 -58 59 -163l-62 -15q-6 19 -12 39zM246 571v-672h-96v476q-29 -52 -65 -107l-50 103q124 204 183 436l102 -26q-29 -103 -74 -210z" />
    <glyph glyph-name="uni5077" unicode="&#x5077;" 
d="M522 303v71h-114v-71h114zM522 159v74h-114v-74h114zM522 89h-114v-187h-84v546h284v-470q0 -41 -21 -55t-78 -14h-57l-11 82h43q23 0 30 5q8 5 8 21v72zM666 68v349h78v-349h-78zM689 -92l-14 87h74q32 0 43 8t11 30v423h87v-460q0 -52 -27 -70q-26 -18 -97 -18h-77z
M767 554v-49h-314v46q-65 -50 -136 -89l-52 84q204 106 304 258h86q103 -154 305 -258l-52 -84q-76 42 -141 92zM729 585q-64 54 -117 119q-53 -65 -117 -119h234zM241 552v-653h-95v465q-30 -53 -63 -102l-45 101q122 214 184 443l105 -24q-35 -115 -86 -230z" />
    <glyph glyph-name="uni507F" unicode="&#x507f;" 
d="M442 606q-69 83 -101 119l69 51q43 -40 108 -111zM849 421v-83h-465v84h-79v181h259v197h106v-197h115l-67 57q62 61 111 117l75 -54q-57 -62 -115 -120h144v-182h-84zM832 427v90h-428v-90h428zM812 -49q-162 -8 -476 -20l-18 80q43 21 78 57q53 55 83 97h-179v90h641
v-90h-340q-78 -95 -124 -139q174 6 261 10q-42 47 -66 74l72 50q146 -151 193 -201l-81 -61q-17 21 -44 53zM246 576v-675h-98v462q-30 -56 -63 -108l-49 102q117 218 175 444l103 -25q-29 -100 -68 -200z" />
    <glyph glyph-name="uni5080" unicode="&#x5080;" 
d="M563 457h-131v-96h118q8 42 13 96zM567 535v13q0 32 2 82h-137v-95h135zM799 535v95h-134l-2 -82v-13h136zM799 361v96h-142q-4 -49 -12 -96h154zM885 122l67 -24q-8 -75 -17 -110q-9 -39 -36 -59q-30 -22 -84 -22h-122q-64 0 -91 27t-27 91v133q-69 -128 -232 -264
l-70 85q104 76 161 142q61 70 91 152h-186v446h171q7 20 28 88l113 -10q-9 -24 -33 -78h274v-446h-269q-11 -35 -27 -73h70v-25q21 33 47 92l67 -24q-40 -69 -66 -108q44 2 88 5q-9 20 -28 55l57 25q43 -75 54 -98zM862 68l-19 -12q-1 3 -13 27q-54 -3 -164 -9v-30
q0 -30 11 -41q10 -10 40 -10h85q28 0 40 10t16 34q3 27 4 31zM250 580v-681h-98v472q-33 -59 -69 -114l-45 103q126 222 179 446l101 -23q-28 -99 -68 -203z" />
    <glyph glyph-name="uni5085" unicode="&#x5085;" 
d="M565 455v57h-137v-57h137zM565 334v56h-137v-56h137zM801 455v57h-138v-57h138zM801 334v56h-138v-56h138zM829 224v-46h118v-78h-118v-90q0 -60 -32 -82q-31 -21 -113 -21h-98l-13 88h95q36 0 49 9t13 35v61h-310q129 -63 138 -68l-51 -77q-74 42 -155 85l43 60h-112v78
h447v48h71v43h-138v-49h-98v49h-137v-55h-93v370h230v54h-256v78h256v86h98v-86h99q-10 28 -28 70l92 10q12 -30 31 -80h77v-78h-271v-54h231v-360h-65zM245 592v-693h-97v475q-33 -63 -66 -116l-43 100q113 222 167 449l100 -24q-27 -102 -61 -191z" />
    <glyph glyph-name="uni5088" unicode="&#x5088;" 
d="M484 416v105h-88v-105h88zM658 598v82h-86v-82h86zM658 416v105h-86v-105h86zM834 416v105h-88v-105h88zM746 598h169v-260h-600v260h169v82h-178v84h625v-84h-185v-82zM708 172q87 -92 243 -143l-50 -92q-159 71 -236 166v-202h-101v205q-88 -101 -243 -176l-54 86
q166 65 254 156h-231v83h274v59h101v-59h279v-83h-236zM245 592v-691h-97v467q-33 -61 -66 -110l-45 104q111 206 168 443l93 -22q-20 -95 -53 -191z" />
    <glyph glyph-name="uni508D" unicode="&#x508d;" 
d="M686 347h260v-84h-406q-1 -29 -5 -67h335l-14 -168q-5 -67 -38 -89q-32 -22 -125 -22h-122l-12 85h128q41 0 55 9t16 38l4 63h-245q-20 -66 -65 -117q-42 -48 -124 -102l-68 83q100 59 136 116q38 59 43 171h-147v84h292q-16 38 -33 77l100 12q18 -45 35 -89zM775 532
h151v-150h-94v67h-429v-68h-91v151h159q-25 40 -47 73l101 13q12 -17 53 -86h88l52 88l105 -15q-24 -37 -48 -73zM685 719h234v-85h-589v85h243q-9 25 -31 79l109 10q24 -64 34 -89zM241 585v-685h-97v469q-27 -52 -62 -108l-45 101q115 221 170 445l99 -26
q-27 -96 -65 -196z" />
    <glyph glyph-name="uni50A3" unicode="&#x50a3;" 
d="M457 -91l-12 84h63q28 0 38 7q9 7 9 27v294h96v-329q0 -49 -25 -66q-24 -17 -90 -17h-79zM240 574v-675h-97v465q-25 -49 -62 -106l-43 103q118 219 170 444l100 -26q-30 -106 -68 -205zM764 371q66 -81 188 -129l-37 -85q-59 28 -102 58q-40 -27 -105 -64
q125 -62 227 -117l-46 -85q-95 56 -232 130l49 73l-45 68q30 16 84 50q-39 38 -78 101h-123q-34 -51 -88 -102q1 -1 78 -43l-36 -66l34 -74q-104 -63 -219 -122l-44 82q99 44 217 109q-12 8 -96 58q-42 -32 -97 -67l-43 81q121 72 182 144h-148v78h199q12 25 24 58h-171v76
h191q8 35 10 57h-219v79h227q4 50 5 84h101q-4 -58 -6 -84h262v-79h-272q-1 -8 -9 -57h257v-76h-276q-10 -33 -21 -58h351v-78h-173z" />
    <glyph glyph-name="uni50A8" unicode="&#x50a8;" 
d="M802 192v84h-179v-84h179zM802 31v84h-179v-84h179zM373 573q-29 76 -73 177l87 28q36 -82 75 -173zM350 -71l-54 73q24 25 24 63v357h-61v94h151v-420q33 27 59 53l40 -83q-73 -68 -159 -137zM697 618v-98h32q75 88 141 209l77 -43q-55 -98 -108 -166h103v-84h-174
q-35 -38 -80 -78h205v-459h-91v50h-179v-50h-91v344q-23 -16 -69 -44l-31 90q125 64 214 147h-184v84h142v98h-102v83h102v105h93v-105h105v-83h-105zM231 586v-688h-93v470q-28 -55 -55 -99l-46 102q100 193 153 436l100 -17q-23 -99 -59 -204z" />
    <glyph glyph-name="uni50AC" unicode="&#x50ac;" 
d="M819 664v103h97v-186h-564v186h97v-103h135v138h99v-138h136zM491 478h155q-26 61 -33 76l100 13q26 -61 37 -89h186v-77h-202v-74h185v-77h-185v-73h185v-76h-185v-77h210v-77h-482v-49h-98v377q-37 -46 -68 -78l-41 98q108 109 166 271l103 -13q-15 -39 -33 -75z
M462 24h173v77h-173v-77zM462 177h173v73h-173v-73zM462 327h173v74h-173v-74zM244 578v-680h-98v470q-25 -47 -62 -105l-48 102q115 205 172 441l106 -23q-32 -111 -70 -205z" />
    <glyph glyph-name="uni50B2" unicode="&#x50b2;" 
d="M819 156q42 -63 135 -146l-53 -107q-82 78 -134 159q-57 -84 -143 -164l-49 68q-11 -20 -37 -28q-24 -7 -77 -7h-61l-14 88h64q29 0 38 7t10 28l5 133h-88q-8 -89 -35 -155q-26 -65 -81 -133l-65 82q49 63 69 122q20 60 23 153q1 23 1 77h-62v80h131v70h-102v76h102v68
h-115v79h115v98h97v-98h117v-79h-117v-68h92v-76h-92v-70h121v-80h-193l-2 -66h174l-8 -249q0 -9 -1 -14q86 82 132 154q-45 106 -65 247l-70 51q81 160 122 351l97 -16q-15 -66 -41 -144h189v-91h-42q-13 -238 -87 -400zM766 259q45 117 54 297h-93q-4 -11 -9 -22
q9 -172 48 -275zM230 584v-685h-94v464q-34 -64 -53 -96l-47 103q100 193 154 436l99 -17q-23 -99 -59 -205z" />
    <glyph glyph-name="uni50BB" unicode="&#x50bb;" 
d="M904 376h-155q121 -48 199 -84l-35 -68q-84 42 -231 105l35 47h-216l43 -43q-111 -67 -223 -124l-43 71q112 50 198 96h-137v354h175q11 37 22 78l112 -9q-15 -43 -27 -69h283v-354zM807 445v214h-70l42 -38q-31 -25 -90 -66q6 -4 97 -56l-42 -54h63zM739 445
q-22 15 -113 71q-68 -42 -129 -71h242zM725 659h-219q80 -45 121 -68q54 34 98 68zM716 40q93 -32 235 -46l-44 -87q-179 30 -282 80q-111 -53 -299 -92l-46 83q161 30 255 63q-44 33 -87 84q-41 -32 -99 -69l-56 65q141 77 236 184l92 -13q-20 -25 -39 -44h266v-74
q-58 -83 -132 -134zM625 82q66 38 113 94h-223q50 -57 110 -94zM500 659h-65v-214h53l-36 54q64 28 112 54q-74 44 -103 59zM251 574v-676h-99v475q-33 -57 -69 -114l-48 101q121 212 184 446l106 -28q-36 -115 -74 -204z" />
    <glyph glyph-name="uni50CF" unicode="&#x50cf;" 
d="M855 385l53 -64q-39 -26 -98 -60q22 -81 54 -134q31 -51 88 -100l-56 -85q-119 115 -157 278q-12 -7 -38 -21q16 -59 16 -146q3 -146 -140 -145h-94l-12 77h85q38 0 54 15q17 16 17 57q0 29 -3 56q-131 -117 -318 -194l-38 78q210 74 341 193q-4 14 -16 42
q-113 -98 -283 -158l-35 70q176 51 288 142q-4 6 -23 30q-94 -59 -232 -105l-40 73q182 44 242 101h-173v148l-55 69q134 91 198 206l106 -10q-25 -42 -36 -57h259v-69l-62 -72h162v-215h-54zM849 385h-227q-8 -11 -15 -16q40 -45 66 -93q106 61 176 109zM678 529
q-6 -42 -16 -72h152v72h-136zM584 529h-151v-72h130q15 32 21 72zM492 667q-33 -36 -68 -67h211l58 67h-201zM242 577v-676h-96v470q-26 -50 -62 -105l-46 104q116 209 170 437l103 -19q-30 -109 -69 -211z" />
    <glyph glyph-name="uni50DA" unicode="&#x50da;" 
d="M244 577v-673h-94v471q-34 -63 -70 -118l-45 103q121 206 178 445l100 -25q-29 -101 -69 -203zM764 343v61h-309v-61h309zM873 -72q-36 33 -164 145l60 62q115 -91 167 -136zM338 -77l-67 66q93 80 155 150l69 -54q-66 -75 -157 -162zM855 367v-219h-191v-149
q0 -54 -28 -73q-26 -18 -100 -18h-73l-12 83h74q25 0 35 7q9 7 9 25v125h-205v217q-12 -8 -57 -35l-46 75q77 42 130 85q-43 36 -87 73l56 55q42 -31 91 -74q41 46 66 98h-198v79h227q9 28 18 86l102 -6q-9 -44 -21 -80h281v-79h-226q31 -58 70 -99q37 26 98 75l57 -57
q-31 -25 -98 -71q55 -41 127 -70l-40 -82q-41 19 -59 29zM764 219v61h-309v-61h309zM709 476q-59 62 -99 151q-40 -86 -106 -151h205z" />
    <glyph glyph-name="uni50E7" unicode="&#x50e7;" 
d="M734 457l-53 34q41 57 71 110l56 -32zM774 156v70h-320v-70h320zM774 19v70h-320v-70h320zM774 -58h-320v-44h-99v403h518v-403h-99v44zM573 437v187h-169v-187h169zM827 437v187h-170v-187h170zM493 459q-5 9 -71 111l55 32q33 -50 71 -111zM775 702h141v-343h-601v343
h139q-25 43 -55 89l102 20q34 -55 68 -109h98q33 55 59 107l110 -17q-42 -62 -61 -90zM239 582v-684h-95v472q-31 -60 -65 -112l-43 101q112 208 170 445l98 -26q-28 -98 -65 -196z" />
    <glyph glyph-name="uni50F3" unicode="&#x50f3;" 
d="M916 362h-81l53 -48q-79 -65 -115 -91h169v-82h-238q88 -77 249 -123l-49 -90q-155 61 -241 149v-176h-96v179q-87 -92 -245 -159l-50 84q165 57 254 136h-235v82h158q-102 92 -103 93l54 46h-85v248h170v74h-174v81h622v-81h-186v-74h169v-248zM835 438v96h-88v-96h88z
M824 362h-416q68 -54 110 -91l-54 -48h103v138h96v-138h94l-47 50q62 43 114 89zM659 534h-87v-96h87v96zM659 610v74h-87v-74h87zM485 534h-89v-96h89v96zM245 593v-692h-98v465q-28 -54 -65 -108l-45 103q110 205 167 444l93 -23q-18 -89 -52 -189z" />
    <glyph glyph-name="uni50F5" unicode="&#x50f5;" 
d="M563 559v47h-144v-47h144zM563 468v47h-144v-47h144zM795 559v47h-144v-47h144zM795 468v47h-144v-47h144zM888 417h-561v240h561v-240zM563 177v47h-145v-47h145zM563 85v47h-145v-47h145zM796 177v47h-145v-47h145zM796 85v47h-145v-47h145zM889 33h-564v242h564v-242z
M303 699v62h623v-62h-623zM273 316v60h669v-60h-669zM267 -7h679v-63h-679v63zM231 582v-683h-93v472q-20 -39 -54 -95l-47 105q109 202 158 424l97 -17q-26 -109 -61 -206z" />
    <glyph glyph-name="uni50FB" unicode="&#x50fb;" 
d="M501 509v164h-110v-164h110zM512 53v184h-83v-184h83zM691 426q-31 84 -57 150l75 22q38 -88 59 -148zM833 699h98v-84h-312v84h118q-14 57 -27 98l97 10q15 -57 26 -108zM846 407h100v-86h-121v-127h108v-85h-108v-211h-96v211h-110v85h110v127h-122v86h156
q49 111 78 191l80 -23q-43 -100 -75 -168zM381 320h209v-351h-161v-57h-77v268q-28 -98 -79 -202l-45 88v-167h-92v471q-20 -41 -55 -102l-45 104q101 197 152 435l97 -17q-24 -101 -57 -197v-514q83 169 79 410v268h278v-333h-195q0 -8 -1 -15q-2 -33 -8 -89z" />
    <glyph glyph-name="uni5112" unicode="&#x5112;" 
d="M688 398v43h130v-43h-130zM690 484v43h121v-43h-121zM408 398v43h123v-43h-123zM731 141v-217h-78v217h-85v-218h-79v218h-85v-239h-87v309h196q7 31 14 63h-247v73h662v-73h-317q-7 -29 -18 -63h301v-229q0 -45 -23 -61q-22 -15 -83 -15h-50l-11 76h40q24 0 31 5t7 22
v132h-88zM412 484v43h119v-43h-119zM656 572v-195h-91v195h-186v-120h-85v188h271v54h-232v70h556v-70h-233v-54h274v-187h-87v119h-187zM236 591v-692h-93v475q-29 -57 -64 -113l-42 101q111 217 164 446l94 -26q-25 -94 -59 -191z" />
    <glyph glyph-name="uni5121" unicode="&#x5121;" 
d="M743 171v93h-61v-93h61zM743 18v93h-61v-93h61zM854 171v93h-60v-93h60zM854 18v93h-60v-93h60zM854 -53h-172v-42h-66v430h306v-429h-68v41zM553 608v74h-136v-74h136zM553 465v76h-136v-76h136zM779 608v74h-138v-74h138zM779 465v76h-138v-76h138zM872 391h-548v365
h548v-365zM395 171v93h-57v-93h57zM395 18v93h-57v-93h57zM502 171v93h-57v-93h57zM502 18v93h-57v-93h57zM502 -53h-164v-43h-66v431h297v-430h-67v42zM220 549v-651h-88v463q-22 -38 -54 -91l-41 104q114 224 164 427l95 -18q-33 -125 -76 -234z" />
    <glyph glyph-name="uni513F" unicode="&#x513f;" 
d="M141 -94l-88 84q78 66 123 128t65 136q25 95 24 245v290h112v-315q0 -208 -47 -323q-49 -121 -189 -245zM706 -93q-80 0 -115 36q-36 37 -36 121v728h114v-712q0 -35 13 -51q13 -15 42 -15h30q36 0 52 15q17 16 21 56q11 91 15 156l108 -23q-7 -90 -24 -194
q-11 -65 -48 -91t-119 -26h-53z" />
    <glyph glyph-name="uni5141" unicode="&#x5141;" 
d="M784 395q-64 -2 -129 -4v-318q0 -36 14 -51q13 -14 45 -14h38q36 0 52 14q15 14 22 51q8 44 15 125l105 -38q-6 -48 -22 -136q-12 -66 -47 -92q-34 -25 -110 -25h-88q-69 0 -102 33q-34 34 -34 104v344q-46 -1 -133 -5q0 -19 -2 -51q-8 -168 -67 -259t-216 -178l-68 94
q136 75 183 142q49 69 57 203q1 14 1 46q-129 -4 -191 -5l-20 93q55 23 87 59q135 133 238 282l132 -23q-106 -140 -263 -302q142 3 424 13q-54 68 -111 135l84 59q146 -170 250 -297l-91 -70q-17 23 -53 71z" />
    <glyph glyph-name="uni5143" unicode="&#x5143;" 
d="M663 380v-308q0 -38 13 -51t46 -13h29q39 0 53 12t22 52q8 41 14 134l108 -39q-11 -84 -22 -144q-12 -66 -49 -92q-35 -24 -112 -24h-80q-69 0 -102 32q-34 33 -34 104v337h-143q0 -25 -2 -63q-10 -157 -68 -244t-211 -174l-68 96q133 75 179 140q48 67 56 193l2 52h-230
v106h871v-106h-272zM142 645v107h715v-107h-715z" />
    <glyph glyph-name="uni5144" unicode="&#x5144;" 
d="M847 308h-190v-237q0 -34 12 -47q13 -14 42 -14h54q32 0 45 11q14 11 18 45q8 61 12 129l107 -38q-5 -69 -19 -143q-11 -58 -43 -82q-34 -25 -102 -25h-109q-69 0 -99 31q-31 32 -31 103v267h-129q-2 -34 -4 -50q-14 -133 -75 -209q-62 -78 -217 -156l-67 96
q140 66 190 124q51 59 59 165l2 30h-159v452h703v-452zM734 411v244h-477v-244h477z" />
    <glyph glyph-name="uni5145" unicode="&#x5145;" 
d="M783 308q-61 -2 -123 -4v-239q0 -34 13 -47t46 -13h47q35 0 50 12t21 44q7 37 12 107l101 -36q-11 -82 -24 -136q-11 -49 -43 -69q-31 -20 -97 -20h-113q-65 0 -94 30t-29 98v266l-126 -4q-6 -161 -67 -243q-64 -87 -239 -158l-63 100q152 53 205 116q51 60 55 182
q-120 -2 -181 -4l-19 90q48 22 87 55q88 75 159 158h-293v99h391q-25 75 -36 105l126 10q15 -41 35 -115h350v-99h-432q-109 -114 -207 -201q134 3 391 11q-53 51 -107 103l72 56q113 -98 270 -243l-79 -71q-29 30 -59 60z" />
    <glyph glyph-name="uni5146" unicode="&#x5146;" 
d="M721 431l-74 73q82 72 177 173l80 -65q-103 -110 -183 -181zM216 435q-78 95 -153 176l75 62q72 -74 161 -171zM312 410v389h104v-408q2 -151 -37 -250q-51 -133 -248 -250l-70 97q128 71 180 136q53 66 65 170q-69 -42 -209 -120l-43 104q131 63 258 132zM644 298v-226
q0 -40 13 -54t51 -14h55q36 0 52 13q17 14 22 47q7 41 13 117l95 -31q-6 -73 -17 -130q-11 -61 -45 -87t-105 -26h-101q-74 0 -106 33q-31 32 -31 109v750h104v-389q103 -54 257 -140l-58 -95q-86 55 -199 123z" />
    <glyph glyph-name="uni5148" unicode="&#x5148;" 
d="M667 290v-224q0 -32 13 -45q12 -12 43 -12h54q57 -2 63 54q6 47 10 111l101 -36q-7 -71 -18 -125q-11 -56 -44 -81t-99 -25h-109q-65 0 -96 31t-31 98v254h-147l-2 -30q-12 -136 -70 -210q-60 -78 -217 -151l-67 97q134 54 184 110q48 54 58 156l2 28h-233v101h403v151
h-211q-28 -57 -70 -121l-96 59q99 125 147 301l107 -15q-23 -73 -43 -123h166v163h111v-163h311v-101h-311v-151h366v-101h-275z" />
    <glyph glyph-name="uni5149" unicode="&#x5149;" 
d="M663 332v-265q0 -33 13 -46t44 -13h54q57 -2 62 57q13 126 13 131l100 -38q-9 -85 -21 -144q-12 -57 -45 -82q-34 -25 -100 -25h-95q-70 0 -102 33t-32 102v290h-149l-2 -38q-7 -142 -70 -232q-62 -90 -215 -166l-69 96q136 64 185 126q48 61 59 181q2 15 3 33h-236v102
h386v372h108v-372h389v-102h-280zM277 487q-72 88 -169 196l77 64q68 -68 175 -191zM714 483l-77 69q93 100 169 198l85 -64q-71 -86 -177 -203z" />
    <glyph glyph-name="uni514B" unicode="&#x514b;" 
d="M553 528h291v-318h-191v-154q0 -31 14 -44t43 -13h57q32 0 47 12q15 11 20 40q6 34 13 99l102 -35q-12 -66 -24 -118q-11 -46 -42 -68q-32 -22 -89 -22h-131q-119 0 -119 125v178h-119q-10 -131 -75 -198q-68 -71 -236 -115l-61 100q143 30 198 77q53 45 61 136h-161v318
h290v90h-371v97h371v95h112v-95h374v-97h-374v-90zM735 302v133h-476v-133h476z" />
    <glyph glyph-name="uni514D" unicode="&#x514d;" 
d="M447 451h-204v-145h184q4 15 5 25q12 75 15 120zM748 306v145h-196q-5 -55 -16 -125q-1 -6 -5 -20h217zM491 184h98v-120q0 -37 14 -51q15 -15 54 -15h100q36 0 52 12t21 43q10 68 12 105l100 -31q-7 -65 -22 -127q-12 -50 -44 -71q-33 -22 -96 -22h-162q-71 0 -101 29
t-30 97v143q-44 -88 -131 -156q-89 -69 -237 -130l-67 98q143 48 225 104q80 55 118 127h-252v249q-10 -8 -30 -22l-60 86q180 119 274 274l119 -12q-13 -21 -46 -70h349v-74l-108 -111h208v-320h-343q-10 -24 -15 -35zM330 636q-43 -51 -97 -97h278l95 97h-276z" />
    <glyph glyph-name="uni5151" unicode="&#x5151;" 
d="M750 343v210h-502v-210h502zM418 649h136q35 50 104 157l121 -24q-76 -110 -93 -133h175v-404h-201v-179q0 -34 14 -48q13 -13 44 -13h52q33 0 48 12t20 41t13 106l101 -34q-9 -71 -23 -132q-11 -48 -43 -70q-31 -21 -89 -21h-125q-64 0 -93 29q-30 30 -30 94v215h-132
q-5 -136 -68 -210q-66 -78 -237 -140l-65 100q150 45 203 98q51 51 56 152h-169v404h179q-46 72 -88 130l115 27q44 -62 101 -149z" />
    <glyph glyph-name="uni5154" unicode="&#x5154;" 
d="M711 57q-24 34 -93 121l75 43q96 -117 97 -119zM449 460h-207v-136h188q14 60 19 136zM751 324v136h-199q-6 -72 -18 -136h217zM496 198h77v-134q0 -37 14 -51q15 -15 55 -15h120q35 0 51 12t23 43q6 28 14 114l100 -34q-10 -77 -24 -133q-13 -51 -45 -72t-99 -21h-181
q-73 0 -102 29q-28 28 -28 97v116q-46 -77 -130 -138q-85 -62 -223 -118l-66 97q154 53 235 111q79 56 115 136h-260v224q-20 -15 -26 -19l-62 86q178 120 276 279l121 -11q-13 -21 -46 -70h346v-75l-100 -104h201v-310h-341v-3q-4 -19 -15 -36zM337 639q-35 -41 -89 -92
h274l87 92h-272z" />
    <glyph glyph-name="uni515A" unicode="&#x515a;" 
d="M756 652h163v-207h-107v112h-625v-112h-107v207h164q-35 43 -95 113l112 25q34 -39 99 -123l-62 -15h146v153h112v-153h139l-56 15q34 37 101 121l112 -25q-6 -8 -96 -111zM804 178h-150v-120q0 -31 12 -44q13 -14 43 -14h55q33 0 47 11q15 11 20 40q8 49 13 105l105 -35
q-13 -85 -23 -126q-11 -47 -42 -67q-32 -21 -94 -21h-124q-64 0 -93 30q-30 31 -30 99v142h-100q-4 -107 -73 -171t-241 -111l-61 103q150 32 204 68q54 37 61 111h-139v302h610v-302zM695 271v115h-393v-115h393z" />
    <glyph glyph-name="uni515C" unicode="&#x515c;" 
d="M673 -93q-70 0 -99 30q-30 31 -30 104v165h107v-149q0 -31 13 -43t43 -12h65q33 0 47 13q15 14 19 47q9 79 10 101l102 -25q-7 -58 -20 -134q-9 -52 -40 -74q-32 -23 -98 -23h-119zM534 724h145v-475h-358v475h106q18 44 29 83l110 -9q-12 -31 -32 -74zM586 333v112h-172
v-112h172zM586 528v111h-172v-111h172zM98 -104l-45 101q143 25 197 61q50 34 58 101q3 24 3 46h108l-4 -60q-10 -102 -74 -155q-70 -58 -243 -94zM117 199l-45 82q26 23 26 55v377q98 24 171 54l41 -91q-37 -13 -115 -35v-300q49 24 91 48l19 -96q-82 -46 -188 -94z
M806 336v302h-91v89h189v-480h-188v89h90z" />
    <glyph glyph-name="uni5162" unicode="&#x5162;" 
d="M897 227h-82v-208q-1 -31 24 -30h6q15 0 22 7q6 7 8 24q4 29 10 109l69 -28q-5 -52 -16 -118q-7 -41 -27 -58q-21 -18 -64 -18h-37q-44 0 -64 22t-20 71v227h-57v-5q-3 -123 -37 -194q-33 -71 -119 -136l-68 75q77 52 104 102q29 53 31 153v5h-63v302h137v86h-151v92h151
v98h99v-98h181v-92h-181v-86h144v-302zM807 315v126h-201v-126h201zM457 227h-68v-171q59 43 82 62l28 -83q-78 -59 -172 -119l-50 76q14 15 19 29q4 12 4 37v169h-57v-6q-2 -122 -32 -190q-29 -67 -111 -137l-55 86q61 50 83 96q25 52 26 147v4h-65v302h136v87h-164v92h164
v98h99v-98h143v-92h-143v-87h133v-302zM367 315v126h-188v-126h188z" />
    <glyph glyph-name="uni5165" unicode="&#x5165;" 
d="M504 429q-54 -158 -139 -277q-89 -123 -241 -245l-75 102q162 121 250 248q89 129 135 314q-57 90 -146 170l89 60q71 -66 119 -136q50 -73 108 -200q73 -161 150 -261q75 -97 193 -185l-90 -105q-127 116 -197 216q-75 107 -151 286q-2 6 -5 13z" />
    <glyph glyph-name="uni5168" unicode="&#x5168;" 
d="M758 472v-85h-203v-116h279v-98h-279v-131h361v-100h-833v100h359v131h-274v98h274v116h-200v81q-61 -41 -142 -84l-58 96q287 144 408 324h108q123 -182 406 -324l-58 -96q-81 43 -148 88zM739 485q-142 99 -235 210q-92 -110 -237 -210h472z" />
    <glyph glyph-name="uni516B" unicode="&#x516b;" 
d="M132 -90l-84 95q120 117 172 229q52 113 72 297q11 99 16 232l109 -6q-7 -148 -14 -222q-20 -211 -75 -340q-58 -135 -196 -285zM865 -86q-138 132 -200 272q-64 143 -81 362q-9 117 -15 223l107 2q5 -116 16 -228q18 -197 79 -316q60 -119 181 -214z" />
    <glyph glyph-name="uni516C" unicode="&#x516c;" 
d="M117 318l-71 94q192 143 296 370l104 -42q-124 -252 -329 -422zM890 328q-125 91 -199 186q-72 93 -134 242l99 37q57 -132 123 -211q64 -77 175 -149zM751 -22q-304 -17 -609 -30l-23 96q39 18 80 66q60 69 131 173q76 111 116 192l109 -54q-114 -180 -265 -364
q134 4 394 16q-84 117 -128 174l82 56q140 -175 266 -344l-96 -62q-43 61 -57 81z" />
    <glyph glyph-name="uni516D" unicode="&#x516d;" 
d="M68 452v107h864v-107h-864zM497 569q-50 93 -108 192l111 41q55 -88 108 -187zM169 -92l-95 73q151 183 253 388l105 -54q-135 -243 -263 -407zM818 -83q-120 208 -251 399l94 54q97 -137 264 -390z" />
    <glyph glyph-name="uni5170" unicode="&#x5170;" 
d="M157 233v105h686v-105h-686zM62 -48v105h875v-105h-875zM359 610h192q82 116 130 196l112 -44q-83 -108 -119 -152h229v-106h-806v106h227q-47 66 -110 147l100 50q52 -62 121 -155z" />
    <glyph glyph-name="uni5171" unicode="&#x5171;" 
d="M740 307h209v-104h-898v104h208v220h-178v103h178v174h112v-174h256v174h113v-174h179v-103h-179v-220zM627 307v220h-256v-220h256zM135 -100l-68 93q155 82 297 182l78 -79q-160 -110 -307 -196zM848 -96q-135 93 -293 192l70 80q111 -65 296 -182z" />
    <glyph glyph-name="uni5173" unicode="&#x5173;" 
d="M561 276q42 -102 129 -163q89 -62 255 -102l-64 -107q-154 50 -241 112q-89 63 -139 161q-37 -88 -124 -152q-85 -63 -252 -128l-69 100q186 60 269 125q78 61 100 154h-356v101h368v2q4 53 4 139h-326v100h198q-47 67 -105 140l98 47q47 -55 121 -155l-63 -32h196
q78 107 125 188l111 -46q-50 -69 -112 -142h203v-100h-332q-2 -69 -5 -141h381v-101h-370z" />
    <glyph glyph-name="uni5174" unicode="&#x5174;" 
d="M56 279v104h888v-104h-888zM147 -101l-75 86q139 105 278 252l83 -73q-132 -137 -286 -265zM846 -93q-132 126 -284 258l76 75q203 -171 289 -247zM253 429q-77 141 -151 264l96 48q76 -124 151 -258zM737 425l-93 53q86 133 163 274l100 -47q-122 -207 -170 -280z
M481 465q-35 130 -87 296l107 25q46 -152 86 -294z" />
    <glyph glyph-name="uni5175" unicode="&#x5175;" 
d="M725 254h221v-99h-891v99h141v490q360 6 630 41l34 -100q-268 -27 -554 -36v-119h601v-98h-182v-178zM617 254v178h-311v-178h311zM882 -103q-136 67 -303 144l54 85q165 -71 302 -134zM108 -106l-51 94q162 64 305 141l56 -87q-163 -91 -310 -148z" />
    <glyph glyph-name="uni5176" unicode="&#x5176;" 
d="M898 -105q-183 72 -326 118l40 83q164 -52 327 -107zM805 203h141v-90h-892v90h141v412h-124v89h124v99h108v-99h394v99h108v-99h125v-89h-125v-412zM697 203v83h-394v-83h394zM697 370v81h-394v-81h394zM697 534v81h-394v-81h394zM99 -108l-41 91q131 39 319 116l51 -84
q-198 -82 -329 -123z" />
    <glyph glyph-name="uni5177" unicode="&#x5177;" 
d="M887 -102q-167 56 -329 103l38 76l330 -88zM842 176h104v-86h-892v86h106v588h682v-588zM739 176v75h-476v-75h476zM739 321v74h-476v-74h476zM739 465v73h-476v-73h476zM739 608v73h-476v-73h476zM113 -106l-42 89q154 36 326 99l44 -79q-197 -74 -328 -109z" />
    <glyph glyph-name="uni5178" unicode="&#x5178;" 
d="M865 210h72v-91h-872v91h71v486h210v108h98v-108h113v108h98v-108h210v-486zM767 210v156h-112v-156h112zM767 455v152h-112v-152h112zM557 210v156h-113v-156h113zM557 455v152h-113v-152h113zM346 210v156h-112v-156h112zM346 455v152h-112v-152h112zM891 -102
q-189 75 -323 120l38 82q151 -48 323 -109zM109 -106l-38 92q126 39 311 118l44 -85q-179 -77 -317 -125z" />
    <glyph glyph-name="uni5179" unicode="&#x5179;" 
d="M814 -23q-99 -6 -288 -14q7 -18 13 -36l-91 -29q-12 37 -25 74q-111 -7 -321 -17l-22 88q34 20 77 72q68 86 123 166q-90 -3 -181 -5l-18 83q31 18 62 59q48 59 102 156h-185v91h252q-55 71 -97 120l112 21q66 -78 114 -137l-13 -4h140q81 98 112 141l119 -21
q-46 -56 -104 -120h249v-91h-221q-80 -116 -152 -207q106 2 155 4q48 72 72 112l93 -47q-181 -250 -287 -379q113 4 174 7l-50 116l87 34q81 -175 126 -278l-95 -38q-7 18 -32 79zM603 574h-242q-86 -123 -149 -205q86 2 131 4q58 90 66 104l90 -48q-9 -13 -46 -65
q20 16 46 51q53 73 104 159zM490 63q25 22 49 51q56 66 123 166q-66 -3 -198 -7l-18 81q-144 -200 -229 -303q63 2 175 8q-21 64 -42 118l86 28q26 -64 54 -142z" />
    <glyph glyph-name="uni517B" unicode="&#x517b;" 
d="M706 169v-260h-104v279h71q-72 44 -122 123h-87l-8 -12q-44 -64 -123 -111h70q-1 -26 -6 -80q-8 -77 -46 -126q-39 -49 -130 -96l-77 68q84 42 114 75t37 88q3 23 4 52q-78 -41 -199 -84l-48 95q211 54 280 127l4 4h-270v83h327q13 25 27 72h-279v82h294q4 40 5 70h-337
v83h198q-29 40 -69 91l115 18q38 -45 82 -109h147q56 78 76 108l115 -17q-24 -36 -67 -91h201v-83h-355q-1 -29 -7 -70h321v-82h-335q-7 -34 -22 -72h432v-83h-270q77 -85 286 -120l-42 -97q-133 39 -203 75z" />
    <glyph glyph-name="uni517C" unicode="&#x517c;" 
d="M540 562v71h-121v-71h121zM540 410v75h-121v-75h121zM540 252v75h-121v-75h121zM762 410v75h-124v-75h124zM762 327h-124v-75h124v75zM651 174q101 -105 292 -154l-49 -92q-163 54 -256 147v-178h-98v277h-121v-277h-98v172q-82 -80 -226 -145l-50 90q187 64 271 160
h-205v78h210v75h-266v83h266v75h-202v77h202v71h-258v82h229q-53 65 -66 80l119 15q25 -30 73 -95h137q45 59 66 95l121 -14q-22 -32 -61 -81h257v-82h-300v-71h220v-152h88v-83h-88v-153h-207z" />
    <glyph glyph-name="uni517D" unicode="&#x517d;" 
d="M56 228v78h889v-78h-889zM737 14v83h-473v-83h473zM737 -64h-473v-39h-105v277h683v-277h-105v39zM448 568v65h-221v-65h221zM448 436v65h-221v-65h221zM773 568v65h-223v-65h223zM773 436v65h-223v-65h223zM693 711h184v-352h-754v352h187q-55 70 -65 82l109 18
q18 -22 79 -100h136q48 61 75 100l111 -17q-24 -35 -62 -83z" />
    <glyph glyph-name="uni5180" unicode="&#x5180;" 
d="M571 -40l27 65q172 -28 334 -58l-26 -72q-39 8 -335 65zM331 595q-89 -11 -267 -29l-9 67q129 7 276 23v37h-257v62h257v51h99v-247h-99v36zM450 427v50h-213v-50h213zM450 319v52h-213v-52h213zM616 212v48h-235v-48h235zM616 100v52h-235v-52h235zM764 427v50h-213v-50
h213zM764 319v52h-213v-52h213zM280 260h-145v276h731v-276h-148v-48h189v-60h-189v-52h228v-63h-891v63h225v52h-190v60h190v48zM67 -31q214 29 332 57l36 -66q-224 -49 -336 -68zM639 673q1 -25 12 -34t42 -9h98q30 0 43 7q11 6 15 23q7 31 9 47l85 -25q-5 -34 -14 -64
q-10 -30 -35 -41t-81 -11h-164q-109 -2 -108 90v150h98v-70q124 22 255 53l33 -63q-176 -36 -288 -53z" />
    <glyph glyph-name="uni5185" unicode="&#x5185;" 
d="M561 647h323v-612q1 -68 -36 -93t-129 -24h-139l-16 106h127q51 0 67 11t16 48v462h-217q-5 -81 -18 -136q84 -66 231 -197l-78 -81q-63 62 -193 177q-50 -93 -192 -196l-75 88q126 79 170 152q42 69 47 193h-222v-637h-111v739h335v154h111q0 -105 -1 -154z" />
    <glyph glyph-name="uni5188" unicode="&#x5188;" 
d="M99 -93v844h801v-717q0 -70 -37 -95q-36 -24 -133 -24h-133l-15 105h125q48 0 65 12t17 46v570h-579v-741h-111zM576 335q87 -91 177 -188l-86 -79q-77 91 -164 185q-107 -113 -210 -201l-75 84q111 86 213 196q-132 138 -195 199l78 68q95 -94 189 -188q73 84 151 195
l89 -57q-72 -104 -167 -214z" />
    <glyph glyph-name="uni5189" unicode="&#x5189;" 
d="M859 163v-135q0 -67 -35 -91q-33 -22 -124 -22h-128l-15 102h128q40 0 54 10q13 10 13 39v97h-505v-257h-105v257h-87v97h87v435h304v109h107v-109h306v-435h88v-97h-88zM752 260v123h-199v-123h199zM752 477v122h-199v-122h199zM446 260v123h-199v-123h199zM446 477v122
h-199v-122h199z" />
    <glyph glyph-name="uni518C" unicode="&#x518c;" 
d="M136 425v4v335h316v-339h91v4v336h323v-340h78v-101h-78v-316q0 -52 -27 -70q-25 -17 -96 -17h-85l-14 95h74q29 0 39 7t10 29v272h-126q-2 -157 -22 -245q-19 -85 -72 -184l-80 70q43 76 58 149q16 74 18 210h-91v-306q0 -52 -26 -70t-96 -18h-81l-15 95h67q31 0 42 8
t11 30v261h-119q-3 -150 -24 -238q-21 -90 -79 -193l-78 78q47 85 63 154q16 68 18 199h-79v101h80zM767 425v246h-125v-243v-3h125zM354 425v246h-119v-244q57 -4 119 -2z" />
    <glyph glyph-name="uni518D" unicode="&#x518d;" 
d="M852 118v-94q0 -65 -33 -87q-31 -21 -119 -21h-120l-15 94h118q39 0 53 10q13 9 13 37v61h-498v-212h-103v212h-92v93h92v372h300v85h-371v92h846v-92h-371v-85h300v-372h93v-93h-93zM749 211v100h-197v-100h197zM749 398v99h-197v-99h197zM448 211v100h-197v-100h197z
M448 398v99h-197v-99h197z" />
    <glyph glyph-name="uni5192" unicode="&#x5192;" 
d="M110 438v325h782v-325h-108v248h-565v-248h-109zM260 454v61h484v-61h-484zM730 -62h-457v-41h-108v498h673v-498h-108v41zM730 7v65h-457v-65h457zM730 135v64h-457v-64h457zM730 262v64h-457v-64h457zM261 571v59h482v-59h-482z" />
    <glyph glyph-name="uni5195" unicode="&#x5195;" 
d="M628 -93q-59 0 -85 24q-27 25 -27 82v77h107v-54q0 -27 11 -37q10 -9 38 -9h112q29 0 44 9q14 10 19 34q6 25 9 56l94 -27q-4 -30 -19 -81q-20 -76 -122 -74h-181zM262 601v56h461v-56h-461zM261 504v57h463v-57h-463zM101 492v273h784v-273h-106v206h-571v-206h-107z
M863 112h-343q-38 -77 -127 -126q-93 -52 -281 -95l-53 89q154 28 236 60q76 30 112 72h-253v137q-18 -12 -28 -18l-66 67q166 94 241 195l114 -10q-13 -18 -29 -35h367v-61l-65 -59h175v-216zM762 180v80h-201q-6 -46 -16 -80h217zM571 328l58 56h-302q-35 -34 -64 -56h308
zM459 260h-204v-80h190q11 32 14 80z" />
    <glyph glyph-name="uni5197" unicode="&#x5197;" 
d="M135 -107l-76 87q64 37 100 69q40 34 60 71q36 65 36 201v175h451v-427q0 -29 12 -42q11 -12 35 -12h26q28 0 40 10t16 38q7 49 14 139l102 -33q-7 -92 -20 -158q-11 -56 -44 -80q-32 -24 -96 -24h-71q-64 0 -95 32t-31 100v353h-227v-72q0 -161 -45 -247
q-48 -92 -187 -180zM88 507v240h821v-239h-110v134h-602v-135h-109z" />
    <glyph glyph-name="uni5199" unicode="&#x5199;" 
d="M83 553v204h833v-204h-107v110h-621v-110h-105zM318 551h502v-90h-515l-13 -95h589l-16 -317q-2 -70 -33 -100q-38 -38 -164 -36h-162l-15 98h165q59 0 79 14q21 14 22 56l10 195h-597l49 349h110zM56 99v94h648v-94h-648z" />
    <glyph glyph-name="uni519B" unicode="&#x519b;" 
d="M592 29v-132h-108v132h-427v91h427v101h-329v90q66 86 108 148h-170v92h235q23 35 57 93l123 -4q-28 -45 -57 -89h455v-92h-520q-72 -102 -107 -148h205v107h108v-107h285v-90h-285v-101h353v-91h-353zM88 590v170h831v-170h-107v79h-618v-79h-106z" />
    <glyph glyph-name="uni519C" unicode="&#x519c;" 
d="M525 574q38 -140 98 -239q117 79 180 128l73 -80q-62 -46 -190 -131q92 -104 269 -193l-68 -99q-176 101 -272 210q-93 107 -152 270q-29 -55 -74 -112v-278q75 27 192 77l20 -108q-142 -62 -309 -121l-50 96q22 15 31 35q9 19 9 48v136q-78 -72 -191 -147l-50 107
q147 88 239 191q89 100 138 229h-204v-133h-108v232h345q14 55 21 114h115q-14 -78 -24 -114h344v-206h-108v107h-267q-2 -8 -4 -11q-2 -6 -3 -8z" />
    <glyph glyph-name="uni51A0" unicode="&#x51a0;" 
d="M614 214q-46 76 -89 135l74 45q46 -60 92 -128zM119 473v94h337v-94h-337zM431 284v-227q0 -32 13 -45t48 -13h282q37 0 54 13q16 12 21 42q7 42 12 115l90 -26q-6 -71 -18 -130q-11 -55 -45 -80q-35 -26 -103 -26h-325q-66 0 -96 31q-29 30 -29 97v249h-78q0 -27 -2 -59
q-6 -117 -32 -181q-29 -73 -109 -150l-70 75q67 60 91 116q21 49 25 143l2 56h-99v95h437v-95h-69zM825 581v-59h107v-94h-107v-260q0 -59 -30 -80q-29 -20 -108 -20h-105l-13 92h100q36 0 49 9q12 8 12 34v225h-232v94h232v79h76v65h-622v-93h-106v186h834v-178h-87z" />
    <glyph glyph-name="uni51A4" unicode="&#x51a4;" 
d="M726 31q-82 89 -92 99l67 42q74 -74 92 -94zM89 568v190h825v-195h-106v106h-612v-101h-107zM458 360h-201v-102h184q13 53 17 102zM761 258v102h-199q-6 -58 -17 -102h216zM508 153h76v-101q0 -34 13 -47q12 -12 45 -12h127q34 0 48 10t19 37q9 44 13 86l98 -31
q-9 -65 -19 -103q-21 -87 -136 -85h-187q-63 0 -92 27t-29 87v92q-47 -70 -136 -122q-90 -53 -242 -99l-49 98q156 43 235 85t114 101v2h-251v171q-20 -14 -64 -40l-33 97q191 103 298 248l109 -12q-17 -25 -38 -50h310v-66l-75 -86h200v-262h-343q-5 -13 -11 -25zM358 514
q-37 -38 -80 -74h263l64 74h-247z" />
    <glyph glyph-name="uni51AC" unicode="&#x51ac;" 
d="M702 115q-197 40 -437 77l36 93q225 -33 435 -71zM770 -103q-323 59 -625 103l38 104q347 -52 618 -101zM619 429q133 -47 330 -65l-31 -110q-269 45 -412 114q-163 -76 -425 -131l-33 108q200 28 351 86q-73 52 -137 130q-57 -56 -130 -110l-53 89q164 113 260 269
l114 -16q-22 -34 -53 -75h440v-96q-100 -118 -221 -193zM508 480q113 59 190 144h-363q76 -90 173 -144z" />
    <glyph glyph-name="uni51AF" unicode="&#x51af;" 
d="M808 405h111l-18 -359q-5 -80 -43 -106q-39 -27 -152 -27h-137l-15 100h159q47 0 64 12t18 45l13 238h-479l34 315h107l-23 -218h253l26 259h-427v97h544zM277 110v97h469v-97h-469zM156 -47l-104 35q69 199 121 376l98 -31q-46 -166 -115 -380zM171 464
q-68 168 -110 263l90 39q60 -127 119 -262z" />
    <glyph glyph-name="uni51B0" unicode="&#x51b0;" 
d="M284 -2l-62 100q88 98 128 183q38 80 60 205h-116v99h216v-110q-26 -148 -70 -244q-49 -105 -156 -233zM161 -51l-107 36q62 205 107 388l107 -33q-54 -214 -107 -391zM164 472q-27 77 -96 258l97 30q61 -142 102 -254zM660 379v-367q0 -59 -30 -80q-29 -20 -110 -20
h-102l-16 103h95q35 0 46 8t11 33v745h106v-173q20 -77 45 -144q84 73 164 155l69 -82q-122 -108 -192 -166q75 -147 210 -276l-69 -98q-160 180 -227 362z" />
    <glyph glyph-name="uni51B2" unicode="&#x51b2;" 
d="M804 198h-136v-296h-107v296h-139v-50h-100v479h239v177h107v-177h237v-478h-101v49zM804 296v234h-136v-234h136zM561 296v234h-139v-234h139zM174 470q-48 113 -113 261l94 37q77 -161 122 -257zM158 -58l-105 38q57 167 120 387l103 -34q-61 -216 -118 -391z" />
    <glyph glyph-name="uni51B3" unicode="&#x51b3;" 
d="M199 466q-56 105 -132 241l88 43q103 -166 140 -233zM630 253q80 -168 314 -247l-63 -102q-122 56 -196 120q-78 68 -124 162q-31 -84 -98 -154q-61 -63 -176 -138l-73 92q124 66 184 126q62 62 82 141h-196v81q-62 -194 -128 -373l-102 40q78 211 131 375l99 -39v17h208
q3 81 3 206h-172v98h173v145h109q0 -73 -1 -145h253v-304h86v-101h-313zM603 560q-3 -110 -6 -206h155v206h-149z" />
    <glyph glyph-name="uni51B5" unicode="&#x51b5;" 
d="M152 -56l-104 47q74 190 136 373l104 -38q-67 -200 -136 -382zM180 467q-47 101 -124 254l92 41q14 -25 134 -253zM882 320h-137v-271q0 -23 8 -32t29 -9h25q23 0 32 8q10 9 13 32q7 54 9 128l92 -34q-8 -96 -18 -145q-9 -46 -37 -68q-29 -22 -82 -22h-57q-64 0 -91 28
q-28 29 -28 92v293h-98q2 -157 -49 -249t-196 -179l-68 86q124 66 167 138q43 71 42 204h-110v441h554v-441zM774 418v245h-339v-245h339z" />
    <glyph glyph-name="uni51B6" unicode="&#x51b6;" 
d="M820 432q-233 -12 -505 -22l-21 89q33 16 64 50q86 94 185 258l109 -42q-99 -134 -209 -255q160 3 317 12q-62 88 -89 127l84 43q109 -147 199 -274l-90 -52zM773 -50h-326v-51h-106v419h538v-419h-106v51zM773 44v179h-326v-179h326zM153 -51l-105 45q61 165 129 375
l101 -36q-55 -182 -125 -384zM179 472q-64 139 -121 250l93 41q61 -111 128 -249z" />
    <glyph glyph-name="uni51B7" unicode="&#x51b7;" 
d="M598 365q-44 66 -98 137l85 48q52 -64 105 -137zM676 40q56 -34 111 -68l-65 -82q-247 156 -376 233l60 77q96 -56 181 -107q79 79 157 158h-428v97h565v-99q-102 -105 -205 -209zM161 -57l-103 34q63 192 117 387l98 -34q-46 -175 -112 -387zM275 514q182 116 277 288
h99q102 -188 312 -309l-50 -102q-198 127 -312 290q-113 -163 -310 -290l-51 102l16 10l-78 -33q-72 171 -109 249l92 35q17 -33 114 -240z" />
    <glyph glyph-name="uni51BB" unicode="&#x51bb;" 
d="M683 284v-277q0 -53 -29 -73q-28 -19 -101 -19h-94l-15 101h89q29 0 38 6q10 7 10 28v234h-261v97q44 83 100 208h-128v98h169q23 56 46 121l114 -11q-28 -64 -48 -110h360v-98h-404q-68 -146 -100 -208h152v145h102v-145h243v-97h-243zM343 -51l-88 56q84 114 150 236
l93 -44q-61 -108 -155 -248zM176 463q-22 57 -106 260l94 35l116 -256zM157 -61l-102 43q71 206 125 382l101 -38q-59 -203 -124 -387zM863 -49q-32 50 -153 235l85 51q54 -71 159 -228z" />
    <glyph glyph-name="uni51C0" unicode="&#x51c0;" 
d="M785 391v87h-148v-87h148zM785 217v87h-148v-87h148zM165 455q-36 104 -100 268l94 31q85 -207 106 -263zM161 -35l-103 32q52 178 96 365l100 -30q-43 -189 -93 -367zM529 735h284v-77l-82 -94h154v-173h63v-87h-63v-228h-100v55h-148v-117q0 -60 -30 -81
q-29 -20 -112 -20h-107l-15 97h98q38 0 51 9t13 37v75h-228v86h228v87h-261v87h261v87h-203v31q-2 -2 -5 -4l-64 79q113 94 196 225l111 -11q-17 -28 -41 -63zM467 650q-45 -54 -77 -86h220l75 86h-218z" />
    <glyph glyph-name="uni51C4" unicode="&#x51c4;" 
d="M163 464q-44 123 -102 262l91 32q65 -149 107 -257zM153 -44l-101 31q57 197 102 386l96 -28q-49 -211 -97 -389zM789 483v57h-154v-57h154zM789 354v57h-154v-57h154zM819 148q-41 -69 -95 -112q80 -23 205 -60l-51 -78q-130 45 -247 83q-120 -53 -358 -86l-33 83
q167 17 266 43q-42 14 -182 57q34 38 60 70h-136v76h199q19 24 41 57h-176v73h222v57h-277v72h277v57h-215v71h215v54h-252v77h252v62h101v-62h284v-77h-284v-54h248v-128h62v-72h-62v-130h-279q-22 -29 -44 -57h382v-76h-123zM709 148h-213q-7 -8 -36 -43q43 -10 159 -40
q52 29 90 83z" />
    <glyph glyph-name="uni51C6" unicode="&#x51c6;" 
d="M162 -50l-105 33q59 193 105 375l104 -31q-53 -212 -104 -377zM629 445v113h-181v-113h181zM629 247v112h-181v-112h181zM629 45v116h-181v-116h181zM471 645h181q-42 116 -51 138l106 14q31 -78 55 -152h174v-87h-202v-113h190v-86h-190v-112h190v-86h-190v-116h212v-88
h-498v-58h-104v538q-27 -36 -65 -81l-42 104q16 18 31 40l-101 -37q-32 92 -99 262l95 33q62 -142 105 -258q99 136 155 310l111 -19q-28 -73 -63 -146z" />
    <glyph glyph-name="uni51C9" unicode="&#x51c9;" 
d="M677 703h263v-93h-654v93h271q-20 64 -30 93l122 10q20 -67 28 -103zM865 -49q-59 84 -146 197l81 47q133 -166 150 -188zM312 -55l-73 67q96 90 166 188l83 -54q-83 -105 -176 -201zM176 462q-48 122 -109 261l95 35q64 -137 116 -257zM155 -53l-102 44q73 205 124 375
l101 -39q-55 -185 -123 -380zM565 235h-220v299h532v-299h-207v-238q0 -51 -26 -69q-25 -17 -96 -17h-100l-15 97h80q31 0 41 7q11 8 11 30v190zM775 325v119h-328v-119h328z" />
    <glyph glyph-name="uni51CB" unicode="&#x51cb;" 
d="M160 460q-16 49 -96 262l92 32q65 -156 101 -259zM155 -29l-101 31q53 185 96 367l97 -30q-45 -200 -92 -368zM648 428h131v-81h-353v81h131v75h-110v79h110v70h91v-70h110v-79h-110v-75zM296 -108l-91 53q56 96 75 178q19 84 19 243v395h609v-752q0 -58 -30 -79
q-29 -20 -108 -20h-96l-12 91h88q37 0 49 9t12 35v630h-416v-309q0 -180 -21 -277q-20 -90 -78 -197zM744 25h-288v256h288v-256zM663 104v98h-124v-98h124z" />
    <glyph glyph-name="uni51CC" unicode="&#x51cc;" 
d="M166 463q-52 147 -100 265l94 31q53 -131 105 -261zM160 -54l-102 31q52 189 96 381l97 -30q-36 -172 -91 -382zM933 470h-440l50 -58q-154 -94 -231 -137l-49 74q125 57 227 121h-201v84h269v76h-226v86h226v89h105v-89h227v-86h-227v-76h270v-84zM709 470
q119 -50 234 -105l-34 -76q-136 71 -248 121zM704 65q97 -40 246 -65l-47 -94q-189 43 -291 99q-117 -63 -320 -112l-47 92q168 33 277 79q-49 41 -92 97q-46 -43 -103 -85l-65 69q150 96 239 224l95 -12l-32 -46h278v-91q-63 -97 -138 -155zM613 112q72 49 118 115h-236v-1
q49 -69 118 -114z" />
    <glyph glyph-name="uni51CF" unicode="&#x51cf;" 
d="M151 476l-90 242l85 29l94 -238zM141 13l-92 30q50 168 93 349l88 -28q-38 -166 -89 -351zM395 420v81h233v-81h-233zM855 665h89v-90h-193q1 -21 1 -41q4 -145 15 -246q46 99 81 215l83 -36q-66 -192 -142 -323q7 -31 22 -77q16 -46 36 -46q15 0 19 29q8 58 15 137
l73 -28q-8 -94 -22 -162q-8 -42 -30 -67q-22 -26 -54 -26q-84 2 -128 136q-48 -66 -116 -139l-68 61q42 43 71 78h-207v304h222v-286q44 56 72 99q-25 144 -34 389q0 9 -2 29h-297v-189q0 -170 -20 -271q-21 -104 -79 -219l-88 53q55 105 74 199q19 91 19 244v273h388
q-2 67 -3 139h94q1 -70 2 -139h98q-46 56 -78 92l62 40q48 -52 82 -94zM474 118h76v148h-76v-148z" />
    <glyph glyph-name="uni51D1" unicode="&#x51d1;" 
d="M163 471q-9 26 -96 251l91 30q86 -204 103 -247zM756 385q70 -86 196 -129l-36 -88q-115 52 -179 112v-37h-105q0 -13 -1 -26q0 -17 -1 -25l-2 -12h226v-76h-240q-2 -6 -3 -8q102 -39 292 -116l-44 -84q-131 64 -283 131q-34 -45 -101 -76t-190 -58l-45 87q129 24 193 53
q62 28 83 71h-202v76h221q0 9 1 14q2 24 3 49h-108v39q-65 -61 -160 -124l-46 82q-32 -127 -74 -272l-101 35q57 191 102 374l99 -30q-8 -35 -26 -105q113 69 178 143h-137v77h192q15 27 27 57h-165v72h189q6 18 8 32v3q2 7 3 15q1 2 1 6h-228v78h241q3 29 7 82h102
q-4 -42 -9 -82h272v-78h-284l-2 -10q-1 -6 -2 -11v-3q-3 -16 -7 -32h268v-72h-290q-10 -30 -24 -57h370v-77h-179zM704 316q-24 28 -49 69h-135q-21 -32 -55 -69h239z" />
    <glyph glyph-name="uni51DB" unicode="&#x51db;" 
d="M304 201v62h581v-62h-581zM654 86v-92q0 -50 -26 -68q-25 -17 -94 -17h-92l-11 75h73q29 0 39 7t10 28v67h-307v67h695v-67h-287zM908 -82q-78 38 -205 93l38 65q116 -45 207 -86zM249 -86l-38 71q117 46 214 94l40 -66q-96 -47 -216 -99zM658 735h280v-66h-685v66h290
q-12 39 -24 66l116 9q4 -11 23 -75zM898 308h-607v316h607v-316zM804 366v200h-419v-200h419zM746 404h-304v124h304v-124zM673 444v44h-158v-44h158zM145 -21l-98 33q47 150 105 369l93 -28q-50 -203 -100 -374zM154 462q-45 128 -97 260l89 33q83 -202 104 -256z" />
    <glyph glyph-name="uni51DD" unicode="&#x51dd;" 
d="M136 -36l-90 24q44 189 79 389l89 -25q-34 -193 -78 -388zM136 471q-35 115 -83 248l85 25q69 -187 87 -241zM828 481h114v-82l-26 -101l-69 9l26 88h-74v-149h130v-84h-130v-146h7h142l-15 -87h-133q-118 -2 -168 108q-18 -60 -65 -145l-66 64q19 29 31 51l-39 -53
q-90 85 -94 88q-40 -70 -141 -144l-64 73q135 83 156 182h-129v83h140q3 43 3 94h-43q-16 -35 -40 -74l-65 48q52 81 75 167l80 -10q-9 -29 -16 -49h176v-82h-84q0 -64 -2 -94h97v-83h-105q-2 -16 -6 -29q48 -38 113 -92q31 70 35 189q2 62 2 105l77 -7q0 -31 -2 -99
q-1 -27 -2 -53q23 -84 62 -120v348h-162v86h157q-66 63 -113 104l58 56q64 -59 89 -82q59 69 98 113h-264v85h352v-106q-24 -29 -126 -149q12 -11 23 -21zM344 625v-19q0 -28 9 -38t33 -10h41q21 0 32 8q10 8 14 27q6 29 7 52l73 -24q-4 -37 -13 -69q-10 -37 -32 -52
q-23 -16 -66 -16h-91q-47 0 -70 25t-23 79v212h86v-95q81 24 166 58l33 -76q-93 -32 -199 -62z" />
    <glyph glyph-name="uni51E0" unicode="&#x51e0;" 
d="M132 -95l-79 89q54 52 87 97q34 47 52 95q31 85 31 265v308h490v-679q0 -38 12 -52q10 -12 37 -12h21q25 0 36 11q12 12 17 42q5 36 10 127l104 -29q-9 -86 -17 -146t-42 -87t-101 -27h-63q-65 0 -96 35q-32 36 -32 111v600h-264v-239q0 -179 -40 -284
q-44 -115 -163 -225z" />
    <glyph glyph-name="uni51E1" unicode="&#x51e1;" 
d="M123 -103l-73 98q93 94 122 183q28 86 28 270v309h527v-686q0 -32 11 -45q10 -11 33 -11h21q24 0 35 11t15 41l13 117l98 -29q-7 -67 -19 -140q-9 -58 -40 -83t-93 -25h-58q-62 0 -93 31q-34 34 -34 109v606h-307v-248q1 -142 -23 -241q-32 -139 -163 -267zM492 214
q-61 85 -165 213l83 63q120 -141 170 -204z" />
    <glyph glyph-name="uni51E4" unicode="&#x51e4;" 
d="M562 223l148 -150l-76 -80q-95 106 -134 148q-80 -90 -219 -170l-60 86q141 78 211 158q-78 83 -154 163l70 61q45 -46 142 -143q43 74 61 187h-280v92h383v-88q-26 -154 -92 -264zM122 -101l-77 86q52 93 67 173q16 86 16 288v315h692v-396q0 -222 13 -297q6 -33 19 -33
q14 0 19 38q10 72 14 153l71 -27q-8 -107 -23 -191q-10 -54 -32 -78q-22 -23 -60 -23q-37 0 -63 27q-29 30 -40 89q-21 111 -21 333v309h-487v-256q0 -193 -21 -294q-22 -105 -87 -216z" />
    <glyph glyph-name="uni51ED" unicode="&#x51ed;" 
d="M115 -107l-56 98q123 27 164 69q38 38 38 123v50h440v-184q0 -28 9 -38t33 -10h41q43 0 51 45q7 36 12 104l101 -29q-6 -52 -23 -126q-20 -91 -122 -88h-99q-59 0 -86 28q-28 29 -28 93v117h-225v-17q0 -85 -58 -140q-59 -56 -192 -95zM263 651v-375h-101v251
q-38 -44 -81 -87l-44 99q126 120 204 271l92 -53q-23 -38 -70 -106zM675 391h227v-85h-558v85h224v94h-260v85h260v96q-62 -3 -197 -7l-15 90q275 3 511 20l18 -87q-73 -5 -210 -12v-100h263v-85h-263v-94z" />
    <glyph glyph-name="uni51EF" unicode="&#x51ef;" 
d="M504 -108l-72 84q66 91 85 169q19 77 19 254v359h294v-724q0 -29 20 -29h6q13 0 19 7q7 8 8 28q6 84 6 174l67 -20q-4 -124 -9 -176q-5 -58 -28 -84q-23 -27 -69 -27h-24q-91 0 -91 99v655h-105v-261q0 -200 -24 -296t-102 -212zM393 593v163h79v-246h-392v247h83v-164
h70v214h89v-214h71zM368 257v97h-298v86h391v-269h-268v-132q81 11 239 43v-95q-150 -30 -335 -60l-29 87q32 22 32 60v183h268z" />
    <glyph glyph-name="uni51F0" unicode="&#x51f0;" 
d="M522 18h208v-72h-509v72h208v57h-165v67h165v53h-182v72h456v-72h-181v-53h167v-67h-167v-57zM589 490v48h-227v-48h227zM589 381v50h-227v-50h227zM484 671l31 -3q-6 -20 -22 -62h184v-293h-402v293h118q8 32 16 65h-194v-269q0 -187 -19 -287q-19 -101 -77 -215l-73 87
q47 89 61 170q15 87 15 286v317h709v-395q0 -225 10 -295q6 -38 18 -38q13 0 17 42q8 58 11 145l68 -26q-9 -132 -19 -184q-10 -54 -33 -79q-21 -23 -57 -23t-60 31t-33 87q-16 101 -16 331v315h-253z" />
    <glyph glyph-name="uni51F3" unicode="&#x51f3;" 
d="M710 377v65h-419v-65h419zM124 -108l-53 86q118 13 163 39q39 23 39 68v35h426v-91q0 -24 9 -33t36 -9h44q25 0 36 9q9 8 14 29q5 19 8 51l96 -33q-6 -30 -17 -68q-11 -39 -35 -53q-25 -15 -81 -15h-108q-105 0 -105 89v49h-229q0 -60 -49 -93q-54 -37 -194 -60zM811 469
v-157h-144l83 -17q-11 -15 -44 -57h227v-74h-862v74h225q-20 26 -45 57l90 17h-151v148q-35 -18 -105 -47l-34 85q94 31 161 67q-55 37 -111 74l59 52q77 -49 123 -81q51 39 94 88h-278v71h382v-71q-28 -37 -66 -77h190q-58 71 -101 178l92 5q20 -44 38 -73q97 40 162 71
l53 -58l-174 -72q23 -27 42 -43q90 36 164 72l52 -60q-119 -49 -147 -60q60 -37 161 -68l-34 -86q-55 21 -102 42zM736 509q-44 27 -75 55v-8h-316q-38 -29 -68 -47h459zM645 312h-291q21 -25 61 -74h172q28 33 58 74z" />
    <glyph glyph-name="uni51F6" unicode="&#x51f6;" 
d="M793 -48h-695v674h110v-572h585v571h109v-723h-109v50zM574 438q116 -144 198 -257l-93 -71q-97 138 -173 238q-100 -126 -215 -239l-75 88q119 110 221 239q-90 116 -229 281l85 63q121 -143 211 -254q87 123 165 267l97 -51q-100 -177 -192 -304z" />
    <glyph glyph-name="uni51F8" unicode="&#x51f8;" 
d="M793 -41h-585v-59h-107v575h181v285h436v-285h182v-575h-107v59zM793 60v314h-182v284h-222v-284h-181v-314h585z" />
    <glyph glyph-name="uni51F9" unicode="&#x51f9;" 
d="M794 -36h-590v-67h-104v854h334v-377h130v377h336v-854h-106v67zM794 63v588h-129v-373h-331v373h-130v-588h590z" />
    <glyph glyph-name="uni51FA" unicode="&#x51fa;" 
d="M754 477v239h107v-341h-305v-324h232v235h107v-380h-107v43h-684v337h108v-235h232v324h-306v341h108v-239h198v325h112v-325h198z" />
    <glyph glyph-name="uni51FB" unicode="&#x51fb;" 
d="M767 -53h-642v301h107v-203h211v279h-389v100h389v142h-334v98h334v141h112v-141h336v-98h-336v-142h390v-100h-390v-279h212v206h106v-349h-106v45z" />
    <glyph glyph-name="uni51FD" unicode="&#x51fd;" 
d="M652 373l-61 67q79 59 142 118l65 -62q-60 -55 -146 -123zM362 385q-78 73 -139 121l64 62q76 -60 142 -116zM341 75l-12 87h73q36 0 47 8q12 8 12 34v370l205 99h-504v94h670v-103l-270 -140v-351q0 -59 -30 -79q-28 -19 -108 -19h-83zM804 230l-56 -71q-82 68 -182 143
l58 68l180 -130v327h102v-670h-102v40h-710v631h103v-313q111 65 197 124l55 -77q-103 -72 -205 -134l-47 78v-216h607v200z" />
    <glyph glyph-name="uni51FF" unicode="&#x51ff;" 
d="M793 -60h-684v507h99v-420h585v420h99v-550h-99v43zM654 598h290v-86h-883v86h285v207h100v-207h108v207h100v-207zM762 600l-64 64q78 78 119 123l72 -61q-112 -112 -127 -126zM235 605q-74 76 -121 122l67 61q87 -80 120 -117zM471 388h59q43 59 72 110l89 -25
q-24 -37 -62 -85h126v-83h-206v-76h188v-81h-188v-95h-99v95h-187v81h187v76h-206v83h127q-46 64 -63 86l88 24q44 -61 75 -110z" />
    <glyph glyph-name="uni5200" unicode="&#x5200;" 
d="M455 623q-2 -61 -8 -151q-10 -198 -77 -326q-67 -129 -235 -247l-82 91q153 108 210 212q57 103 66 281q5 59 8 140h-240v108h794l-28 -656q-3 -84 -44 -112q-40 -27 -158 -27h-165l-17 114h158q53 0 77 10q35 14 34 69l20 494h-313z" />
    <glyph glyph-name="uni5201" unicode="&#x5201;" 
d="M476 -73l-17 115h174q69 0 92 16q24 16 25 65l18 497h-658v112h780l-27 -663q-4 -86 -45 -114t-161 -28h-181zM126 97l-54 118q325 153 586 288l37 -117q-284 -150 -569 -289z" />
    <glyph glyph-name="uni5203" unicode="&#x5203;" 
d="M164 233l-97 58q81 120 138 259l100 -49q-64 -136 -141 -268zM524 634q-7 -103 -12 -167q-14 -195 -96 -325q-82 -131 -269 -245l-81 91q177 111 246 214q68 101 85 276q6 88 10 156h-312v109h796l-29 -675q-3 -83 -43 -111q-41 -28 -158 -28h-166l-17 113h159
q68 0 90 15t24 64l18 513h-245z" />
    <glyph glyph-name="uni5206" unicode="&#x5206;" 
d="M797 417l-15 -359q-3 -81 -42 -108t-155 -27h-123l-16 103h140q51 0 69 12t19 49l10 244h-256q-5 -55 -6 -65q-13 -135 -72 -213q-63 -83 -220 -159l-66 94q134 60 188 125q50 60 61 162q4 27 6 56h-131v75q-56 -48 -86 -70l-55 108q199 130 301 354l101 -44
q-94 -193 -235 -324h569q-146 127 -227 340l95 37q54 -130 124 -212q68 -80 177 -145l-56 -108q-63 44 -99 75z" />
    <glyph glyph-name="uni5207" unicode="&#x5207;" 
d="M625 649q-5 -153 -6 -165q-7 -227 -51 -348t-174 -242l-88 77q117 107 157 203q41 99 47 300q5 105 5 175h-135v104h525l-18 -707q-2 -71 -36 -94q-33 -23 -133 -23h-118l-16 106h107q51 0 68 12t18 49l16 553h-168zM258 451v-263q68 53 134 110l44 -98
q-121 -106 -259 -209l-62 88q23 21 31 39t8 49v273l-101 -11l-6 106l107 12v257h104v-247l142 16l6 -105z" />
    <glyph glyph-name="uni520A" unicode="&#x520a;" 
d="M618 -83l-16 104h125q42 0 56 10q13 9 13 39v724h106v-772q0 -62 -32 -84q-31 -21 -116 -21h-136zM569 137v559h102v-559h-102zM344 309v-406h-107v406h-181v101h181v241h-157v101h416v-101h-152v-241h173v-101h-173z" />
    <glyph glyph-name="uni5211" unicode="&#x5211;" 
d="M629 -85l-16 105h122q40 0 54 10q13 9 13 38v727h105v-776q0 -61 -32 -83q-31 -21 -115 -21h-131zM606 135v559h99v-559h-99zM479 319v-405h-101v405h-123q-3 -153 -29 -239q-25 -82 -96 -185l-81 74q61 85 81 149q21 68 24 201h-99v99h100v16v223h-73v101h465v-101h-68
v-239h95v-99h-95zM378 418v239h-122v-224v-15h122z" />
    <glyph glyph-name="uni5212" unicode="&#x5212;" 
d="M608 150v547h97v-547h-97zM639 -85l-15 103h108q40 0 54 10t14 39v732h103v-779q0 -62 -32 -84q-30 -21 -114 -21h-118zM449 610q-81 71 -126 106l60 68q86 -64 129 -101zM341 160q17 -50 45 -98q23 -40 51 -40q23 0 38 43q15 48 27 119l90 -45q-18 -86 -39 -140
q-35 -91 -111 -91q-85 -3 -141 96q-24 41 -43 90q-60 -43 -157 -98l-55 97q106 54 181 106q-22 100 -33 255l-124 -15l-10 98l128 15q-5 126 -10 253h104q4 -172 7 -241l260 31l9 -94l-265 -34v-8q6 -107 21 -189q75 72 145 174l83 -53q-101 -144 -201 -231z" />
    <glyph glyph-name="uni5217" unicode="&#x5217;" 
d="M365 285q34 70 56 164h-163q-56 -112 -157 -224l-53 91q134 162 174 345h-144v101h482v-101h-228q-11 -51 -31 -110h226v-97q-34 -181 -114 -303q-86 -130 -264 -256l-72 87q158 107 234 215q-75 63 -119 97l61 73q68 -47 112 -82zM621 -85l-16 106h124q41 0 55 10t14 39
v729h104v-779q0 -62 -32 -84q-31 -21 -117 -21h-132zM598 136v555h100v-555h-100z" />
    <glyph glyph-name="uni5218" unicode="&#x5218;" 
d="M476 558q-32 -190 -91 -318q78 -108 155 -215l-88 -66q-3 4 -123 179q-71 -110 -206 -234l-72 85q136 122 211 243q-129 182 -173 240l82 54q72 -96 143 -191q40 97 60 223h-313v102h206q-29 97 -42 134l110 14q14 -43 43 -148h168v-102h-70zM632 -85l-17 106h117
q38 0 52 10q13 10 13 37v730h105v-780q0 -61 -31 -82q-30 -21 -113 -21h-126zM587 143v558h100v-558h-100z" />
    <glyph glyph-name="uni5219" unicode="&#x5219;" 
d="M640 -84l-15 103h112q39 0 51 9t12 36v732h100v-778q0 -60 -31 -81t-113 -21h-116zM613 142v555h97v-555h-97zM98 177v586h430v-586h-92v489h-246v-489h-92zM349 198q119 -103 221 -201l-69 -76q-47 50 -183 181q-50 -109 -204 -207l-68 84q134 78 177 155q42 77 40 220
q1 91 1 250h98v-253q0 -80 -13 -153z" />
    <glyph glyph-name="uni521A" unicode="&#x521a;" 
d="M652 128v572h87v-572h-87zM674 -87l-14 94h95q37 0 49 9q13 9 13 36v746h95v-787q0 -57 -30 -78q-29 -20 -108 -20h-100zM379 343q41 -82 103 -218l-73 -41q-34 78 -74 166q-41 -83 -97 -180l-53 56v-217h-95v850h489v-746q0 -56 -29 -76q-27 -18 -104 -18h-102l-13 92
h95q34 0 46 9t12 33v614h-299v-91l64 32q30 -58 86 -173q34 76 70 176l73 -32q-53 -137 -99 -236zM292 342q-54 117 -107 226v-423q58 97 107 197z" />
    <glyph glyph-name="uni521B" unicode="&#x521b;" 
d="M648 -86l-16 104h107q39 0 52 9t13 37v737h101v-785q0 -61 -31 -82q-30 -20 -113 -20h-113zM610 138v561h97v-561h-97zM511 471l-7 -230q-2 -53 -26 -70q-25 -17 -99 -17h-86l-12 88h78q31 0 41 7t11 29l3 113h-186v-304q0 -37 13 -52t47 -15h114q31 0 47 12t22 38
q7 31 14 82l92 -32q-8 -56 -20 -98q-15 -54 -45 -75q-31 -22 -92 -22h-155q-69 0 -101 35q-31 34 -31 108v372q-30 -26 -45 -37l-41 99q164 122 245 308l107 -10q-10 -21 -21 -42q54 -52 214 -220l-72 -78q-4 5 -9 11zM500 483q-60 71 -167 191q-66 -109 -153 -191h320z" />
    <glyph glyph-name="uni521D" unicode="&#x521d;" 
d="M638 635q-4 -118 -6 -156q-6 -217 -50 -339q-44 -121 -167 -245l-87 77q114 104 154 206t46 296q3 62 5 161h-123v97h497l-16 -689q-1 -69 -35 -92q-33 -23 -129 -23h-109l-15 103h107q46 0 61 11q14 10 15 43l13 550h-161zM274 258v-357h-100v355q-44 -47 -96 -89
l-30 113q138 103 208 254h-181v92h153q-38 72 -81 143l89 40q42 -71 83 -141l-81 -42h131v-84q-43 -88 -95 -163v-17q12 -8 31 -24q37 43 91 113l66 -54q-58 -70 -95 -109q19 -15 82 -68l-54 -71q-62 58 -121 109z" />
    <glyph glyph-name="uni5220" unicode="&#x5220;" 
d="M685 127v581h76v-581h-76zM698 -85l-14 91h80q35 0 47 9t12 34v747h86v-790q0 -54 -28 -73q-26 -18 -101 -18h-82zM620 333v-343q0 -40 -21 -54t-76 -14h-58l-12 85h49q23 0 30 5q8 6 8 22v299h-73q0 -174 -15 -259q-15 -86 -63 -179l-59 61q37 72 48 142q12 73 12 235
h-57v-333q1 -42 -20 -58q-23 -14 -80 -13h-51l-12 85h46q24 0 32 6t8 22v291h-70q0 -164 -15 -253q-15 -87 -58 -184l-68 65q37 75 50 150q13 76 13 222h-56v92h56v343h225v-343h57v341h230v-341h42v-92h-42zM540 425v255h-73v-255h73zM256 425v256h-70v-256h70z" />
    <glyph glyph-name="uni5224" unicode="&#x5224;" 
d="M641 -86l-16 105h109q40 0 54 10t14 38v733h104v-781q0 -62 -32 -84q-30 -21 -115 -21h-118zM607 139v553h97v-553h-97zM157 535q-48 92 -94 169l81 43q48 -74 99 -165zM472 533l-82 50q60 87 101 166l86 -42q-68 -116 -105 -174zM373 490h173v-96h-174v-26q0 -35 -2 -87
h188v-96h-198q-15 -89 -56 -154q-37 -59 -122 -138l-87 69q70 60 103 107q37 51 52 116h-187v96h201q4 50 4 87v26h-183v96h183v313h105v-313z" />
    <glyph glyph-name="uni5228" unicode="&#x5228;" 
d="M638 132v573h92v-573h-92zM665 -86l-15 97h98q39 0 50 8q12 8 12 36v746h97v-790q0 -57 -29 -77t-108 -20h-105zM532 150l85 -28q-9 -64 -19 -101q-15 -52 -47 -74q-35 -24 -102 -24h-206q-66 0 -96 33q-29 32 -29 103v404q-20 -26 -31 -38l-48 92q102 120 158 291
l101 -10q-11 -31 -35 -89h296l-8 -485q0 -51 -19 -74zM525 143q-29 -25 -125 -25h-59l-13 94h68q41 0 54 9q14 10 14 39l5 356h-253q-31 -57 -53 -89h234v-311h-189v-136q0 -37 14 -53t50 -16h162q39 0 57 12q19 13 24 43q5 25 10 77zM208 304h103v136h-103v-136z" />
    <glyph glyph-name="uni5229" unicode="&#x5229;" 
d="M623 -84l-16 105h128q39 0 51 9t12 37v730h104v-779q0 -60 -31 -81t-113 -21h-135zM579 136v559h99v-559h-99zM249 256q-59 -114 -157 -219l-56 113q131 119 203 275h-176v98h186v134q-129 -9 -164 -11l-15 98q216 9 430 30l20 -95q-99 -9 -169 -14v-142h181v-98h-181
v-72q133 -98 186 -142l-60 -83q-61 55 -126 109v-336h-102v355z" />
    <glyph glyph-name="uni522B" unicode="&#x522b;" 
d="M624 -85l-16 105h122q42 0 56 10q13 9 13 39v727h104v-774q1 -62 -33 -85q-33 -23 -117 -22h-129zM608 137v559h100v-559h-100zM524 438h-425v324h425v-324zM422 531v138h-221v-138h221zM302 336h231l-9 -306q-2 -65 -33 -87t-122 -22h-90l-14 95h86q43 0 57 10t15 40
l7 177h-136q-12 -111 -49 -185q-36 -73 -124 -161l-77 76q75 68 107 126q32 57 42 144h-129v93h138q1 32 3 77h99q-1 -39 -2 -77z" />
    <glyph glyph-name="uni522E" unicode="&#x522e;" 
d="M418 -29h-222v-57h-101v414h160v127h-202v93h202v115q-56 -4 -166 -8l-16 94q217 6 440 26l23 -92q-60 -6 -177 -14v-121h200v-93h-200v-127h161v-414h-102v57zM418 61v176h-222v-176h222zM640 -89l-16 103h105q42 0 56 10t14 39v735h103v-781q0 -63 -32 -85
q-30 -21 -116 -21h-114zM606 141v551h98v-551h-98z" />
    <glyph glyph-name="uni5230" unicode="&#x5230;" 
d="M606 137v562h97v-562h-97zM360 59q136 12 203 18l-5 -100q-305 -33 -495 -47l-10 108q74 4 206 14v134h-183v93h183v93h101v-93h181v-93h-181v-127zM465 411q-130 -8 -384 -16l-18 80q23 12 40 32q42 48 106 156h-144v95h496v-95h-237q-68 -110 -119 -175q92 1 208 8
q-7 11 -58 89l75 44q74 -111 148 -221l-82 -51q-11 18 -31 54zM642 -86l-15 105h111q38 0 51 9t13 37v734h104v-782q0 -60 -32 -82q-31 -21 -114 -21h-118z" />
    <glyph glyph-name="uni5236" unicode="&#x5236;" 
d="M667 -87l-15 98h100q36 0 48 9t12 34v747h96v-791q0 -56 -30 -77q-29 -20 -107 -20h-104zM640 135v571h90v-571h-90zM384 213v-316h-97v316h-95v-251h-93v338h188v93h-235v90h235v101h-112q-20 -54 -31 -81l-86 30q48 107 76 236l89 -12q-10 -45 -21 -84h85v130h97v-130
h182v-89h-182v-101h214v-90h-214v-93h191v-263q0 -40 -21 -54q-20 -14 -75 -14h-60l-12 81h42q21 0 28 5t7 19v139h-100z" />
    <glyph glyph-name="uni5237" unicode="&#x5237;" 
d="M676 -84l-15 96h95q35 0 47 9t12 34v744h94v-789q0 -55 -29 -75q-28 -19 -104 -19h-100zM519 575v100h-315v-100h315zM204 494v-83q0 -181 -17 -283q-18 -106 -70 -227l-70 69q40 97 53 183q13 88 13 270v339h495v-268h-404zM666 141v555h84v-555h-84zM465 393h147v-331
q0 -39 -20 -53q-19 -13 -73 -13h-38l-10 78h31q19 0 25 4t6 18v213h-71v-410h-83v410h-65v-319h-76v403h138v74h89v-74z" />
    <glyph glyph-name="uni5238" unicode="&#x5238;" 
d="M775 190l-11 -156q-5 -71 -40 -95t-135 -24h-133l-12 91h133q49 0 66 11t20 46l7 111h-227q-18 -112 -87 -174q-69 -63 -228 -109l-56 87q136 35 195 78q58 43 73 118h-85v34q-74 -47 -160 -89l-48 94q174 72 263 160h-246v87h315q17 29 34 71q3 6 5 12h-316v86h162
q-48 60 -99 113l86 45q67 -65 110 -112l-81 -46h161q15 73 23 178h108q-12 -117 -25 -178h165l-65 46q64 56 115 112l88 -46q-45 -48 -111 -112h159v-86h-372l-6 -18q-9 -29 -26 -65h443v-87h-244q93 -101 259 -149l-46 -98q-73 30 -131 64zM678 260q-56 49 -101 113h-134
q-43 -58 -113 -113h348z" />
    <glyph glyph-name="uni5239" unicode="&#x5239;" 
d="M628 127v575h92v-575h-92zM664 -87l-15 98h98q38 0 51 9q12 8 12 36v746h97v-792q0 -57 -30 -77q-29 -20 -108 -20h-105zM384 299v-297q0 -52 -26 -70q-25 -17 -95 -17h-81l-14 92h66q30 0 40 7t10 29v256h-218v92h218v94h100v-94h199v-92h-199zM122 -9l-78 46
q60 98 114 216l85 -33q-59 -127 -121 -229zM529 6q-46 83 -121 206l77 42q72 -108 126 -199zM422 628q90 -58 158 -101l-57 -78l-184 120q-93 -60 -224 -123l-52 79q113 51 192 100q-97 63 -165 104l56 69q91 -55 192 -118q78 56 152 124l71 -59q-64 -60 -139 -117z" />
    <glyph glyph-name="uni523A" unicode="&#x523a;" 
d="M638 127v575h91v-575h-91zM666 -87l-15 98h98q39 0 51 8t12 36v748h96v-792q0 -57 -30 -78q-29 -20 -107 -20h-105zM378 450v-228q135 -91 200 -137l-51 -79q-86 66 -149 113v-221h-95v269q-70 -116 -195 -219l-44 103q157 113 239 273v126h-94v-216h-93v303h187v84h-219
v89h219v95h95v-95h213v-89h-213v-84h190v-232q0 -42 -21 -57q-20 -14 -77 -14h-54l-12 82h38q21 0 28 5q6 4 6 20v109h-98z" />
    <glyph glyph-name="uni523B" unicode="&#x523b;" 
d="M618 128v564h97v-564h-97zM653 -84l-15 101h103q38 0 50 9t12 36v736h100v-778q0 -61 -32 -83q-31 -21 -115 -21h-103zM427 134q113 -94 165 -139l-67 -78q-89 84 -163 149q-101 -94 -241 -171l-59 86q156 82 250 170q91 86 176 226l79 -45q-64 -110 -140 -198zM341 441
q35 52 69 117l83 -43q-88 -153 -169 -242q-84 -93 -214 -178l-59 87q136 76 221 171q-91 -5 -183 -6l-17 76q35 18 58 47q51 63 87 130h-149v94h223q-26 77 -36 99l110 14q24 -70 36 -113h170v-94h-242q-76 -112 -118 -164q65 2 130 5z" />
    <glyph glyph-name="uni523D" unicode="&#x523d;" 
d="M623 128v576h92v-576h-92zM661 -86l-15 97h103q37 0 50 9q12 9 12 35v746h98v-788q0 -58 -30 -79q-29 -20 -109 -20h-109zM484 -40q-264 -12 -392 -16l-17 75q34 21 63 61q48 69 79 134h-138v93h494v-93h-244q-67 -116 -110 -177q107 4 213 9l-66 104l78 42
q79 -119 152 -233l-82 -50q-15 25 -30 51zM189 492h301v-92h-321v72q-38 -37 -85 -76l-40 100q160 124 250 308l108 -10q-10 -20 -21 -40q120 -114 219 -216l-53 -96q-89 102 -213 231q-66 -101 -145 -181z" />
    <glyph glyph-name="uni5241" unicode="&#x5241;" 
d="M626 129v574h91v-574h-91zM662 -86l-15 97h102q38 0 50 9t12 36v747h99v-790q0 -58 -31 -79q-29 -20 -109 -20h-108zM126 400l-69 75q53 41 71 76t18 99v114h342v-184q0 -28 9 -38t35 -10h53l-16 -91h-82q-96 -1 -94 103v130h-152v-30q0 -80 -24 -132q-25 -53 -91 -112z
M265 161q-67 -116 -179 -206l-40 103q119 86 195 213h-176v89h200v102h98v-102h207v-89h-207v-35l216 -146l-53 -82q-81 61 -163 122v-225h-98v256z" />
    <glyph glyph-name="uni5242" unicode="&#x5242;" 
d="M608 133v558h100v-558h-100zM645 -87l-15 103h112q39 0 52 9t13 37v737h100v-784q0 -61 -31 -82q-29 -20 -112 -20h-119zM375 -87v347h98v-347h-98zM136 -106l-86 62q73 64 94 120t21 185l97 -3q3 -136 -24 -214q-26 -78 -102 -150zM406 439q39 -23 175 -107l-56 -83
q-95 61 -190 123q-91 -71 -248 -125l-41 93q127 41 200 87q-47 30 -152 93l64 66q106 -63 164 -97q46 49 80 117h-334v91h206q-6 25 -29 99l112 11q15 -53 29 -110h179v-91h-56q-46 -102 -103 -167z" />
    <glyph glyph-name="uni5243" unicode="&#x5243;" 
d="M667 -85l-15 97h98q37 0 48 8q12 8 12 35v748h96v-793q0 -56 -29 -76q-28 -19 -106 -19h-104zM641 131v575h92v-575h-92zM276 305v99h-100l-8 -99h108zM477 487v101h-108v-101h108zM276 116q-72 -96 -185 -175l-46 96q134 75 206 183h-177l24 267h178v101h-195v84h120
q-20 39 -61 106l87 30q33 -56 66 -111l-60 -25h116q42 71 75 137l94 -25q-30 -51 -68 -112h115v-268h-196v-99h219l-12 -225q-2 -44 -24 -59t-84 -15h-62l-13 87h55q25 0 34 6t10 24l3 97h-126v-319h-93v215z" />
    <glyph glyph-name="uni524A" unicode="&#x524a;" 
d="M457 106h-264v-201h-97v646h180v253h99v-253h179v-548q0 -54 -29 -74q-28 -19 -103 -19h-86l-14 93h85q30 0 40 7t10 29v67zM457 195v88h-264v-88h264zM457 371v87h-264v-87h264zM162 581q-65 101 -95 145l78 45q51 -71 101 -142zM480 578l-76 54q48 59 103 141l79 -46
q-36 -55 -106 -149zM666 -88l-15 96h96q38 0 51 9t13 36v749h96v-793q0 -56 -30 -77q-29 -20 -107 -20h-104zM632 126v569h91v-569h-91z" />
    <glyph glyph-name="uni524D" unicode="&#x524d;" 
d="M638 -89l-15 96h102q39 0 53 10q13 10 13 38v489h97v-531q0 -60 -31 -81q-30 -21 -112 -21h-107zM419 356v83h-209v-83h209zM419 189v85h-209v-85h209zM419 107h-209v-206h-99v626h405v-529q0 -51 -26 -69q-25 -17 -96 -17h-96l-13 90h87q28 0 37 6q10 7 10 28v71z
M605 89v414h90v-414h-90zM422 693h159q69 88 87 116l115 -21q-37 -48 -74 -95h237v-93h-891v93h239q-45 60 -72 95l110 25q60 -78 90 -120z" />
    <glyph glyph-name="uni5250" unicode="&#x5250;" 
d="M673 -89l-15 97h94q37 0 48 8q12 8 12 35v749h95v-794q0 -56 -29 -76q-28 -19 -104 -19h-101zM643 127v576h91v-576h-91zM449 565v111h-231v-111h231zM488 128l-49 -57q-16 18 -104 116q-36 -73 -118 -139l-36 44v-176h-91v480h203q1 41 1 83h-167v285h413v-285h-161
q-2 -54 -2 -83h202v-380q0 -57 -29 -77q-28 -19 -106 -19h-83l-13 85h82q35 0 46 8q12 9 12 34v81zM488 147v162h-117q-4 -28 -6 -41q62 -61 123 -121zM287 309h-106v-177q94 70 106 177z" />
    <glyph glyph-name="uni5251" unicode="&#x5251;" 
d="M658 -85l-15 97h103q37 0 50 9t13 36v745h97v-788q0 -58 -30 -79q-29 -20 -109 -20h-109zM625 131v570h92v-570h-92zM312 128q-18 105 -49 236l83 13q9 -38 50 -235zM482 71q57 5 113 11l-5 -100q-254 -28 -512 -48l-11 105q262 19 325 25q56 180 88 305l90 -23
q-44 -138 -88 -275zM160 91q-27 103 -72 247l82 21q39 -120 75 -246zM198 513h301v-91h-322v72q-39 -35 -94 -77l-41 99q171 113 260 289l107 -10q-12 -23 -24 -45q100 -81 221 -188l-53 -94q-124 122 -215 206q-60 -86 -140 -161z" />
    <glyph glyph-name="uni5254" unicode="&#x5254;" 
d="M480 615v71h-254v-71h254zM480 478v71h-254v-71h254zM684 -88l-13 94h93q35 0 46 8t11 33v754h91v-798q0 -54 -28 -73q-26 -18 -101 -18h-99zM660 127v577h83v-577h-83zM252 399l36 -5q-22 -42 -33 -61h354l-15 -331q-3 -53 -28 -70q-26 -18 -99 -18h-69l-13 87h74
q30 0 40 7t11 28l13 216h-49q-27 -120 -79 -204t-146 -159l-60 61q87 66 134 135t72 167h-59q-31 -86 -83 -154q-55 -72 -143 -136l-54 71q138 86 199 219h-55q-36 -48 -101 -106l-53 67q96 75 152 186h-64v366h438v-366h-320z" />
    <glyph glyph-name="uni5256" unicode="&#x5256;" 
d="M661 -90l-15 97h99q39 0 51 9t12 36v749h99v-793q0 -58 -30 -78q-29 -20 -110 -20h-106zM630 126v576h93v-576h-93zM389 708h171v-87h-479v87h200q-23 64 -33 87l106 12q18 -50 35 -99zM439 53v145h-235v-145h235zM439 -34h-235v-53h-101v373h436v-373h-100v53zM242 452
h102q56 102 79 152l97 -29q-36 -62 -74 -123h141v-87h-532v87h136q-34 61 -70 120l91 32q17 -27 80 -133z" />
    <glyph glyph-name="uni5265" unicode="&#x5265;" 
d="M191 193q-78 68 -122 104l55 60q72 -55 124 -98zM544 462h70v-84h-228v-154q170 -107 240 -152l-51 -82q-94 66 -189 133v-132q0 -49 -26 -67q-25 -17 -93 -17h-90l-13 86h73q33 0 43 7t10 31v92q-102 -67 -202 -123l-41 93q130 66 243 133v152h-230v84h387v69h-328v80
h328v69h-348v84h445v-302zM471 190l-55 66q33 24 135 105l59 -60q-82 -69 -139 -111zM649 128v575h88v-575h-88zM673 -86l-14 94h98q35 0 46 8q12 8 12 33v753h94v-795q0 -54 -29 -74q-28 -19 -103 -19h-104z" />
    <glyph glyph-name="uni5267" unicode="&#x5267;" 
d="M674 -86l-14 94h96q34 0 46 9t12 33v752h93v-794q0 -56 -28 -75t-104 -19h-101zM494 37v114h-186v-114h186zM496 579v94h-292v-94h292zM647 127v575h87v-575h-87zM447 325v-94h135v-324h-88v50h-186v-51h-87v325h134v94h-152q-4 -139 -22 -228q-18 -86 -63 -194l-71 69
q39 94 52 183q13 91 13 274v330h473v-261h-381v-90h151v84h92v-84h163v-83h-163z" />
    <glyph glyph-name="uni5269" unicode="&#x5269;" 
d="M687 -86l-13 92h88q36 0 48 9q11 8 11 34v753h91v-797q0 -54 -28 -73q-26 -18 -100 -18h-97zM674 124v593h81v-593h-81zM517 364v-55q0 -15 6 -22q5 -6 19 -6h9q14 0 21 6q6 5 8 20q5 32 6 54l57 -17q-6 -42 -11 -68q-6 -34 -24 -48q-19 -15 -55 -15h-36q-75 0 -75 81
v198h75v-59q46 19 91 39l29 -60q-81 -35 -120 -48zM170 244q-45 -13 -104 -25l-15 72q50 7 119 25v59h-106v68h106v49h76v-288h-76v40zM299 136q-71 -110 -207 -197l-46 90q85 48 144 104q55 52 109 131v265h-237v79h237v77q-136 -4 -207 -5l-12 81q208 0 511 14l13 -79
q-72 -4 -216 -8v-80h240v-79h-240v-289q152 -113 237 -182l-52 -81q-60 56 -185 161v-241h-89v239z" />
    <glyph glyph-name="uni526A" unicode="&#x526a;" 
d="M638 225l-11 75h103q34 0 45 8t11 32v257h97v-286q0 -51 -26 -69q-25 -17 -95 -17h-124zM606 351v224h89v-224h-89zM710 717h234v-81h-886v81h242q-18 25 -58 77l115 15q34 -46 67 -92h162q45 63 63 92l116 -13q-23 -35 -55 -79zM463 99q-24 -89 -103 -134
q-77 -44 -256 -73l-48 86q143 18 211 45t86 76h-277v79h814l-12 -139q-7 -74 -44 -99q-38 -25 -144 -25h-151l-11 84h161q46 0 61 10q16 11 20 43l5 47h-312zM428 332h-212v-111h-95v366h403v-281q0 -52 -25 -70q-24 -17 -95 -17h-89l-10 65h79q28 0 36 6t8 26v16zM428 382
v48h-212v-48h212zM428 480v46h-212v-46h212z" />
    <glyph glyph-name="uni526F" unicode="&#x526f;" 
d="M550 399h-427v225h427v-225zM456 472v80h-239v-80h239zM66 679v81h536v-81h-536zM491 -53h-310v-46h-93v443h496v-443h-93v46zM491 22v88h-112v-88h112zM491 179v90h-112v-90h112zM293 22v88h-112v-88h112zM293 179v90h-112v-90h112zM648 126v576h88v-576h-88zM674 -89
l-14 94h95q35 0 47 9t12 34v750h92v-794q0 -56 -28 -75q-26 -18 -103 -18h-101z" />
    <glyph glyph-name="uni5272" unicode="&#x5272;" 
d="M469 -53h-264v-41h-95v284h178v59h-223v74h223v55h-174v71h174v54h-189v74h189v48h94v-48h181v-74h-181v-54h168v-71h-168v-55h215v-74h-215v-59h180v-283h-93v40zM469 24v89h-264v-89h264zM391 730h202v-151h-88v73h-348v-73h-89v151h215q-10 42 -18 67l108 10
q11 -39 18 -77zM643 127v575h90v-575h-90zM673 -86l-15 97h96q37 0 48 8t11 34v749h96v-793q0 -56 -29 -76q-28 -19 -105 -19h-102z" />
    <glyph glyph-name="uni527F" unicode="&#x527f;" 
d="M693 -87l-14 90h87q34 0 45 8t11 33v756h90v-796q0 -54 -28 -73q-26 -18 -99 -18h-92zM665 121v586h81v-586h-81zM303 438v61h-110v-61h110zM303 317v62h-110v-62h110zM505 438v61h-111v-61h111zM505 317v62h-111v-62h111zM534 578q-23 27 -106 118q62 62 99 108l84 -23
q-11 -13 -83 -84q67 -65 84 -83zM357 578q-39 46 -106 117q60 60 100 109l81 -22q-34 -39 -83 -86q45 -39 84 -81zM182 578q-35 42 -107 118q53 50 100 108l83 -23q-50 -52 -84 -85q48 -43 85 -81zM394 116v-12q149 -57 235 -93l-37 -78q-59 29 -198 94v-126h-91v159
q-77 -84 -217 -143l-43 79q135 45 215 120h-192v76h237v55h-195v322h481v-322h-195v-55h234v-76h-234z" />
    <glyph glyph-name="uni5288" unicode="&#x5288;" 
d="M776 724h146v-77h-406v77h160q-18 47 -29 74l101 10q10 -26 28 -84zM394 353v75h-127v-75h127zM459 145q-20 -95 -90 -147q-72 -54 -252 -104l-56 90q152 33 215 68t75 93h-252v85h773l-13 -183q-6 -79 -44 -105t-149 -26h-153l-14 89h162q51 0 69 12t22 48l6 80h-299z
M686 554h64q27 49 41 82l83 -17q-5 -10 -35 -65h101v-75h-177v-66h152v-76h-152v-75h-96v75h-146v76h146v66h-168v75h98q-17 32 -35 65l84 17q16 -30 40 -82zM208 620h175v73h-175v-73zM205 553q-1 -28 -8 -59h278v-208h-288v169q-27 -94 -86 -175l-56 90q42 57 57 116
q15 57 15 155v126h356v-214h-268z" />
    <glyph glyph-name="uni529B" unicode="&#x529b;" 
d="M482 615h411l-25 -547q-1 -73 -34 -104q-40 -38 -168 -36h-177l-17 111h171q67 0 89 15q23 16 25 63l14 389h-297q-12 -228 -86 -358q-74 -131 -257 -251l-77 97q163 102 228 212q66 109 77 300h-275v109h281q2 38 7 190h119q-4 -95 -9 -190z" />
    <glyph glyph-name="uni529D" unicode="&#x529d;" 
d="M333 294q79 -114 106 -154l-77 -65q-28 43 -79 116q-62 -115 -181 -241l-60 91q122 122 179 242q-68 99 -153 218l75 54q52 -70 122 -166q32 99 50 232h-240v101h338v-98q-29 -199 -80 -330zM659 620h251l-14 -573q-2 -71 -36 -94q-33 -23 -133 -23h-115l-15 105h112
q50 0 67 12t18 48l9 425h-149q0 -9 -1 -14q-11 -231 -58 -351q-47 -122 -181 -259l-83 76q122 114 168 226t52 305q1 8 1 17h-109v100h113l4 184h106q-3 -92 -7 -184z" />
    <glyph glyph-name="uni529E" unicode="&#x529e;" 
d="M130 167l-86 53q75 115 129 250l92 -41q-54 -121 -135 -262zM769 429l61 31q67 -120 133 -239l-93 -50q-35 75 -103 206l-11 -320q-2 -81 -41 -108t-152 -27h-135l-17 108h140q59 0 78 13t21 55l15 448h-208q0 -9 -1 -17q-10 -253 -77 -384q-67 -132 -252 -249l-74 93
q168 102 226 214q59 111 67 323q0 14 1 20h-260v102h264q1 84 5 155h112q-3 -78 -6 -155h315z" />
    <glyph glyph-name="uni529F" unicode="&#x529f;" 
d="M636 623h275l-18 -585q-2 -69 -35 -92t-129 -23h-125l-15 105h114q50 0 67 12t18 48l12 434h-169q0 -13 -1 -26q-8 -225 -53 -350q-46 -126 -170 -251l-94 69q120 108 162 214q42 107 48 320q1 12 1 24h-105v101h109q3 57 5 182h109q-3 -101 -6 -182zM288 192
q42 8 128 26l2 -110q-139 -36 -349 -79l-21 119q37 6 134 23v434h-118v105h337v-105h-113v-413z" />
    <glyph glyph-name="uni52A0" unicode="&#x52a0;" 
d="M280 640h205l-11 -620q-1 -56 -28 -75t-106 -19h-90l-17 106h76q38 0 51 9t14 37l9 463h-106q0 -13 -1 -19q-6 -244 -40 -373q-33 -128 -127 -253l-69 87q78 117 102 215q25 99 32 327q1 5 1 16h-107v99h109q1 82 2 165h103q-1 -83 -2 -165zM805 4h-144v-87h-100v789h346
v-789h-102v87zM805 104v502h-144v-502h144z" />
    <glyph glyph-name="uni52A1" unicode="&#x52a1;" 
d="M639 478q118 -32 313 -52l-36 -97q-258 33 -404 89q-164 -63 -429 -103l-37 95q207 28 346 68q-72 46 -137 112q-60 -52 -119 -94l-71 78q166 107 264 233l117 -12q-22 -30 -51 -64h455v-93q-108 -102 -211 -160zM513 522q106 47 197 121h-378q82 -77 181 -121zM488 274
h373l-14 -223q-3 -85 -50 -112q-43 -24 -148 -23h-146l-14 98h162q52 0 69 12q18 12 20 48l6 109h-276q-31 -109 -110 -173q-77 -62 -247 -117l-57 98q139 37 205 78q69 43 96 114h-250v91h272q6 51 7 85h110q-2 -37 -8 -85z" />
    <glyph glyph-name="uni52A3" unicode="&#x52a3;" 
d="M449 549v256h106v-256h-106zM895 515q-139 92 -259 157l50 76q183 -99 262 -146zM122 508l-49 89q141 65 260 146l56 -83q-126 -81 -267 -152zM86 338l-33 96q428 45 694 146l57 -84q-137 -53 -293 -88q-173 -39 -425 -70zM499 290h388l-14 -234q-5 -84 -46 -112
t-159 -28h-142l-15 102h162q52 0 70 12t21 49l8 116h-291q-28 -112 -108 -178q-81 -67 -252 -121l-56 98q143 41 208 85t91 116h-255v95h281q5 33 7 74h110q-4 -50 -8 -74z" />
    <glyph glyph-name="uni52A8" unicode="&#x52a8;" 
d="M97 644v96h355v-96h-355zM494 52q45 74 64 176q18 98 22 271q1 12 1 24h-92v97h94q2 67 4 186h99l-4 -186h231l-11 -598q-1 -58 -29 -78t-110 -20h-106l-14 102h91q38 0 51 9t14 36l10 452h-129q0 -14 -1 -27q-7 -234 -41 -360q-36 -133 -128 -247l-95 60q38 42 65 81
l-67 -28q-7 21 -17 46q-167 -24 -317 -43l-25 81q25 20 40 54q59 130 95 258h-135v96h428v-96h-184q-58 -163 -112 -280q89 9 177 21q-19 51 -61 159l85 25q30 -72 107 -271z" />
    <glyph glyph-name="uni52A9" unicode="&#x52a9;" 
d="M358 531v137h-153v-137h153zM358 310v137h-153v-137h153zM358 91v134h-153v-147q102 8 153 13zM504 74q44 74 62 165q17 88 22 258q1 8 1 24h-93v97h95q0 15 3 185h102q-1 -59 -5 -185h217l-13 -601q-2 -57 -28 -76q-27 -19 -107 -19h-99l-15 100h85q38 0 51 9
q12 9 13 35l11 455h-118q0 -14 -1 -28q-5 -237 -43 -359q-38 -121 -140 -240l-71 86q12 14 17 21q-212 -26 -388 -41l-12 107q19 2 57 4v688h349v-659q32 4 48 5v-31z" />
    <glyph glyph-name="uni52AA" unicode="&#x52aa;" 
d="M312 514q42 45 72 120h-135q-7 -17 -36 -77q25 -11 99 -43zM395 473q26 -12 80 -39l-45 -85q-33 20 -103 58q-80 -62 -230 -113l-42 85q114 32 184 75q-67 34 -138 69q26 50 53 111h-87v84h123q22 60 33 89l98 -4q-17 -43 -35 -85h192v-92q-35 -93 -83 -153zM774 472
q68 -40 177 -70l-41 -90q-132 44 -213 101q-68 -43 -167 -79l-47 86q78 23 140 56q-59 62 -106 153l76 39h-90v87h397v-89q-48 -121 -126 -194zM699 527q65 54 103 141h-204q44 -89 101 -141zM494 264h376l-11 -211q-4 -82 -43 -109q-40 -28 -155 -28h-147l-15 96h165
q51 0 67 11q17 11 19 48l7 104h-282q-30 -105 -108 -166q-76 -60 -250 -114l-57 95q141 37 207 77q69 41 96 108h-254v89h277q6 36 9 76h107q-4 -54 -8 -76z" />
    <glyph glyph-name="uni52AB" unicode="&#x52ab;" 
d="M499 62q48 77 68 177q19 96 23 261q0 15 1 23h-88v97h89q2 120 2 186h102q-2 -126 -4 -186h219l-13 -597q-1 -59 -29 -79t-111 -20h-102l-15 102h88q39 0 53 10q13 10 14 38l10 449h-116q0 -14 -1 -27q-4 -219 -41 -348t-136 -255l-95 60q26 29 51 62l-47 -19
q-10 26 -16 40q-108 -15 -324 -42l-22 84q28 17 42 43q54 103 89 203h-135v94h181v140h-153v95h153v151h99v-151h135v-95h-135v-140h161v-94h-197q-54 -125 -103 -217q117 13 172 20q-24 61 -52 122l87 31q39 -84 96 -218z" />
    <glyph glyph-name="uni52B1" unicode="&#x52b1;" 
d="M123 -98l-74 79q37 92 49 184t12 278v314h452v-91h-360v-217q0 -211 -15 -317q-16 -112 -64 -230zM519 -4q68 96 88 183q20 86 26 301q1 20 1 41h-64v97h66q2 108 2 187h92q0 -67 -2 -187h186l-12 -607q-1 -52 -26 -70q-26 -18 -99 -18h-81l-15 101h73q33 0 45 8
q11 8 11 31l9 458h-94q0 -20 -1 -39q-5 -244 -32 -350q-27 -108 -116 -236l-62 80q-9 -24 -36 -33q-26 -9 -79 -9h-50l-13 89h51q30 0 40 7t11 29l8 231h-83q-7 -140 -29 -219t-79 -169l-66 73q51 81 68 153q18 73 22 225l2 130h-56v89h322v-89h-180q-1 -55 -2 -109h166
l-10 -355q0 -9 -2 -23z" />
    <glyph glyph-name="uni52B2" unicode="&#x52b2;" 
d="M365 543q81 -46 161 -93l-54 -82q-63 41 -175 111q-78 -62 -210 -116l-43 90q112 41 180 90q63 45 113 116h-254v95h367v-97q-42 -67 -85 -114zM482 14q64 89 89 186t30 282q1 20 1 40h-94v97h97q2 124 2 186h100q-1 -93 -3 -186h208l-11 -600q-1 -58 -28 -77t-108 -19
h-97l-15 101h82q38 0 51 9q13 10 14 37l10 452h-109q0 -19 -1 -37q-5 -222 -42 -346q-36 -124 -131 -243l-82 70q11 14 26 34q-154 -22 -403 -46l-12 105q89 7 177 15v167h-148v94h390v-94h-144v-158q44 4 154 17z" />
    <glyph glyph-name="uni52B3" unicode="&#x52b3;" 
d="M491 304h363l-12 -245q-2 -72 -35 -103q-41 -38 -169 -36h-144l-14 100h166q50 0 68 12t20 47l8 134h-265q-26 -118 -105 -188q-80 -70 -259 -130l-55 98q148 42 216 92q65 48 89 128h-250v91h269q7 50 8 97h110q-3 -53 -9 -97zM720 630v-70h-106v70h-227v-71h-106v71
h-211v91h211v84h106v-84h227v84h106v-84h210v-91h-210zM75 348v176h851v-176h-104v85h-644v-85h-103z" />
    <glyph glyph-name="uni52BF" unicode="&#x52bf;" 
d="M301 469v-94q0 -48 -24 -64q-23 -16 -90 -16h-82l-11 79h68q28 0 38 7q9 6 9 26v50q-39 -6 -133 -17l-14 89q69 6 147 15v77h-129v83h129v102h92v-102h101v-83h-101v-66q39 5 103 14v-84q-29 -5 -103 -16zM444 294h48q-1 -21 -5 -49h378l-12 -192q-5 -83 -46 -110
q-40 -27 -157 -27h-130l-13 94h149q50 0 68 12q17 11 20 47l7 86h-281q-27 -105 -109 -163q-81 -59 -247 -97l-57 94q139 26 204 61q69 37 95 105h-254v90h276q2 16 4 50h56l-67 66q85 49 121 99q-50 28 -74 41l43 71q36 -18 71 -35q11 34 14 87h-107v85h110q2 37 2 97h95
q-2 -68 -2 -97h183q-4 -179 2 -274q3 -47 23 -47q14 0 20 34q4 23 12 110l68 -21q-10 -97 -17 -128q-19 -85 -89 -85q-46 0 -75 35t-33 95q-4 72 -4 196h-95q-5 -77 -22 -129q49 -26 98 -51l-48 -84q-49 30 -92 53q-40 -57 -131 -119z" />
    <glyph glyph-name="uni52C3" unicode="&#x52c3;" 
d="M715 613h203l-13 -602q-2 -55 -27 -73q-26 -18 -103 -18h-92l-15 100h79q36 0 48 8t13 34l11 456h-106v-14q-5 -246 -44 -368q-39 -123 -145 -242l-78 69q93 101 130 213q36 112 40 326v16h-75v95h77q1 70 1 191h99q-1 -30 -3 -191zM476 391v-74l-110 -97q55 4 165 14
l-5 -85q-115 -13 -164 -17v-139q0 -50 -26 -68q-25 -17 -93 -17h-99l-13 91h80q32 0 43 8t11 31v86q-102 -9 -200 -15l-7 91q69 3 207 13v24l82 77h-219v77h-60v163h184v81h-162v85h162v83h100v-83h159v-85h-159v-81h185v-163h-61zM449 397v76h-295v-76h295z" />
    <glyph glyph-name="uni52C7" unicode="&#x52c7;" 
d="M449 461v58h-215v-58h215zM449 336v58h-215v-58h215zM766 461v58h-216v-58h216zM766 336v58h-216v-58h216zM628 590h241v-367h-103v47h-216v-38h-101v38h-215v-47h-103v367h254l-148 58l49 40h-168v80h733v-82q-43 -19 -223 -96zM502 614q72 29 177 74h-356
q76 -30 179 -74zM480 184h388l-12 -153q-6 -69 -40 -92q-33 -22 -131 -22h-160l-12 81h167q41 0 54 9q14 9 17 38l6 60h-291q-22 -82 -104 -130q-81 -49 -251 -82l-51 88q143 22 206 48q67 27 91 76h-255v79h275q2 18 3 39h102q0 -15 -2 -39z" />
    <glyph glyph-name="uni52C9" unicode="&#x52c9;" 
d="M253 314v2q7 53 9 137h-92v-139h83zM434 314v139h-87q-3 -82 -10 -139h97zM869 124l80 -26q-7 -58 -16 -98q-12 -51 -44 -72t-96 -21h-354q-127 -1 -126 116v162q-37 -153 -203 -291l-66 79q89 67 132 124q44 58 63 134h-149v268l-50 66q115 112 172 242l97 -11
q-18 -38 -37 -74h198v-79l-68 -107h112v-305h-190q-3 -14 -9 -40h90v-146q0 -27 13 -39q12 -11 42 -11h321q32 0 47 11q14 11 20 38q6 32 9 67q-24 -20 -102 -20h-71l-13 90h68q32 0 43 8q10 7 11 30l12 338h-95v-6q-8 -181 -39 -278q-32 -101 -121 -221l-75 60
q81 92 110 180t35 258v7h-81v91h85l2 156h91q-1 -60 -3 -156h182l-15 -469q-2 -38 -12 -55zM220 637q-37 -56 -78 -101h158l65 101h-145z" />
    <glyph glyph-name="uni52CB" unicode="&#x52cb;" 
d="M334 145q128 -93 179 -131l-57 -82q-70 61 -153 127q-48 -94 -211 -158l-47 84q99 36 148 82q47 44 57 107q8 51 8 135h89q0 -88 -10 -145q-1 -7 -3 -19zM484 506h-369v258h369v-258zM396 587v96h-192v-96h192zM87 113v328h426v-321h-89v238h-248v-245h-89zM726 621h196
l-13 -611q-2 -55 -27 -73t-102 -18h-88l-15 101h78q35 0 47 8t13 33l11 464h-103v-18q-7 -237 -40 -361q-33 -122 -124 -254l-83 57q85 114 115 224q31 112 37 333q0 12 1 19h-86v96h88q2 110 2 181h97q-2 -91 -4 -181z" />
    <glyph glyph-name="uni52D2" unicode="&#x52d2;" 
d="M257 268v95h-88v-95h88zM436 268v95h-88v-95h88zM535 59q44 76 62 169q17 86 22 251q1 25 1 50h-86v95h87q1 90 1 181h96q-1 -39 -3 -181h200l-13 -612q-1 -54 -27 -73t-103 -19h-88l-16 100h79q35 0 48 9q12 9 13 34l10 466h-104q0 -23 -1 -45q-7 -233 -40 -346
q-32 -113 -130 -244l-84 57q40 50 66 91h-177v-142h-91v142h-203v81h203v70h-170v244h170v63h-113v144h-86v80h86v80h86v-80h145v80h86v-80h87v-80h-87v-144h-113v-63h170v-244h-170v-70h187v-64zM375 571v73h-145v-73h145z" />
    <glyph glyph-name="uni52D8" unicode="&#x52d8;" 
d="M264 38l-61 49q57 64 96 124l68 -41q-55 -77 -103 -132zM469 39q-39 58 -95 130l66 42q55 -67 97 -125zM416 570v66h-183v-66h183zM416 437v67h-183v-67h183zM416 304v67h-183v-67h183zM519 -23v-39h-419v287h-45v79h86v332h-71v80h71v89h92v-89h183v89h92v-89h68v-80
h-68v-332h79v-79h-396v-207h328v-35q68 94 92 192t28 319q1 9 1 31h-68v97h70q0 116 1 184h93q0 -68 -2 -184h182l-12 -613q1 -51 -26 -70q-26 -19 -98 -18h-77l-15 101h68q33 0 45 8q11 8 11 31l10 464h-91v-30q-6 -245 -35 -362q-28 -114 -113 -239z" />
    <glyph glyph-name="uni52DF" unicode="&#x52df;" 
d="M697 677v-46h-104v46h-189v-47h-103v47h-234v74h234v56h103v-56h189v56h104v-56h235v-74h-235zM742 511v47h-484v-47h484zM742 417v46h-484v-46h484zM769 90l-8 -88q-4 -55 -33 -74t-107 -19h-109l-11 79h101q33 0 45 8q13 8 15 31l4 53h-176q-31 -86 -102 -127
q-67 -39 -211 -60l-33 83q110 14 162 35q58 23 86 69h-155v11q-60 -36 -150 -72l-39 93q156 50 230 119h-214v74h273q17 25 28 49h-213v266h695v-266h-374q-8 -17 -26 -49h490v-74h-221q80 -75 234 -108l-37 -92q-79 23 -144 59zM684 148q-45 39 -75 83h-208
q-32 -42 -81 -83h101q8 31 10 53h89q-4 -25 -9 -53h173z" />
    <glyph glyph-name="uni52E4" unicode="&#x52e4;" 
d="M276 366v67h-107v-67h107zM402 607v59h-167v-59h167zM467 366v67h-107v-67h107zM546 8q53 89 71 186q18 93 23 303q1 15 1 31h-73v94h75q1 53 1 184h93q-1 -92 -3 -184h182l-11 -615q-1 -52 -26 -70t-99 -18h-76l-15 100h69q34 0 44 7t11 31l11 471h-92q0 -21 -1 -30
q-3 -237 -32 -360q-28 -123 -113 -245l-59 59q-311 -14 -469 -17l-6 78q73 1 224 5v60h-184v60h184v51h-198v64h198v51h-187v192h187v50h-127v120h-93v71h93v69h86v-69h167v69h86v-69h91v-71h-91v-120h-128v-50h187v-192h-187v-51h196v-64h-196v-51h180v-60h-180v-58l188 8z
" />
    <glyph glyph-name="uni52FA" unicode="&#x52fa;" 
d="M477 158q-83 96 -207 226l79 71q107 -104 214 -216zM354 674h542l-24 -610q-3 -88 -45 -117q-43 -30 -166 -30h-183l-16 111h176q72 0 96 17t26 68l15 454h-482q-61 -98 -151 -203l-87 78q153 164 232 366l118 -25q-23 -54 -51 -109z" />
    <glyph glyph-name="uni52FE" unicode="&#x52fe;" 
d="M625 141q-235 -15 -471 -30l-21 88q37 20 68 56q102 125 182 279l116 -29q-102 -170 -195 -285q129 6 262 15q-42 64 -89 130l83 52q98 -133 191 -273l-90 -60q-9 13 -36 57zM343 678h560l-20 -615q-3 -88 -44 -117t-165 -29h-186l-16 106h179q72 0 96 17t26 69l15 466
h-505q-61 -96 -147 -197l-81 78q146 151 226 352l112 -23q-22 -54 -50 -107z" />
    <glyph glyph-name="uni52FF" unicode="&#x52ff;" 
d="M709 574q-27 -232 -115 -384q-87 -152 -286 -287l-74 86q180 111 264 250q85 138 108 335h-114q-37 -173 -116 -286q-82 -117 -248 -228l-70 86q152 94 225 190q71 94 105 238h-100q-65 -104 -155 -203l-76 77q157 170 233 361l108 -22q-31 -72 -53 -113h567l-33 -606
q-2 -85 -49 -113q-42 -25 -150 -24h-126l-15 102h123q67 0 90 16t25 64l25 461h-93z" />
    <glyph glyph-name="uni5300" unicode="&#x5300;" 
d="M461 290q-99 87 -197 162l74 77q76 -56 204 -158zM128 39l-37 115q246 68 611 179l14 -114q-292 -95 -588 -180zM355 680h543l-20 -617q-3 -88 -45 -117t-164 -29h-185l-16 107h178q72 0 96 17q25 17 26 68l13 468h-488q-64 -98 -160 -198l-78 79q149 149 236 350
l114 -26q-16 -36 -50 -102z" />
    <glyph glyph-name="uni5305" unicode="&#x5305;" 
d="M499 299v128h-236v-128h236zM603 231h64q44 0 59 10q15 11 16 42l7 330h-466q-32 -46 -71 -93h391v-289zM550 206h-287v-119q0 -48 19 -66t71 -18h381q46 0 66 14q21 14 28 50q10 48 16 107l105 -30q-11 -81 -22 -130q-13 -59 -50 -83t-117 -24h-434q-92 0 -130 38
t-38 127v387q-29 -32 -71 -72l-37 115q145 133 218 306l119 -11q-19 -43 -40 -83h508l-9 -470q-2 -70 -34 -93q-33 -23 -131 -23h-120z" />
    <glyph glyph-name="uni5306" unicode="&#x5306;" 
d="M710 583q-23 -177 -68 -294q45 -22 98 -45l-44 -101q-49 25 -99 51q-87 -155 -287 -294l-71 85q180 117 263 254l-118 58q-82 -126 -259 -244l-66 83q161 94 235 203q-46 21 -92 43l45 81q47 -21 93 -41q29 64 50 161h-111q-66 -108 -155 -208l-72 75q141 153 226 358
l103 -22q-30 -70 -47 -103h582l-35 -629q-2 -81 -46 -108q-42 -25 -146 -24h-135l-16 106h129q64 0 87 16t26 62l26 477h-96zM608 583h-115q-27 -126 -62 -200q95 -44 116 -53q43 104 61 253z" />
    <glyph glyph-name="uni5308" unicode="&#x5308;" 
d="M236 227v-107h376v332h95v-421h-567v413q-14 -16 -20 -22l-74 76q139 138 218 309l113 -10q-35 -70 -54 -103h587l-20 -659q-2 -70 -35 -93t-132 -23h-119l-14 98h111q53 0 70 12t19 49l13 518h-542q-50 -72 -113 -144h88v-223q59 49 135 134q-62 74 -129 147l70 54
q8 -9 118 -132q56 68 102 139l77 -49q-60 -86 -119 -159q17 -20 121 -139l-75 -62q-56 71 -105 130q-71 -77 -136 -135z" />
    <glyph glyph-name="uni5316" unicode="&#x5316;" 
d="M611 308v-229q0 -37 17 -52t54 -15h53q45 0 63 14t24 53q8 54 17 148l109 -39q-13 -103 -25 -168q-11 -63 -49 -88t-124 -25h-98q-84 0 -118 33q-36 35 -36 121v170q-55 -34 -135 -78l-60 98q104 55 195 115v430h113v-348q130 103 239 232l84 -80q-141 -160 -323 -292z
M286 550v-649h-105v475q-47 -71 -89 -123l-57 109q158 195 242 443l107 -39q-43 -113 -98 -216z" />
    <glyph glyph-name="uni5317" unicode="&#x5317;" 
d="M660 381v-302q0 -36 16 -52q15 -15 50 -15h22q40 0 57 16t23 60q7 47 14 144l106 -32q-10 -81 -26 -172q-12 -67 -49 -94t-119 -27h-56q-79 0 -115 37q-35 36 -35 119v736h112v-296q132 77 220 140l64 -98q-122 -76 -284 -164zM297 64q-137 -48 -218 -72l-27 114
q114 31 245 71v278h-230v105h230v238h111v-892h-111v158z" />
    <glyph glyph-name="uni5319" unicode="&#x5319;" 
d="M714 406v-183q0 -27 10 -39t33 -12h24q26 0 38 10t16 38q6 39 12 125l88 -27q-10 -87 -22 -151q-9 -46 -36 -66t-79 -20h-72q-55 0 -81 29q-27 30 -27 92v581h96v-259q81 61 155 134l63 -73q-106 -100 -218 -179zM432 624v66h-219v-66h219zM432 490v68h-219v-68h219z
M523 415h-401v351h401v-351zM207 139q36 -69 92 -96v236h-236v81h512v-81h-184v-87h165v-77h-165v-98q58 -6 100 -6h457l-15 -89h-448q-125 0 -194 26q-67 25 -107 84q-21 -63 -68 -136l-72 57q44 67 61 129q17 63 18 158l90 -7q-1 -50 -6 -94z" />
    <glyph glyph-name="uni531D" unicode="&#x531d;" 
d="M112 -77v839h812v-100h-705v-642h717v-97h-824zM634 444v-397h-103v397h-126v-311h-97v409h223v89h103v-89h233v-317q0 -51 -26 -69q-25 -17 -95 -17h-68l-14 90h60q28 0 38 7q9 7 9 27v181h-137z" />
    <glyph glyph-name="uni5320" unicode="&#x5320;" 
d="M124 -78v839h794v-99h-689v-641h702v-99h-807zM440 295q-5 -142 -72 -245l-97 54q42 62 56 127q14 63 14 181v166q261 6 477 30l32 -95q-265 -22 -407 -27v-84v-12h460v-95h-168v-241h-101v241h-194z" />
    <glyph glyph-name="uni5321" unicode="&#x5321;" 
d="M115 -78v840h809v-96h-703v-647h714v-97h-820zM631 193h265v-90h-631v90h262v111h-209v89h209v102h-241v90h585v-90h-240v-102h208v-89h-208v-111z" />
    <glyph glyph-name="uni5323" unicode="&#x5323;" 
d="M120 -78v841h805v-96h-699v-649h711v-96h-817zM538 174h-232v420h563v-420h-232v-128h-99v128zM773 258v89h-136v-89h136zM773 421v90h-136v-90h136zM538 258v89h-135v-89h135zM538 421v90h-135v-90h135z" />
    <glyph glyph-name="uni532A" unicode="&#x532a;" 
d="M111 -78v841h815v-92h-709v-656h718v-93h-824zM728 139v-90h-100v590h100v-67h182v-88h-182v-84h168v-88h-168v-85h195v-88h-195zM430 139h-183v88h183v85h-161v88h161v84h-175v88h175v67h100v-590h-100v90z" />
    <glyph glyph-name="uni5339" unicode="&#x5339;" 
d="M702 658v-345q0 -28 9 -39q8 -10 30 -10h27q25 0 36 11t15 41q8 64 11 121l94 -30q-12 -108 -18 -143q-8 -50 -37 -72t-90 -22h-68q-56 0 -83 26q-29 28 -29 93v369h-117q-2 -126 -5 -208q-4 -109 -39 -175q-35 -67 -128 -145l-67 89q78 62 103 109q25 48 30 141
q2 44 2 189h-158v-633h721v-103h-830v840h816v-104h-225z" />
    <glyph glyph-name="uni533A" unicode="&#x533a;" 
d="M120 -78v840h785v-102h-678v-636h692v-102h-799zM650 355q90 -83 209 -201l-88 -80q-96 103 -198 201q-115 -111 -226 -201l-79 85q126 90 230 190q-79 77 -211 197l79 69q137 -123 207 -189q80 85 167 201l93 -57q-94 -122 -183 -215z" />
    <glyph glyph-name="uni533B" unicode="&#x533b;" 
d="M112 -78v841h814v-96h-706v-648h717v-97h-825zM620 271q82 -40 267 -137l-53 -91q-149 93 -251 152q-34 -47 -98 -85q-60 -36 -160 -73l-61 91q121 35 181 71t81 88h-264v89h280v4q2 17 4 102h-130q-33 -53 -72 -98l-75 66q82 89 127 208l99 -21q-17 -40 -30 -68h402v-87
h-216q-2 -74 -4 -106h262v-89h-285z" />
    <glyph glyph-name="uni533F" unicode="&#x533f;" 
d="M101 -78v843h825v-88h-721v-667h731v-88h-835zM733 140v83h-289v-83h289zM766 522v-49h-100v49h-185v-49h-100v49h-135v76h135v53h100v-53h185v53h100v-53h142v-76h-142zM564 430h350v-75h-408q-25 -29 -59 -63h386v-221h-490v136q-39 -29 -92 -63l-37 87q106 55 177 124
h-154v75h219q23 30 42 63l100 -12q-8 -14 -34 -51z" />
    <glyph glyph-name="uni5341" unicode="&#x5341;" 
d="M561 362v-462h-121v462h-377v116h377v325h121v-325h376v-116h-376z" />
    <glyph glyph-name="uni5343" unicode="&#x5343;" 
d="M561 301v-399h-121v399h-377v109h377v225q-210 -10 -312 -14l-20 108q473 13 751 37l28 -106q-112 -8 -326 -19v-231h375v-109h-375z" />
    <glyph glyph-name="uni5347" unicode="&#x5347;" 
d="M763 311v-406h-114v406h-267q-5 -147 -52 -234q-48 -90 -177 -186l-86 83q127 85 167 169q30 62 35 168h-213v103h215v206q-130 -11 -176 -14l-17 105q290 17 480 43l23 -102q-62 -8 -198 -22v-216h266v384h114v-384h181v-103h-181z" />
    <glyph glyph-name="uni5348" unicode="&#x5348;" 
d="M582 244v-343h-114v343h-412v109h412v227h-173q-54 -104 -109 -173l-90 68q121 152 177 334l114 -18q-17 -50 -41 -104h540v-107h-304v-227h364v-109h-364z" />
    <glyph glyph-name="uni5349" unicode="&#x5349;" 
d="M774 220v-312h-109v312h-328q-9 -115 -51 -185q-43 -71 -148 -146l-84 78q94 61 130 113q37 53 44 140h-169v99h174q1 75 1 151h109q-1 -76 -2 -151h324v150h109v-150h170v-99h-170zM559 563v-164h-109v164h-339v98h339v144h109v-144h336v-98h-336z" />
    <glyph glyph-name="uni534A" unicode="&#x534a;" 
d="M558 128v-228h-114v228h-385v103h385v133h-345v101h345v338h114v-338h345v-101h-345v-133h386v-103h-386zM274 506q-53 63 -161 175l76 66q18 -17 169 -168zM713 503l-74 74q81 73 165 171l82 -69q-97 -102 -173 -176z" />
    <glyph glyph-name="uni534E" unicode="&#x534e;" 
d="M614 508v-43q0 -34 14 -47t50 -13h79q35 0 51 12q15 11 20 40q5 31 12 100l101 -32q-11 -77 -22 -121q-12 -49 -44 -70q-31 -21 -95 -21h-144q-66 0 -96 27t-31 88q0 18 -1 36q-56 -22 -140 -49l-37 94q81 22 177 58v227h106v-181q125 58 240 138l63 -76
q-148 -98 -303 -167zM304 634v-342h-104v232q-58 -55 -110 -96l-36 116q144 102 248 263l102 -37q-50 -74 -100 -136zM553 108v-209h-108v209h-387v102h387v91h108v-91h388v-102h-388z" />
    <glyph glyph-name="uni534F" unicode="&#x534f;" 
d="M342 176l-81 41q59 112 99 238l84 -31q-57 -150 -102 -248zM228 465v-565h-101v565h-78v102h78v239h101v-239h76v-102h-76zM841 451q55 -75 119 -171l-50 -94q-40 70 -74 124l-9 -289q-2 -60 -31 -80t-113 -20h-121l-16 101h108q42 0 55 9q14 9 15 38l16 469h-138
q-1 -23 -4 -81q-10 -216 -59 -332q-50 -118 -182 -231l-74 75q121 105 165 209q45 104 51 290q2 44 2 70h-165v98h168q1 53 3 169h104q-1 -66 -5 -169h241z" />
    <glyph glyph-name="uni5351" unicode="&#x5351;" 
d="M551 541h204v95h-204v-95zM549 463q-4 -53 -19 -96h225v96h-206zM487 283q-57 -78 -178 -137h194v104h106v-104h332v-93h-332v-156h-106v156h-445v93h144l-24 38q127 46 187 99h-225v439h221q19 50 28 86l118 -9q-14 -41 -31 -77h381v-439h-370zM448 541v95h-206v-95h206
zM446 463h-204v-96h183q18 42 21 96z" />
    <glyph glyph-name="uni5352" unicode="&#x5352;" 
d="M730 494q46 -35 180 -141l-65 -78q-31 29 -160 142q-37 -54 -100 -115l-76 74q108 83 145 200l107 -10q-23 -57 -31 -72zM343 497q60 -49 144 -121l-71 -72q-50 50 -120 112q-51 -72 -139 -151l-74 69q142 106 184 242l106 -10q-13 -36 -30 -69zM556 119v-220h-110v220
h-388v98h388v81h110v-81h387v-98h-387zM580 699h332v-96h-820v96h364q-10 37 -32 97l123 10q12 -31 33 -107z" />
    <glyph glyph-name="uni5353" unicode="&#x5353;" 
d="M531 590h316v-393h-292v-70h390v-90h-390v-140h-110v140h-389v90h389v70h-290v393h267v216h109v-67h382v-85h-382v-64zM740 282v76h-478v-76h478zM740 430v76h-478v-76h478z" />
    <glyph glyph-name="uni5355" unicode="&#x5355;" 
d="M446 484v92h-208v-92h208zM446 314v92h-208v-92h208zM763 484v92h-209v-92h209zM763 314v92h-209v-92h209zM396 664h167q84 121 99 145l107 -32q-25 -37 -83 -113h184v-439h-316v-83h391v-95h-391v-151h-108v151h-390v95h390v83h-315v439h186q-26 37 -82 105l97 41
q67 -81 100 -130z" />
    <glyph glyph-name="uni5356" unicode="&#x5356;" 
d="M387 217q-132 39 -255 70l31 66q96 -24 257 -72zM437 326q-84 29 -250 72l30 62q121 -28 250 -65zM551 558h364v-83l-52 -154l-98 19l46 132h-734v86h368v78h-314v85h314v84h106v-84h318v-85h-318v-78zM629 210h311v-85h-338q0 -2 -5 -11q259 -93 336 -125l-53 -88
q-140 63 -336 141q-99 -95 -427 -147l-52 98q181 24 275 54t137 78h-413v85h457q4 14 10 46q13 79 16 184h108q-5 -97 -17 -177q-3 -19 -9 -53z" />
    <glyph glyph-name="uni5357" unicode="&#x5357;" 
d="M554 548h347v-543q0 -57 -29 -77q-28 -19 -106 -19h-131l-14 95h106q42 0 56 10t14 40v403h-590v-549h-104v640h341v77h-384v91h384v91h110v-91h386v-91h-386v-77zM463 330h66q27 41 67 109l99 -15q-10 -16 -59 -94h105v-82h-189v-72h209v-83h-209v-167h-103v167h-208v83
h208v72h-188v82h104q-24 41 -58 91l96 18q27 -38 68 -107z" />
    <glyph glyph-name="uni535A" unicode="&#x535a;" 
d="M567 459v58h-141v-58h141zM567 336v59h-141v-59h141zM804 459v58h-140v-58h140zM804 336v59h-140v-59h140zM229 455v-557h-98v557h-78v98h78v253h98v-253h68v-98h-68zM864 723h74v-79h-274v-55h234v-357h-94v40h-140v-47h-97v47h-141v-53h-93v370h234v55h-267v79h267v83
h97v-83h103q-12 24 -34 66l92 15q20 -41 39 -81zM427 105q55 -33 128 -80l-60 -76q-58 42 -142 96l49 60h-123v80h456v43h100v-43h112v-80h-112v-95q0 -60 -31 -81q-29 -20 -112 -20h-106l-12 88h100q37 0 49 9t12 35v64h-308z" />
    <glyph glyph-name="uni535C" unicode="&#x535c;" 
d="M340 -101v903h119v-903h-119zM816 208q-168 123 -340 234l66 92q171 -106 350 -225z" />
    <glyph glyph-name="uni535E" unicode="&#x535e;" 
d="M525 312v-415h-116v620h-348v106h398q-45 119 -66 166l122 19q31 -73 70 -185h355v-106h-415v-188l51 78q110 -64 302 -183l-61 -101q-162 111 -292 189z" />
    <glyph glyph-name="uni5360" unicode="&#x5360;" 
d="M745 -40h-491v-62h-110v496h281v410h114v-146h397v-101h-397v-163h316v-496h-110v62zM745 60v233h-491v-233h491z" />
    <glyph glyph-name="uni5361" unicode="&#x5361;" 
d="M826 13q-180 110 -316 186l56 86q182 -96 319 -175zM499 350v-456h-114v456h-330v102h330v354h114v-127h364v-98h-364v-129h446v-102h-446z" />
    <glyph glyph-name="uni5362" unicode="&#x5362;" 
d="M759 193h-511q-15 -168 -109 -299l-89 78q53 74 73 155q20 79 20 209v194h275v275h111v-88h410v-96h-410v-91h342v-394h-112v57zM759 289v144h-505v-100v-44h505z" />
    <glyph glyph-name="uni5364" unicode="&#x5364;" 
d="M782 -56h-563v-47h-104v652h296v257h110v-82h411v-92h-411v-83h365v-652h-104v47zM782 34v424h-563v-424h563zM588 251l158 -120l-63 -79q-46 37 -175 136q-93 -71 -204 -141l-62 87q95 48 186 114q-105 79 -169 124l63 70q73 -51 186 -133q79 65 150 139l75 -61
q-73 -73 -145 -136z" />
    <glyph glyph-name="uni5367" unicode="&#x5367;" 
d="M318 516v148h-127v-148h127zM731 421v-522h-105v902h105v-325l52 34q90 -105 170 -210l-89 -61q-65 95 -133 182zM549 187h-134v-158h154v-92h-478v820h470v-93h-146v-148h134v-329zM452 278v147h-261v-147h261zM318 29v158h-127v-158h127z" />
    <glyph glyph-name="uni536B" unicode="&#x536b;" 
d="M460 54h480v-106h-880v106h285v590h-237v107h776l-14 -392q-3 -82 -42 -109q-40 -28 -154 -28h-131l-16 113h130q59 0 79 14q21 14 22 56l7 239h-305v-590z" />
    <glyph glyph-name="uni536F" unicode="&#x536f;" 
d="M351 357v19v238h103v-258q2 -149 -38 -244q-52 -127 -248 -223l-80 75q132 63 188 125q54 60 68 154q-114 -50 -215 -88l-47 85q14 14 19 27q5 14 5 40v425q167 21 333 65l46 -98q-171 -39 -277 -53v-349q69 26 143 60zM544 -96v841h358v-570q0 -60 -30 -80
q-28 -19 -109 -19h-72l-16 104h72q31 0 42 8q10 7 10 29v429h-152v-742h-103z" />
    <glyph glyph-name="uni5370" unicode="&#x5370;" 
d="M209 370v-236q140 38 226 66l12 -107q-173 -57 -331 -97l-41 95q30 19 29 59v585q178 23 325 65l46 -99q-128 -32 -266 -52v-181h236v-98h-236zM505 -104v845h396v-590q0 -60 -31 -81q-30 -21 -112 -21h-95l-16 106h91q37 0 48 8t11 33v447h-186v-747h-106z" />
    <glyph glyph-name="uni5371" unicode="&#x5371;" 
d="M479 -93q-73 0 -106 32q-35 34 -35 113v353h500l-8 -187q-2 -63 -32 -84t-118 -21h-125l-13 87h122q38 0 51 9q12 8 14 35l3 69h-290v-234q0 -43 16 -60q17 -18 57 -18h224q44 0 64 14q18 13 26 45q10 44 13 93l101 -31q-13 -74 -25 -121q-13 -50 -49 -71
q-39 -23 -118 -23h-272zM700 569h242v-90h-683v-133q0 -171 -25 -262q-24 -89 -97 -191l-86 69q64 89 85 167q21 77 21 216v139q-21 -16 -77 -56l-28 108q92 63 161 132q62 62 119 144l123 -15q-26 -38 -40 -56h379v-82zM569 569l85 86h-309q-47 -51 -85 -86h309z" />
    <glyph glyph-name="uni5373" unicode="&#x5373;" 
d="M566 -104v851h337v-613q0 -62 -32 -84q-29 -20 -113 -20h-54l-14 97h58q34 0 45 8q12 9 12 33v479h-141v-751h-98zM396 52q-137 -64 -278 -120l-44 87q28 24 28 72v668h385v-483h-286v-204q108 46 149 64q-44 78 -47 83l87 34q93 -152 146 -250l-88 -47q-28 54 -52 96z
M390 473h-189v-107h189v107zM390 561v108h-189v-108h189z" />
    <glyph glyph-name="uni5374" unicode="&#x5374;" 
d="M561 -102v843h345v-602q0 -64 -33 -87q-30 -21 -117 -21h-55l-15 97h63q35 0 46 8q12 9 12 34v472h-147v-744h-99zM423 2q-167 -12 -345 -21l-21 80q27 21 51 61q51 82 97 201h-146v96h187v138h-162v95h162v152h103v-152h152v-95h-152v-138h176v-96h-208
q-65 -137 -125 -239q126 6 194 10q-29 73 -59 146l87 32q88 -201 130 -303l-95 -34q-8 21 -26 67z" />
    <glyph glyph-name="uni5375" unicode="&#x5375;" 
d="M540 -98v842h364v-571q0 -64 -32 -86q-31 -21 -117 -21h-72l-15 103h79q37 0 50 9t13 36v432h-173v-744h-97zM363 324v44v251h95v-252q2 -158 -37 -254q-50 -123 -228 -223l-86 69q119 60 173 118q55 58 71 142q-98 -43 -238 -95l-41 82q28 22 27 74v452q191 22 343 65
l44 -94q-104 -26 -293 -55v-392q101 37 170 68zM734 296q-31 77 -95 215l73 30q64 -130 98 -210zM284 366q-41 103 -82 190l70 29q51 -108 83 -186z" />
    <glyph glyph-name="uni5377" unicode="&#x5377;" 
d="M743 634h160v-84h-392q-10 -30 -31 -73h456v-87h-235q92 -92 250 -132l-46 -95q-116 43 -194 99l-4 -104q-2 -54 -27 -71t-100 -17h-120l-12 74h114q28 0 38 7t11 26l2 43h-279v-160q0 -63 63 -63h274q41 0 59 12q17 11 25 40q9 34 15 80l100 -32q-14 -67 -23 -97
q-15 -50 -48 -71q-35 -22 -103 -22h-327q-136 0 -136 129v177q-60 -43 -141 -86l-48 99q160 75 248 164h-230v87h301q23 35 39 73h-297v84h156q-47 58 -99 110l87 44q51 -49 111 -112l-73 -42h145q20 67 33 173h107q-18 -115 -35 -173h171l-62 42q56 49 116 113l87 -45
q-45 -51 -106 -110zM659 305q-43 40 -74 85h-159q-33 -45 -76 -85h309z" />
    <glyph glyph-name="uni5378" unicode="&#x5378;" 
d="M592 -101v841h318v-614q0 -57 -29 -77q-27 -19 -105 -19h-50l-15 98h54q30 0 40 7t10 29v481h-127v-746h-96zM256 710h281v-87h-146v-127h164v-88h-164v-102h144v-85h-144v-133q81 9 162 19l-4 -99q-234 -33 -485 -58l-13 105q31 3 61 6v287h92v-279q30 3 88 9v330h-232
v88h232v127h-84q-33 -54 -92 -120l-64 70q99 108 140 235l101 -11q-20 -52 -37 -87z" />
    <glyph glyph-name="uni537F" unicode="&#x537f;" 
d="M663 -100v845h249v-630q0 -42 -21 -56q-20 -14 -77 -14h-43l-13 89h36q21 0 28 5t7 20v497h-82v-756h-84zM236 290q1 18 1 55v274h78v-272q0 -184 -33 -274q-32 -89 -132 -181l-78 48q73 61 106 113q37 57 49 135q-36 -22 -111 -61l-46 74q20 25 20 62v474q115 22 208 59
l38 -87q-68 -23 -164 -47v-408q38 20 64 36zM560 49q-52 -33 -166 -101l-50 69q25 31 25 73v668h242v-478h-163v-201q72 45 82 52q-22 62 -34 93l71 23q43 -105 92 -250l-72 -26q-13 39 -27 78zM538 478h-90v-115h90v115zM538 560v115h-90v-115h90z" />
    <glyph glyph-name="uni5382" unicode="&#x5382;" 
d="M152 -100l-99 85q71 93 94 193q21 92 20 267v305h775v-115h-655v-191q0 -207 -25 -310q-26 -107 -110 -234z" />
    <glyph glyph-name="uni5384" unicode="&#x5384;" 
d="M504 -93q-84 0 -120 35t-36 119v492h498l-13 -267q-3 -64 -34 -85t-120 -21h-120l-15 98h115q43 0 58 10t16 41l4 124h-281v-375q0 -39 18 -55q17 -15 58 -15h192q47 0 67 14q19 13 26 50q11 59 15 116l108 -36q-10 -73 -24 -133q-16 -64 -53 -88t-121 -24h-238z
M133 -102l-86 80q58 96 78 185t20 254v337h795v-102h-687v-240q0 -183 -23 -287q-26 -116 -97 -227z" />
    <glyph glyph-name="uni5385" unicode="&#x5385;" 
d="M694 421v-392q0 -67 -36 -91q-34 -23 -127 -23h-127l-15 101h123q42 0 57 11q14 10 14 41v353h-296v102h653v-102h-246zM131 -102l-85 81q56 91 74 181q18 89 18 269v324h802v-104h-693v-216q0 -199 -24 -311q-25 -114 -92 -224z" />
    <glyph glyph-name="uni5386" unicode="&#x5386;" 
d="M134 -105l-84 81q56 90 74 173q18 82 18 239v364h799v-105h-691v-259q0 -177 -22 -276q-24 -109 -94 -217zM580 475h309l-16 -433q-2 -68 -35 -91t-129 -23h-137l-15 105h123q49 0 67 12t19 47l10 280h-200q-8 -165 -65 -271q-57 -105 -200 -204l-81 85q129 87 178 169
q47 79 58 221h-172v103h177q2 67 3 134h111q-1 -50 -5 -134z" />
    <glyph glyph-name="uni5389" unicode="&#x5389;" 
d="M125 -104l-77 82q57 93 76 177q18 80 18 235v363h796v-100h-691v-265q0 -178 -26 -284q-26 -107 -96 -208zM525 462q-1 -35 -3 -83q-1 -12 -2 -23h352l-15 -315q-3 -69 -37 -92q-33 -23 -130 -23h-128l-14 101h122q48 0 65 12t18 46l10 174h-250q-15 -122 -59 -201
t-144 -163l-81 80q102 80 141 158q37 75 45 211q4 80 5 118h-139v97h657v-97h-413z" />
    <glyph glyph-name="uni538B" unicode="&#x538b;" 
d="M642 48h300v-102h-691v102h280v272h-220v102h220v177h111v-177h266v-102h-266v-272zM820 81q-33 44 -122 145l73 58q53 -56 129 -140zM139 -108l-85 80q57 92 75 171q18 81 18 250v352h791v-104h-683v-248q0 -191 -22 -289q-23 -103 -94 -212z" />
    <glyph glyph-name="uni538C" unicode="&#x538c;" 
d="M136 -102l-84 81q56 89 74 171q17 78 17 242v363h793v-105h-684v-260q0 -180 -22 -278q-24 -107 -94 -214zM825 437q-64 64 -130 124l64 60q85 -72 134 -116zM638 333q28 -119 98 -193q69 -73 209 -135l-65 -100q-123 67 -188 131q-70 70 -106 168q-58 -179 -288 -309
l-63 95q139 73 204 154q62 77 77 189h-225v97h232q2 110 2 188h110q-2 -94 -5 -188h301v-97h-293z" />
    <glyph glyph-name="uni5395" unicode="&#x5395;" 
d="M117 -105l-75 76q43 81 58 166q16 89 16 259v364h822v-89h-726v-277q0 -188 -18 -287q-20 -107 -77 -212zM269 139v469h352v-467h-76v379h-201v-381h-75zM475 149q40 -33 173 -150l-57 -77q-49 49 -147 141q-43 -85 -170 -167l-60 79q120 69 154 129q34 59 34 195v164h84
v-163q0 -93 -11 -151zM695 -87l-13 89h83q34 0 44 7t10 31v594h88v-636q0 -50 -27 -68q-25 -17 -95 -17h-90zM679 99v469h77v-469h-77z" />
    <glyph glyph-name="uni5398" unicode="&#x5398;" 
d="M134 -105l-84 78q49 88 65 172q17 87 17 256v361h810v-88h-708v-281q0 -187 -19 -283q-20 -100 -81 -215zM541 240h-236v375h571v-375h-236v-65h255v-80h-255v-71h304v-87h-710v87h307v71h-253v80h253v65zM781 315v77h-141v-77h141zM781 463v77h-141v-77h141zM541 315v77
h-140v-77h140zM541 463v77h-140v-77h140z" />
    <glyph glyph-name="uni539A" unicode="&#x539a;" 
d="M786 506v51h-386v-51h386zM786 400v51h-386v-51h386zM882 330h-579v297h579v-297zM126 -108l-76 74q47 93 63 178q16 87 16 254v363h810v-85h-711v-285q0 -173 -22 -281q-22 -107 -80 -218zM710 133h235v-76h-271v-56q0 -55 -28 -74t-103 -19h-140l-11 77h122q30 0 40 7
t10 28v37h-325v76h325v16l147 59h-411v70h584v-72z" />
    </font>
</defs>
</svg>
